osu file format v5

[General]
AudioFilename: Imogen Heap - The Walk.mp3
AudioLeadIn: 0
PreviewTime: 59462
Countdown: 0
SampleSet: Normal
StackLeniency: 0.7
Mode: 0
LetterboxInBreaks: 1
EditorBookmarks: 7836,141700,168134
EditorDistanceSpacing: 1.5
UseSkinSprites: 1

[Metadata]
Title:The Walk
Artist:Imogen Heap
Creator:Seibei4211
Version:Normal
Source:
Tags:

[Difficulty]
HPDrainRate:4
CircleSize:3
OverallDifficulty:4
SliderMultiplier:1.7
SliderTickRate:1

[Events]
//Background and Video events
0,0,"The Walk - Imogen Heap.jpg"
//Break Periods
2,87774,89611
2,141480,143317
//Storyboard Layer 0 (Background)
//Storyboard Layer 1 (Failing)
//Storyboard Layer 2 (Passing)
//Storyboard Layer 3 (Foreground)
//Storyboard Sound Samples
//Background Colour Transformations
3,100,163,162,255

[TimingPoints]
302,419.58041958042,4,2,0,40,1,0
33851,-100,4,1,0,30,0,0
47609,-100,4,1,0,40,0,0
59570,-100,4,1,0,15,0,0
59779,-100,4,1,0,25,0,0
59988,-100,4,1,0,35,0,0
60197,-100,4,1,0,45,0,0
60406,-100,4,1,0,40,0,0
85774,-100,4,1,0,30,0,0
86193,-100,4,1,0,40,0,0
86612,-100,4,1,0,50,0,0
87031,-100,4,1,0,60,0,0
90704,-100,4,1,0,40,0,0
139480,-100,4,1,0,30,0,0
139899,-100,4,1,0,40,0,0
140318,-100,4,1,0,50,0,0
140737,-100,4,1,0,60,0,0
141576,-100,4,1,0,40,0,0
153326,-100,4,1,0,45,0,0
153745,-100,4,1,0,55,0,0
154164,-100,4,1,0,60,0,0
154583,-100,4,1,0,70,0,0
155004,-100,4,1,0,60,0,0

[HitObjects]
256,272,7854,2,0,B|256:160,1,85
80,192,8483,1,0
256,64,10371,5,0
256,64,10581,1,0
256,192,11001,1,0
112,192,11420,1,0
256,192,11840,1,0
384,192,12260,1,0
256,192,12679,1,0
256,320,13099,2,0,B|256:224,1,85
256,112,14567,6,0,B|256:208,1,85
432,192,15197,1,0
336,192,16875,6,0,B|448:192,2,85
192,192,17714,1,0
256,80,18134,1,0
112,80,18553,1,0
32,192,18973,1,0
112,304,19393,1,0
192,192,19812,2,0,B|304:192,1,85
80,64,20861,6,0,B|192:64,1,85
192,192,21490,2,0,B|304:192,1,85
304,320,22120,2,0,B|416:320,1,85
432,192,22749,1,0
280,192,23169,2,0,B|184:192,1,85,0|0
128,192,23588,1,0
288,64,24218,6,0,B|400:64,1,85
432,192,24847,2,0,B|336:192,1,85
288,320,25476,2,0,B|384:320,2,85
128,192,26525,1,0
256,192,26945,1,0
320,192,27155,2,0,B|400:192|432:144|416:80|384:48|304:64,1,255
176,64,28204,6,0,B|80:64,1,85
96,192,28833,2,0,B|192:192,1,85
272,64,29462,2,0,B|368:64|368:64|368:160,1,170
368,138,30092,2,0,B|368:224,1,85
224,224,30721,1,0
80,224,31141,1,0
80,80,31560,1,0
224,80,31980,2,0,B|176:120|168:184|232:232,1,170,0|0
256,192,32504,12,0,33868
256,192,34288,5,0
80,64,34917,1,0
288,64,35546,1,0
104,192,36176,2,0,B|280:192,1,170
336,192,36805,6,0,B|432:192,1,85
421,192,37225,2,0,B|421:95,1,85
288,48,37854,1,0
144,48,38274,1,0
288,144,38693,1,0
144,144,39113,1,0
288,240,39532,1,0
144,240,39952,1,0
144,240,40162,2,0,B|64:240|64:240|64:144,1,170,0|4
192,144,41001,6,0,B|288:144|288:144|288:64,1,170
288,69,41630,2,0,B|384:69|384:69|384:145,1,170
384,143,42260,1,0
256,304,42889,5,0
256,160,43308,1,0
64,88,43938,5,0
64,88,44148,2,0,B|136:80|168:144|160:208,1,170
312,200,44987,1,0
336,88,45406,2,0,B|264:80|232:144|240:208,1,170
104,192,46246,2,0,B|8:192,1,85
64,120,46665,2,0,B|168:120,1,85,0|0
104,48,47085,2,0,B|8:48,1,85,0|0
128,120,47714,6,0,B|224:120,1,85
128,232,48343,2,0,B|216:232,1,85
408,176,49183,6,0,B|216:176,1,170
104,176,50022,1,0
209,91,50441,2,0,B|209:275,1,170
280,256,51071,6,0,B|376:256,1,85
280,144,51700,2,0,B|368:144,1,85
160,144,52539,5,0
160,144,52749,2,0,B|96:160|72:200|80:248|96:280|128:304|192:288,1,255
256,192,53798,1,0
256,192,54008,12,0,55686
104,192,56315,6,0,B|104:136|152:96|192:80|232:88,1,170
168,240,57155,2,0,B|232:224|264:184|264:144|256:112,1,170
408,192,57994,2,0,B|408:136|360:96|320:80|280:88,1,170
344,240,58834,2,0,B|280:224|248:184|248:144|256:112,1,170
256,256,59672,6,0,B|256:352,3,85
256,192,60511,12,4,62399
144,192,62819,6,0,B|160:136|200:104|240:88|280:96,1,170
264,168,63448,2,0,B|376:168,1,85
352,96,63868,1,0
424,96,64078,6,0,B|440:168|432:232|368:264|312:248|280:248,2,255,4|0|0
272,144,65756,5,0
272,144,65966,1,0
200,144,66176,1,8
200,304,66595,5,0
200,304,66805,1,0
272,304,67015,1,8
152,224,67434,6,0,B|344:224,1,170,4|0
240,88,68274,1,0
376,152,68693,2,0,B|272:152,1,85,0|4
72,192,69532,6,0,B|88:136|128:104|168:88|208:96,2,170
256,192,70791,12,8,72889
168,192,73308,6,8,B|344:192,1,170
256,64,74148,6,0,B|200:48|152:64|120:120|112:152,1,170,4|0
192,264,74987,2,0,B|192:208|208:160|248:128|288:120|328:120|376:136,1,255
361,131,75826,1,0
360,280,76246,6,0,B|304:256|280:216|272:176|272:136,1,170
192,144,76875,2,0,B|96:144,2,85,0|0|0
192,216,77504,6,0,B|256:216|288:200|296:152|296:128|344:88|416:96,2,255,4|0|0
192,216,78973,2,0,B|96:216,2,85
192,64,79812,5,0
192,64,80022,2,0,B|328:64,2,127.5
136,112,80861,2,0,B|112:152|112:216|168:264|216:264,1,170,4|0
232,112,81700,2,0,B|416:112,1,170
402,112,82329,1,0
184,176,82959,6,0,B|128:192|88:224|88:280|88:320,2,170
256,192,84218,12,0,85476
368,112,85896,6,0,B|264:112,1,85
224,152,86315,2,0,B|112:152,1,85,8|0
136,224,86735,2,0,B|232:224,1,85,8|0
280,264,87155,2,0,B|392:264,2,85,8|0|0
88,152,90931,5,0
88,152,91141,2,0,B|104:96|160:64|192:64|248:72,1,170
88,232,91980,2,0,B|104:288|160:320|192:320|248:312,1,170
128,192,92819,2,0,B|312:192,1,170
448,192,93658,1,0
448,192,93868,2,0,B|256:192,1,170,0|4
278,192,94707,1,0
120,192,95127,5,0
120,192,95336,2,0,B|184:200|208:176|232:136|216:88,1,170
217,92,95966,1,0
424,192,96595,6,0,B|248:192,1,170
288,120,97225,6,0,B|240:104|184:120|160:160|160:200,1,170
160,272,97854,2,0,B|112:248|80:208|80:152|88:112,1,170
240,136,98693,1,0
320,272,99113,2,0,B|368:248|400:208|400:152|392:112,1,170
240,136,99952,1,0
240,296,100371,1,0
240,216,100581,2,0,B|64:216,1,170,0|0
136,72,101420,6,0,B|256:72,1,85
96,192,102050,2,0,B|192:192,1,85
136,312,102679,2,0,B|224:312,1,85
368,256,103308,6,0,B|320:248|296:208|288:160|296:120,1,170
144,256,104148,2,0,B|192:248|216:208|224:160|216:120,1,170,0|0
296,72,104777,6,0,B|416:72,1,85
336,192,105407,2,0,B|432:192,1,85
296,312,106036,2,0,B|384:312,1,85
480,192,106665,6,0,B|296:192,1,170
40,192,107504,2,0,B|232:192,1,170
256,128,108134,6,0,B|256:40,1,85
200,192,108763,2,0,B|200:288,1,85,0|0
312,192,109392,2,0,B|312:288,1,85
408,192,110022,6,0,B|408:136|360:96|320:80|280:88,1,170
344,240,110862,2,0,B|280:224|248:184|248:144|256:112,1,170
104,192,111701,2,0,B|104:136|152:96|192:80|232:88,1,170
168,240,112541,2,0,B|232:224|264:184|264:144|256:112,1,170
256,256,113378,6,0,B|256:352,3,85,0|8|0|8
256,192,114218,12,4,116106
256,80,116525,6,0,B|200:80|144:128|136:200,2,170
256,232,117784,2,0,B|304:240|352:232|384:192|392:136|368:96|312:56,2,255,4|0|0
200,88,119462,5,0
200,88,119672,1,0
128,88,119882,1,8
128,248,120301,5,0
128,248,120511,1,0
200,248,120721,1,8
248,168,121140,6,0,B|56:168,1,170,4|0
160,32,121980,1,0
24,96,122399,2,0,B|128:96,1,85,0|4
336,192,123239,6,0,B|248:152|152:200,2,170,0|0|0
256,192,124288,12,8,126595
168,192,127015,6,8,B|352:192,2,170,8|8|4
64,72,128274,1,0
216,40,128693,2,0,B|272:56|312:96|320:120|336:160,1,170
256,152,129322,2,0,B|232:216|256:256|296:280|344:280|384:264|400:208,1,255
472,80,130371,6,0,B|416:64|360:56|296:72,1,170
176,152,131211,6,0,B|160:192|160:240|224:256|256:248|304:216|280:136|232:136,2,255,4|0|0
176,152,132679,2,0,B|72:152,2,85
176,304,133518,5,0
176,304,133728,2,0,B|328:304,2,127.5
104,272,134567,2,0,B|72:232|72:184|96:144|136:120,1,170,4|0
264,192,135406,2,0,B|448:192,1,170
434,192,136036,1,0
200,192,136665,6,0,B|24:192,2,170
256,192,137924,12,0,139183
144,112,139602,6,0,B|248:112,1,85
288,152,140021,2,0,B|400:152,1,85,8|0
376,224,140441,2,0,B|280:224,1,85,8|0
232,264,140861,2,0,B|120:264,2,85,8|0|0
80,192,144637,6,0,B|168:192|168:192|168:96,1,170
240,112,145267,2,0,B|328:112,2,85
240,184,145896,2,0,B|416:184,1,170
488,184,146525,2,0,B|488:280,1,85
411,267,146945,2,0,B|152:267,1,255
156,267,147784,1,0
328,144,148413,6,0,B|296:112|248:104|208:112|168:144,1,170
256,264,149253,2,0,B|256:352,1,85
256,192,149882,1,0
256,192,150092,1,0
256,192,150302,1,0
40,128,151350,6,0,B|40:64|72:40|112:32|160:48,2,170
32,280,152609,2,0,B|104:288|144:264|152:224|144:176,1,170
144,112,153239,2,0,B|240:112,1,85,0|8
264,176,153658,2,0,B|368:176,1,85,0|8
408,216,154078,2,0,B|496:216,1,85,0|8
494,139,154497,2,0,B|396:139,1,85,0|4
264,192,155127,6,0,B|88:192,1,170
48,128,155756,1,0
96,64,155966,2,0,B|272:64,1,170,0|4
312,128,156595,2,0,B|408:128,1,85,0|2
312,208,157015,2,0,B|408:208,2,85,0|2|0
232,208,157644,2,0,B|176:208|144:184|136:136|144:88,2,170,0|6|6
384,208,158903,6,0,B|392:160|376:120|336:96|280:104,1,170,6|8
250,178,159532,1,0
216,104,159742,2,0,B|160:96|104:128|112:192|120:232,1,170,4|8
192,208,160371,1,0
168,280,160581,2,0,B|360:280,1,170,4|8
304,208,161211,1,0
376,208,161420,6,0,B|376:160|360:120|312:104|264:112,2,170,4|0|4
72,208,163099,6,0,B|72:112,1,85,12|4
200,208,163728,2,12,B|200:120,1,85,8|12
136,264,164357,1,12
280,208,164777,6,0,B|376:208,1,85,12|0
416,152,165197,1,8
365,94,165406,2,0,B|269:94,1,85,12|0
232,152,165826,1,12
104,64,166246,6,0,B|8:64,2,85,0|12|0
168,104,166875,2,0,B|256:104,1,85,12|0
168,184,167295,2,0,B|264:184,1,85,12|0
168,264,167714,1,12
256,264,167924,2,0,B|352:264,1,85,8|4
