osu file format v5

[General]
AudioFilename: Imogen Heap - The Walk.mp3
AudioLeadIn: 0
PreviewTime: 59462
Countdown: 0
SampleSet: Soft
StackLeniency: 0.7
Mode: 0
LetterboxInBreaks: 1
UseSkinSprites: 1

[Editor]
Bookmarks: 7836,141700,168134
DistanceSpacing: 0.9
BeatDivisor: 6
GridSize: 4

[Metadata]
Title:The Walk
Artist:Imogen Heap
Creator:Seibei4211
Version:Hard
Source:
Tags:

[Difficulty]
HPDrainRate:5
CircleSize:4
OverallDifficulty:6
ApproachRate:6
SliderMultiplier:2
SliderTickRate:1

[Events]
//Background and Video events
0,0,"The Walk - Imogen Heap.jpg"
//Break Periods
2,87774,89713
2,141480,143420
//Storyboard Layer 0 (Background)
//Storyboard Layer 1 (Fail)
//Storyboard Layer 2 (Pass)
//Storyboard Layer 3 (Foreground)
//Storyboard Sound Samples
//Background Colour Transformations
3,100,163,162,255

[TimingPoints]
302,419.58041958042,4,2,0,40,1,0
33851,-100,4,1,0,40,0,0
47085,-100,4,1,0,40,0,0
59570,-100,4,1,0,15,0,0
59779,-100,4,1,0,25,0,0
59988,-100,4,1,0,35,0,0
60197,-100,4,1,0,45,0,0
60406,-100,4,1,0,50,0,0
85774,-100,4,1,0,30,0,0
86193,-100,4,1,0,40,0,0
86612,-100,4,1,0,50,0,0
87031,-100,4,1,0,60,0,0
90704,-100,4,1,0,40,0,0
116315,-100,4,1,0,50,0,0
139480,-100,4,1,0,30,0,0
139899,-100,4,1,0,40,0,0
140318,-100,4,1,0,50,0,0
140737,-100,4,1,0,60,0,0
141576,-100,4,1,0,40,0,0
153326,-100,4,1,0,45,0,0
153745,-100,4,1,0,55,0,0
154164,-100,4,1,0,60,0,0
154583,-100,4,1,0,70,0,0
155004,-100,4,1,0,60,0,0

[HitObjects]
96,96,7854,1,0
141,161,8064,2,0,B|177:114|291:114|329:172,2,200
96,288,10371,5,0
160,209,10581,1,0
312,256,11001,1,0
465,209,11420,2,0,B|467:143|424:91|324:94,1,200,0|0
175,64,12260,1,0
128,256,12679,1,0
256,98,13099,1,0
336,96,13308,2,0,B|396:108|444:152|430:208|370:234|239:224,1,300
64,64,14567,5,0
191,64,14777,1,0
126,210,15197,1,0
416,288,16875,5,0
314,224,17085,1,0
414,158,17295,1,0
283,64,17714,1,0
136,128,18134,1,0
283,190,18553,1,0
136,254,18973,1,0
283,316,19392,1,0
432,257,19812,2,0,B|432:148,1,100
125,64,20861,6,0,B|18:64,1,100,0|0
172,128,21490,2,0,B|286:128,1,100,0|0
125,192,22120,2,0,B|20:192,1,100,0|0
72,256,22539,5,0
145,288,22749,2,0,B|216:311|301:304|362:278,1,200,0|0
394,224,23378,1,0
344,161,23588,2,0,B|230:161,1,100,0|0
116,64,24218,6,0,B|225:64,1,100
344,160,24847,2,0,B|233:160,1,100
116,257,25476,2,0,B|220:257,1,100
288,290,25896,6,0,B|359:286|395:227|382:180|365:102|237:132,1,300
102,193,26945,1,0
182,193,27155,2,0,B|295:193,1,100
332,129,27574,6,0,B|439:129,2,100
259,94,28204,2,0,B|154:94,2,100
333,64,28833,2,0,B|440:64,2,100
258,35,29462,6,0,B|48:35,1,200
62,114,30092,1,0
142,113,30302,1,0
302,112,30721,1,0
144,190,31141,1,0
304,186,31560,1,0
129,271,31980,2,0,B|338:271,1,200
256,192,32609,12,0,33868
256,193,34288,5,0
128,96,34707,6,0,B|235:96,1,100,0|0
375,160,35336,2,0,B|268:160,1,100,0|0
128,224,35966,2,0,B|240:224,1,100,0|0
308,224,36385,2,0,B|419:224,1,100,0|0
457,160,36805,5,0
408,96,37015,1,0
359,160,37225,1,0
279,160,37434,1,0
177,63,37854,1,0
75,159,38274,1,0
177,253,38693,1,0
279,160,39113,1,0
380,63,39532,1,0
481,159,39952,2,0,B|376:159,1,100
234,222,40581,5,0
394,222,41001,1,0
246,160,41420,2,0,B|136:160,1,100
303,128,42050,2,0,B|405:128,1,100
245,96,42679,2,0,B|135:96,1,100
45,96,43099,2,0,B|149:96,1,100,0|0
382,129,43938,5,0
308,160,44148,1,0
161,96,44567,1,0
34,193,44987,1,0
160,290,45406,1,0
287,192,45826,1,0
126,192,46246,1,0
205,192,46455,1,0
245,122,46665,1,0
287,192,46875,1,0
433,256,47295,6,0,B|320:256,1,100
287,192,47714,2,0,B|392:192,1,100
435,127,48134,2,0,B|322:127,2,100
287,64,48973,2,0,B|176:64,1,100
113,95,49392,1,0
66,160,49602,2,0,B|180:160,1,100
239,192,50022,1,0
385,256,50441,1,0
181,128,51071,6,0,B|79:128,2,100
261,128,51700,2,0,B|261:23,2,100
341,126,52329,2,0,B|451:126,1,100
484,193,52749,5,0
33,193,53378,1,0
255,192,53798,1,0
256,192,54008,12,0,55686
126,128,56315,6,0,B|172:89|227:80|262:80|320:100,1,200
388,129,56945,1,0
436,193,57155,1,0
276,191,57574,1,0
115,191,57994,1,0
200,64,58413,1,0
276,192,58833,1,0
127,256,59672,5,0
200,288,59882,1,0
273,255,60092,1,0
198,224,60302,1,0
256,192,60511,12,4,62399
256,192,62819,6,0,B|143:192,1,100,8|0
104,128,63239,2,0,B|212:128,1,100
256,64,63658,2,0,B|143:64,1,100,8|0
108,127,64078,1,4
264,128,64497,2,0,B|368:128,1,100,8|0
264,272,65127,2,0,B|160:272,1,100,0|8
112,208,65546,1,0
140,128,65756,5,0
140,128,65966,1,0
136,48,66176,1,8
208,24,66385,1,0
280,48,66595,1,0
240,128,66805,2,0,B|348:128,2,100,0|8|0
240,208,67434,6,0,B|192:240|128:232|96:200|88:136,1,200,4|8
176,144,68064,1,0
24,80,68483,1,0
88,40,68693,2,0,B|192:40,1,100,8|0
256,80,69113,1,4
96,104,69532,6,0,B|12:176,1,100,8|0
98,183,69952,2,0,B|15:255,2,100,0|0|8
100,263,70581,2,0,B|22:330,1,100
256,192,70896,12,8,72889
167,128,73308,6,0,B|266:45|367:148,2,200,8|8|4
256,224,74567,1,8
408,264,74987,1,0
256,304,75406,2,0,B|160:256,1,100,8|0
84,84,76246,6,0,B|197:84,1,100,8|0
256,118,76665,2,0,B|256:227,2,100,0|0|8
329,85,77295,2,0,B|442:85,1,100,0|4
264,88,77924,2,0,B|176:176,1,100,8|0
400,224,78553,1,0
448,160,78763,1,8
360,160,78973,2,0,B|248:160,1,100
360,232,79392,2,0,B|240:232,1,100,0|8
263,232,79812,6,0,B|157:232,1,100
62,166,80336,1,8
164,103,80651,1,0
208,168,80861,6,0,B|256:208|312:192|360:160|352:96,1,200,4|8
256,104,81490,1,0
136,248,81910,1,0
136,328,82120,2,0,B|240:328,1,100,8|0
235,247,82539,1,4
128,97,82959,6,0,B|128:211,1,100,8|0
188,144,83378,2,0,B|188:252,1,100
250,193,83798,2,0,B|250:312,1,100,8|0
256,192,84218,12,0,85476
128,128,85896,6,0,B|236:128,1,100
301,160,86315,2,0,B|420:160,1,100,8|0
402,224,86735,2,0,B|293:224,1,100,8|0
227,253,87155,2,0,B|121:253,2,100,8|0|0
128,192,90931,5,0
176,128,91141,1,0
272,256,91560,1,0
368,128,91980,1,0
462,257,92399,1,0
301,257,92819,1,0
204,129,93239,1,0
107,256,93658,2,0,B|220:256,1,100
177,98,94288,5,4
337,98,94707,1,0
239,224,95127,2,0,B|352:224,1,100,0|0
191,160,95756,2,0,B|88:160,1,100,0|0
191,284,96385,2,0,B|86:284,1,100,0|0
37,223,96805,2,0,B|154:223,1,100,0|0
217,224,97225,5,0
289,257,97434,1,0
335,192,97644,1,0
408,224,97854,1,0
311,96,98274,1,0
150,96,98693,1,0
22,192,99113,1,0
182,192,99532,1,0
328,256,99952,1,0
474,192,100371,2,0,B|368:192,1,100
216,192,101001,5,0
216,192,101211,1,0
216,192,101420,2,0,B|304:120,1,100
160,64,102050,2,0,B|268:64,1,100
440,192,102679,2,0,B|352:120,1,100,0|0
479,147,103099,6,0,B|396:80,1,100,0|0
227,63,103728,2,0,B|339:63,1,100
402,36,104148,2,0,B|402:252,1,200
321,238,104777,6,0,B|208:238,2,100
386,191,105406,2,0,B|498:191,2,100
311,161,106036,2,0,B|205:161,2,100
385,131,106665,2,0,B|451:112|411:58|343:52|276:63,1,200
206,96,107295,1,0
157,160,107504,2,0,B|125:210|133:272|240:296|373:250,1,300
411,192,108343,6,0,B|308:192,1,100
261,128,108763,2,0,B|261:16,2,100
212,191,109392,2,0,B|98:191,2,100
260,255,110022,6,0,B|264:313|344:333|406:288|374:218,1,200
308,192,110651,1,0
234,160,110861,2,0,B|141:204|141:204|141:95,1,200
291,161,111700,2,0,B|386:204|386:204|386:100,1,200
163,55,112539,2,0,B|369:55,1,200
224,160,113378,6,0,B|128:240,1,100,0|8
288,160,113798,2,0,B|384:240,1,100,0|8
256,112,114218,1,4
256,192,114322,12,4,116106
80,112,116525,5,8
160,112,116735,1,0
80,192,116945,2,0,B|192:192,1,100
80,272,117364,1,8
160,272,117574,1,0
256,192,117784,1,4
400,264,118204,2,0,B|480:184,1,100,8|0
328,264,118833,2,0,B|256:192,1,100,0|8
176,192,119253,1,0
96,192,119462,5,0
96,112,119672,1,0
176,112,119882,2,0,B|288:112,1,100,8|0
336,160,120301,1,0
400,208,120511,1,0
480,208,120721,1,8
400,208,120931,1,0
336,256,121141,6,0,B|264:264|232:216|232:144|312:120,1,200,4|8
192,128,121770,1,0
184,288,122190,1,0
184,208,122399,2,0,B|288:208,1,100,8|0
283,288,122819,1,4
160,192,123239,5,8
208,128,123448,1,0
256,192,123658,2,0,B|256:304,1,100
304,128,124078,1,8
352,192,124288,1,0
256,64,124497,1,0
256,192,124602,12,8,126595
256,192,127015,6,0,B|464:192,2,200,8|8|4
64,192,128274,1,8
64,80,128693,1,0
64,292,129113,2,0,B|64:188,1,100,8|0
272,192,129952,6,0,B|384:192,1,100,8|0
272,112,130371,1,0
192,112,130581,1,0
192,192,130791,1,8
192,272,131001,1,0
272,272,131211,1,4
272,112,131630,2,0,B|384:112,1,100,8|0
272,272,132260,1,0
192,272,132469,1,8
192,192,132679,5,0
272,192,132889,2,0,B|384:192,2,100,0|0|8
192,112,133518,2,0,B|80:112,1,100
272,112,134043,1,8
384,112,134357,1,0
448,160,134567,6,0,B|512:192|488:272|432:296|376:248,1,200,0|8
328,192,135197,1,0
168,192,135616,1,0
88,192,135826,2,0,B|88:88,1,100,8|0
168,96,136246,1,4
176,272,136665,5,8
256,272,136875,1,0
176,192,137085,2,0,B|64:192,1,100
176,112,137504,1,8
256,112,137714,1,0
256,192,137924,12,0,139183
384,128,139602,6,0,B|276:128,1,100
211,160,140022,2,0,B|92:160,1,100,8|0
110,224,140441,2,0,B|219:224,1,100,8|0
285,253,140861,2,0,B|391:253,2,100,8|0|0
96,192,144637,5,0
96,192,144847,1,0
96,192,145057,2,0,B|208:192,1,100
272,192,145476,1,0
272,192,145686,1,0
272,192,145896,2,0,B|272:80,1,100
352,96,146315,1,0
352,176,146525,1,0
432,176,146735,1,0
432,256,146945,2,0,B|128:256,1,300
132,256,147784,1,0
368,96,148413,5,0
320,176,148623,1,0
192,176,148833,1,0
144,96,149043,1,0
256,48,149253,1,0
256,128,149462,1,0
192,320,149882,1,0
320,320,150092,1,0
256,256,150301,1,0
64,64,151350,5,0
144,112,151560,1,0
224,64,151770,1,0
304,112,151980,2,0,B|416:112,1,100
400,208,152399,2,0,B|288:208,1,100
224,256,152819,1,0
144,208,153029,1,0
64,256,153239,1,0
64,160,153448,1,8
160,160,153658,2,0,B|272:160,1,100,0|8
384,160,154078,2,0,B|496:160,1,100,0|8
336,64,154497,2,0,B|225:64,1,100,0|4
48,64,155127,5,0
112,144,155336,1,0
208,144,155546,2,0,B|272:224,1,100,0|2
272,112,155966,2,0,B|352:208,1,100,0|2
432,192,156385,1,4
432,96,156595,1,0
352,48,156805,2,0,B|224:48,1,100,8|0
176,112,157225,2,0,B|64:112,1,100,8|0
176,192,157644,2,0,B|288:192,1,100,8|0
96,192,158064,1,6
352,192,158483,1,6
176,272,158903,5,6
272,272,159113,1,0
176,192,159322,1,8
272,192,159532,1,0
176,112,159742,1,4
176,32,159952,1,0
272,112,160162,1,8
272,32,160371,1,0
352,152,160581,1,4
448,152,160791,1,0
352,232,161001,1,8
448,232,161211,1,0
256,232,161420,5,4
32,224,161840,1,8
120,224,162050,1,0
192,160,162260,2,0,B|80:160,1,100,12|4
416,192,163099,6,0,B|336:112,1,100,12|4
256,120,163518,1,0
160,121,163728,2,0,B|88:193,1,100,8|12
256,192,164357,1,12
160,48,164777,5,12
256,48,164987,1,0
96,112,165197,1,8
256,176,165406,1,12
160,176,165616,1,0
320,112,165826,1,12
256,288,166246,5,0
256,192,166455,2,0,B|256:80,1,100,12|0
184,112,166875,1,4
328,112,167085,1,8
184,192,167295,1,12
328,192,167504,1,0
184,272,167714,1,12
328,272,167924,1,8
256,192,168134,1,4
