osu file format v9

[General]
AudioFilename: TheWalk.mp3
AudioLeadIn: 0
PreviewTime: -1
Countdown: 1
SampleSet: Soft
StackLeniency: 0.7
Mode: 0
LetterboxInBreaks: 1

[Editor]
Bookmarks: 7025,235277,262130
DistanceSpacing: 0.8
BeatDivisor: 4
GridSize: 8

[Metadata]
Title:The Walk
Artist:Imogen Heap
Creator:[DBF]
Version:Walking
Source:
Tags:

[Difficulty]
HPDrainRate:7
CircleSize:4
OverallDifficulty:7
ApproachRate:8
SliderMultiplier:1.7
SliderTickRate:1

[Events]
//Background and Video events
0,0,"wallpapers.jpg"
//Break Periods
//Storyboard Layer 0 (Background)
//Storyboard Layer 1 (Fail)
//Storyboard Layer 2 (Pass)
//Storyboard Layer 3 (Foreground)
//Storyboard Sound Samples
//Background Colour Transformations
3,100,0,0,0

[TimingPoints]
7026,419.58041958042,4,2,0,9,1,0
20242,-100,4,2,0,26,0,0
20662,-100,4,2,0,9,0,0
33879,-100,4,1,0,70,0,0
34088,-100,4,2,1,40,0,0
34928,-100,4,2,1,27,0,0
35452,-100,4,2,1,40,0,0
47620,-200,4,2,1,40,0,0
54546,-100,4,2,1,40,0,0
117690,-100,4,2,1,5,0,0
117795,-100,4,2,1,40,0,0
154823,-100,4,2,1,54,0,0
170137,-100,4,2,2,54,0,0
170347,-100,4,2,1,54,0,0
171816,-100,4,2,2,54,0,0
172026,-100,4,2,1,54,0,0
194893,-200,4,2,1,5,0,0
208529,-90.9090909090909,4,2,1,60,0,0
235172,-90.9090909090909,4,2,2,66,0,1
262340,-90.9090909090909,4,1,2,5,0,0

[Colours]
Combo1 : 255,132,79
Combo2 : 221,47,90
Combo3 : 240,198,249

[HitObjects]
104,101,7025,1,2
178,58,7235,1,2
239,117,7445,1,0
213,196,7655,1,0
128,192,7865,1,2
67,256,8074,5,0
124,324,8284,1,0
204,282,8494,1,0
213,196,8704,1,2
239,117,8914,1,2
321,128,9123,5,0
345,212,9333,1,0
272,260,9543,1,2
213,196,9753,1,0
239,117,9963,1,0
430,234,10382,5,0
430,234,10592,2,0,B|339:247|231:250,2,170
176,112,11851,2,0,B|94:113|-3:108,1,170
328,80,12690,6,0,B|419:74|510:71,1,170
428,154,13319,2,0,B|320:159|234:161,1,170
168,160,13949,1,0
80,168,14158,1,0
0,160,14368,1,0
40,272,14578,5,0
144,320,14788,2,0,B|220:324|319:325,1,170,0|4
173,55,16886,5,2
107,106,17095,1,0
130,187,17305,2,0,B|80:277|184:351,2,170
206,241,18564,6,0,B|298:299|230:383,1,170
95,209,19403,2,0,B|15:149|82:50,1,170
179,94,20032,2,0,B|287:98,1,85
263,97,20347,5,0
263,97,20452,1,0
441,296,20872,5,2
244,317,21081,1,2
47,70,21501,5,0
264,51,21711,1,2
403,215,22340,5,0
279,226,22550,1,0
158,239,22760,2,0,B|142:247|150:263|174:271|182:247|166:231|166:231|174:231|174:231|166:223|166:223|174:223|174:223|166:215|166:215|174:215|174:215|174:207|174:151,1,170
400,96,23389,1,0
288,72,23599,2,0,B|304:64|296:48|272:40|264:64|280:80|280:80|272:80|272:80|280:88|280:88|272:88|272:88|280:96|280:96|272:96|272:96|272:104|272:160,1,170
113,311,24228,5,4
352,304,24438,1,4
372,71,24858,5,0
128,48,25067,1,4
128,48,25697,5,0
32,176,25907,2,0,B|96:256|192:184,1,170
240,96,26536,2,0,B|272:0|392:48,1,170
416,200,27165,2,0,B|392:304|264:280,1,170,0|2
96,264,27795,1,2
160,48,28214,5,0
392,72,28424,1,2
256,192,28844,12,0,33879
65,128,34298,2,0,B|169:136,1,85,4|0
272,88,34718,1,2
373,150,34928,2,0,B|454:230|358:322,1,170,4|0
269,264,35557,1,4
156,261,35767,1,0
156,261,35872,1,0
156,261,35977,6,0,B|108:212|191:167,1,85,4|2
314,83,36396,2,0,B|410:89,1,85,0|2
139,139,36816,2,0,B|26:142,1,85,4|0
28,242,37235,5,6
381,205,37445,1,2
96,312,37655,2,0,B|92:217,1,85,4|0
288,320,38074,2,0,B|293:228,1,85,0|4
232,40,38494,5,8
160,160,38704,2,0,B|147:337,2,170,0|4|4
429,114,39753,1,0
113,145,39963,1,4
360,176,40172,2,8,B|453:229|385:353,1,170,8|4
162,338,40802,5,0
166,232,41012,2,0,B|169:117,1,85,12|0
320,32,41431,2,0,B|320:133,1,85,2|4
312,248,41851,2,0,B|260:313|151:291,1,170,12|4
80,336,42690,5,12
101,74,42900,1,4
168,113,43319,5,4
168,296,43529,1,8
232,168,43739,1,2
232,264,43949,2,0,B|334:269,1,85,4|4
360,192,44368,6,0,B|168:182,2,170,12|0|12
231,109,45417,2,0,B|329:114,1,85,4|0
296,32,45837,2,0,B|203:26,1,85,4|12
88,40,46256,5,4
44,171,46466,1,12
173,97,46676,1,4
160,240,46886,1,12
272,144,47095,1,4
296,295,47305,1,4
350,245,47515,5,0
308,184,47725,2,0,B|233:124|276:31,1,170,2|2
190,27,48774,1,0
190,27,48879,1,0
190,27,48984,6,0,B|129:24,1,42.5
80,120,49403,2,0,B|134:118,1,42.5,2|0
224,212,49823,2,0,B|174:217,1,42.5
80,312,50242,2,0,B|124:316,1,42.5,2|0
285,319,50662,5,4
448,288,50872,1,4
278,170,51081,1,8
204,92,51291,1,4
204,92,51396,1,0
204,92,51501,1,0
150,204,51711,5,4
240,297,51921,1,8
367,241,52130,1,0
367,241,52235,1,0
367,241,52340,1,4
256,48,52550,5,4
104,184,52760,5,8
151,299,52970,1,0
238,211,53179,1,0
262,363,53389,1,0
344,251,53599,1,8
386,371,53809,1,8
464,281,54019,6,0,B|478:189,1,85,0|4
419,132,54648,2,0,B|341:74|224:98,1,170,2|4
270,183,55277,2,0,B|200:227|87:212,1,170,2|0
166,112,55907,2,0,B|196:209|193:299,1,170,2|0
96,346,56536,5,2
102,203,56746,1,0
85,56,56956,1,2
187,222,57165,1,2
165,23,57375,1,4
240,72,57585,6,0,B|251:123|256:183,1,85,0|4
251,351,58005,2,0,B|243:296|238:251,1,85,0|4
197,139,58424,1,0
197,139,58529,1,0
197,139,58634,2,0,B|127:144|92:149,1,85,4|0
101,317,59053,2,0,B|246:230|451:239,1,340,2|2
345,147,60102,5,8
345,147,60312,1,4
345,147,60522,1,2
345,147,60732,2,0,B|162:159,1,170,0|4
72,160,61361,2,0,B|75:271|220:263,1,170,0|2
282,224,61991,2,0,B|402:211|399:354,2,170,4|0|4
187,173,63039,5,0
187,174,63144,1,0
187,174,63249,2,0,B|180:80,1,85,0|2
288,40,63669,2,0,B|388:47,1,85,4|2
448,110,64088,6,0,B|409:211|298:151,1,170,0|4
265,75,64718,2,0,B|176:19|94:114,1,170,2|0
80,184,65347,2,0,B|144:264|248:208,2,170,4|0|4
139,101,66396,1,0
139,101,66501,1,0
139,101,66606,6,0,B|233:111,1,85,0|2
345,162,67026,2,0,B|453:164,1,85,4|2
464,296,67445,2,0,B|398:221|302:296,1,170,0|4
312,288,68074,1,2
200,320,68284,2,0,B|96:320|88:208,1,170,0|4
216,32,68914,2,0,B|320:64|280:184,1,170,0|2
136,144,69543,5,4
141,264,69753,1,6
266,250,69963,1,0
108,184,70172,2,0,B|85:89,1,85,6|12
321,168,70592,2,0,B|336:70,1,85,0|0
175,118,71012,2,0,B|157:20,1,85,0|4
257,67,71431,1,0
257,67,71536,1,0
257,66,71641,6,0,B|243:165,1,85
199,299,72060,2,0,B|303:339|398:347,1,170,4|0
336,240,72690,1,0
115,194,72900,1,4
351,112,73109,5,0
180,312,73319,1,4
210,77,73529,5,0
326,292,73739,1,4
101,143,73949,5,0
350,73,74158,2,0,B|468:134|369:237,1,170,2|4
261,72,74788,2,0,B|81:69,1,170,0|0
343,137,75417,2,0,B|283:231|399:284,1,170,4|2
177,245,76046,1,0
177,245,76151,1,0
177,245,76256,6,0,B|184:150,1,85,4|0
166,57,76676,1,0
31,174,76886,1,0
164,311,77095,2,0,B|267:287|333:259,1,170,4|2
371,211,77935,5,4
160,192,78144,1,0
399,149,78564,5,0
168,128,78774,1,4
409,82,79193,5,2
409,82,79403,1,0
409,82,79613,2,0,B|315:72,1,85,12|0
199,73,80032,2,0,B|103:80,1,85
35,171,80452,1,4
35,171,80557,1,0
35,171,80662,1,8
192,160,80872,6,0,B|137:238|206:325,1,170,2|4
399,231,81501,2,0,B|454:143|381:56,1,170,0|0
281,54,82130,2,0,B|99:50,1,170,4|2
141,134,82760,5,2
141,134,82865,1,0
141,134,82970,1,4
218,106,83179,1,2
218,106,83389,1,0
293,146,83599,5,2
293,146,83704,1,0
293,146,83809,1,4
365,102,84019,1,2
365,102,84228,1,0
423,162,84438,6,0,B|419:265,1,85,2|4
338,288,84858,1,2
258,251,85067,2,0,B|187:196|219:89,2,170,0|4|0
115,295,86326,5,4
135,85,86536,1,2
202,301,86746,1,4
211,104,86956,1,2
281,318,87165,1,4
291,122,87375,1,2
256,192,87585,12,4,90942
108,65,91151,5,4
109,66,91361,2,0,B|29:146|123:230,1,170,12|2
260,241,91991,2,0,B|381:245,1,85,4|8
222,114,92410,2,0,B|122:112,1,85,2|4
318,49,92830,1,4
318,49,92935,1,0
319,48,93039,6,0,B|415:50,1,85,0|2
449,143,93459,1,0
254,140,93669,1,2
433,234,93879,2,0,B|351:290|275:223,1,170,4|0
129,79,94508,5,0
129,79,94718,2,0,B|72:91|89:154,1,85,8|0
276,121,95137,2,0,B|310:85|272:36,1,85,0|4
148,196,95557,2,0,B|161:245|227:249,1,85,8|0
335,149,95977,6,0,B|403:89|495:144,1,170,4|2
421,277,96606,2,0,B|343:328|264:266,1,170,4|4
240,128,97235,2,0,B|244:40,2,85,10|0|4
140,151,97865,6,0,B|48:217|151:311,1,170,4|0
281,206,98494,1,2
424,278,98704,2,0,B|516:212|413:118,1,170,0|2
316,60,99333,2,0,B|204:46,1,85,0|4
99,42,99753,5,8
74,204,99963,1,0
205,110,100172,1,12
211,267,100382,1,0
319,144,100592,1,12
356,294,100802,6,0,B|366:343|427:346,1,85,0|2
421,241,101221,1,0
418,146,101431,1,10
412,56,101641,2,0,B|325:-11|232:68,1,170,2|4
271,250,102270,2,0,B|179:275|116:188,1,170,10|4
139,101,102900,1,0
139,101,103005,1,0
139,101,103109,6,0,B|156:61|164:9,1,85,12|4
250,215,103529,2,0,B|236:177|236:120,1,85,0|4
119,320,103949,2,0,B|136:276|144:226,1,85,8|0
159,130,104368,1,4
262,40,104578,1,2
301,161,104788,6,0,B|329:199|304:245,1,85,0|2
301,162,105207,1,0
185,191,105417,2,0,B|177:144|209:92,1,85,2|10
185,191,105837,1,0
230,289,106046,2,0,B|186:311|140:278,1,85,4|4
77,139,106466,5,10
258,46,106676,2,0,B|355:-19|428:95,1,170,4|4
325,180,107305,1,8
397,309,107515,2,0,B|296:381|220:275,1,170,4|0
174,45,108144,5,10
169,293,108354,1,2
89,40,108774,5,2
80,294,108984,1,12
122,210,109193,5,0
122,210,109298,1,0
122,210,109403,1,4
149,122,109613,1,4
304,262,109823,1,8
249,89,110032,1,4
355,185,110452,5,4
355,185,110662,1,8
355,185,110872,2,0,B|371:139|378:90,1,85,2|4
215,129,111291,2,0,B|195:175|190:216,1,85,4|12
326,84,111711,1,2
326,84,111816,1,0
326,84,111921,6,0,B|321:38|313:0,1,85
145,120,112340,2,0,B|158:166|183:211,1,85,12|0
424,61,112760,1,2
399,147,112970,2,0,B|394:191|398:259,1,85,4|8
76,315,113389,2,0,B|83:276|82:209,1,85,0|8
344,53,113809,2,0,B|342:96|341:151,1,85,0|8
149,278,114228,5,0
145,135,114438,2,0,B|214:65|317:124,1,170,2|4
301,115,115067,1,0
253,219,115277,2,0,B|189:291|79:235,1,170,0|4
250,128,115907,2,0,B|311:136|333:196,1,85,4|2
194,202,116326,1,0
194,202,116431,1,0
194,202,116536,6,0,B|151:181|146:132,1,85,6|4
292,42,116956,2,0,B|351:56|370:122,1,85,0|4
298,166,117375,2,0,B|217:214|310:294,1,127.5,12|0
347,264,117795,2,0,B|439:193|346:104,1,170,2|4
234,23,118424,2,0,B|154:98|242:182,1,170,0|0
301,248,119053,5,4
89,259,119263,1,0
284,162,119473,1,2
284,162,119578,1,0
284,162,119683,1,0
121,172,119893,5,4
240,89,120102,1,4
157,89,120312,1,0
157,89,120417,1,0
157,89,120522,1,4
319,71,120732,5,12
429,179,120942,1,0
337,299,121151,2,0,B|286:382|168:322,1,170,2|4
187,331,121781,1,2
285,162,121991,2,0,B|336:84|455:112,1,170,0|4
239,94,122620,2,0,B|173:164|65:111,1,170
145,65,123249,6,0,B|188:92|156:159,1,85,4|6
84,194,123669,2,0,B|38:231|97:292,1,85,0|6
163,287,124088,2,0,B|173:186,1,85,12|2
251,194,124508,2,0,B|261:10,2,170,2|4|0
333,91,125557,1,2
333,91,125662,1,0
333,91,125767,2,0,B|326:156|327:193,1,85,14|0
339,271,126186,5,4
51,271,126606,5,4
459,177,127026,5,4
55,122,127445,5,4
254,85,127655,1,0
425,54,127865,2,0,B|473:112|466:232,1,170,4|10
466,215,128494,1,2
335,172,128704,2,0,B|291:242|306:366,1,170,0|12
303,336,129333,1,0
215,264,129543,6,0,B|172:221|229:171,1,85,4|0
287,132,129963,1,12
287,132,130067,1,0
287,132,130172,2,0,B|345:156|289:223,1,85,4|2
99,222,130592,1,4
246,180,130802,1,6
92,176,131012,1,2
255,117,131221,6,0,B|152:171|260:271,1,170,4|8
423,150,131851,2,0,B|508:67|426:-1,1,170,4|4
334,35,132480,2,0,B|228:45,1,85,12|0
122,41,132900,5,4
122,41,133005,1,0
122,41,133109,1,4
129,257,133319,1,8
189,81,133529,1,4
202,305,133739,5,0
202,305,133844,1,0
202,305,133949,1,4
257,123,134158,1,12
279,331,134368,1,0
324,159,134578,6,0,B|384:217|494:179,1,170,4|8
324,159,135207,1,2
221,134,135417,2,0,B|147:90|45:115,1,170,4|12
87,198,136046,2,0,B|196:246|276:186,1,170,4|2
287,130,136676,6,0,B|299:38,1,85,12|2
376,75,137095,2,0,B|358:191,1,85,0|2
449,179,137515,2,0,B|464:86,1,85,4|2
218,71,137935,6,0,B|129:130|204:245,1,170,4|4
189,219,138564,1,0
280,220,138774,2,0,B|453:224,1,170,4|4
449,225,139403,1,0
363,190,139613,6,0,B|414:165|399:95|399:95|327:95|328:95|328:95|304:75|328:9,2,255
139,95,141291,5,0
138,95,141711,2,0,B|57:172|133:270,1,170,8|0
196,207,142340,2,0,B|203:24,1,170,4|2
286,62,142970,5,0
157,124,143179,1,0
305,189,143389,1,8
115,225,143599,2,0,B|34:295|109:391,1,170,4|4
177,325,144228,6,0,B|282:328,1,85,8|0
382,310,144648,2,0,B|404:226,1,85,4|0
282,151,145067,2,0,B|271:77,2,42.5,8|0|0
129,77,145487,1,0
129,77,145592,1,0
129,77,145697,6,0,B|92:126|129:187,1,85,4|8
205,131,146116,2,0,B|238:86|212:34,1,85,0|4
76,133,146536,1,4
198,202,146746,1,8
330,150,146956,2,0,B|388:121|423:174|506:114,2,170,2|4|2
259,112,148005,6,0,B|209:102|184:47,1,85,4|4
308,49,148424,2,0,B|345:79|352:138,1,85,8|0
187,173,148844,2,0,B|130:184|92:221,1,85,0|4
297,232,149263,2,0,B|345:249|400:257,1,85,8|2
444,215,149683,5,4
254,181,149893,1,0
72,186,150102,1,8
266,130,150312,2,0,B|353:133|453:164,2,170,4|2|2
189,151,151361,6,0,B|146:161|100:166,1,85,4|4
195,65,151781,2,0,B|253:49|312:51,1,85,8|0
424,91,152200,2,0,B|355:112|320:111,1,85,0|4
89,82,152620,5,8
407,170,152830,1,0
66,264,153039,1,4
443,266,153459,5,4
46,177,153879,5,4
456,131,154298,5,4
299,263,154718,5,4
354,45,154928,1,0
224,303,155137,1,12
294,78,155347,1,0
146,319,155557,6,0,B|129:358|129:357|103:289,1,85,2|2
251,48,155977,2,0,B|273:10|280:10|306:76,1,85,12|0
371,311,156396,5,2
319,103,156606,1,2
260,300,156816,1,8
260,300,156921,1,0
260,300,157026,1,2
222,85,157235,6,0,B|214:36|214:-9,1,85,4|0
136,231,157655,2,0,B|144:291|142:346,1,85,4|2
131,134,158074,2,0,B|182:132|254:119,1,85,4|0
344,103,158494,1,8
466,68,158704,5,0
466,68,158809,1,0
466,68,158914,1,4
236,191,159123,1,2
455,137,159333,1,8
291,239,159543,1,2
428,206,159753,6,0,B|403:151|463:100,1,85,4|0
156,80,160172,2,0,B|201:119|151:188,1,85,8|0
67,261,160592,2,0,B|29:301|76:349,1,85,4|2
102,176,161012,2,0,B|143:131|79:80,1,85,8|2
188,260,161431,6,0,B|250:347|352:281,1,170,4|8
199,150,162060,1,0
199,150,162165,1,0
199,150,162270,2,0,B|130:77|15:139,1,170,0|8
321,97,162900,1,0
321,97,163005,1,0
321,97,163109,6,0,B|356:131|404:103,1,85,2|2
148,220,163529,2,0,B|130:180|60:203,1,85,8|2
335,257,163949,2,2,B|407:349|504:274,1,170,0|6
393,67,164578,1,0
393,67,164683,1,0
393,67,164788,6,0,B|277:59,1,85,2|2
168,185,165207,2,0,B|268:195,1,85,8|2
217,50,165627,2,0,B|113:40,1,85,2|4
0,165,166046,2,0,B|92:173,1,85,8|2
449,171,166466,5,4
47,234,166886,5,4
459,262,167305,5,4
229,269,167515,1,4
224,59,167725,1,2
449,48,167935,1,4
339,161,168144,5,4
239,167,168564,1,8
139,167,168984,2,0,B|48:174,2,85,4|0|8
204,74,169613,5,0
203,73,169823,2,0,B|255:38|312:49|365:82|378:146|358:209|321:256|258:260|193:246|150:209|150:166|158:115|200:79,2,510,4|8|4
256,142,172550,1,0
256,142,172655,1,0
256,141,172760,6,0,B|224:174|241:221,1,85,8|0
377,200,173179,2,0,B|460:262|371:352,1,170,4|8
279,333,173809,2,0,B|95:330,1,170,4|4
82,239,174438,2,0,B|72:124,1,85,8|0
209,44,174858,5,4
310,68,175067,1,2
310,68,175172,1,0
310,68,175277,1,8
406,106,175487,1,2
481,177,175697,6,0,B|497:232|504:288,1,85,4|2
315,203,176116,2,0,B|315:257|332:304,1,85,10|0
166,169,176536,2,0,B|188:279|185:365,1,170,4|8
69,328,177165,2,0,B|50:240|57:148,1,170,4|4
61,53,177795,2,0,B|129:44|247:37,1,170,8|4
353,65,178424,5,2
353,65,178529,1,0
353,65,178634,1,4
171,97,178844,1,2
332,135,179053,5,0
333,136,179158,1,0
333,136,179263,1,2
209,158,179473,1,6
321,206,179683,5,0
238,224,179893,2,0,B|229:286|227:324,1,85
318,273,180312,2,0,B|376:277|413:278,1,85,4|0
359,184,180732,2,0,B|366:130|370:87,1,85,4|0
283,100,181151,2,0,B|212:41|116:93,1,170,4|4
70,186,181781,5,2
70,186,181886,1,0
70,186,181991,1,8
138,293,182200,2,0,B|198:308|234:262,1,85,4|2
198,159,182620,2,0,B|215:113|270:104,1,85,4|8
391,138,183039,5,2
352,267,183249,2,0,B|233:325|194:195,1,170,6|8
163,70,183879,2,0,B|60:6|-10:123,2,170,2|4|2
246,134,184928,2,0,B|302:136|331:82,1,85,4|0
111,85,185347,2,0,B|73:132|102:184,1,85,8|6
286,217,185767,1,2
286,217,185872,1,0
286,217,185977,6,0,B|324:172|279:119,1,85,6|8
166,139,186396,1,0
166,139,186606,2,0,B|77:226|203:303,1,170,4|12
276,294,187235,6,0,B|454:302,1,170,2|4
436,218,187865,2,0,B|321:213,1,85,8|2
363,131,188284,2,0,B|452:134,1,85,4|2
428,52,188704,2,0,B|246:46,1,170,4|0
165,40,189333,5,4
74,39,189543,2,0,B|-18:110|84:217,1,170,12|2
174,163,190172,1,2
174,163,190277,1,0
174,163,190382,1,14
297,35,190592,1,4
252,226,190802,5,2
252,226,190907,1,0
252,226,191012,1,2
392,79,191221,1,12
354,275,191431,5,4
220,312,191641,2,0,B|157:285|190:218,1,85,4|0
258,113,192060,1,8
220,313,192270,1,0
291,259,192480,2,0,B|344:254|348:193,1,85,0|4
258,113,192900,5,8
294,259,193109,1,0
210,199,193319,2,2,B|111:179|170:82,2,127.5
292,48,194158,2,0,B|363:54|317:128,1,85,4|0
164,226,194578,2,0,B|101:218|124:151,1,85,4|0
316,29,194998,6,0,B|412:55|407:121|351:160|286:141|223:154|207:181|201:230|214:267|240:292|270:314|351:322,1,467.5
374,274,197515,1,0
407,155,197830,1,0
339,67,198144,5,0
283,35,198354,1,0
228,14,198564,2,0,B|178:39|149:67|142:107|167:146|207:166|251:177|277:197|286:224|284:249|277:279|261:308|243:331|212:339|188:344|158:352|144:353,1,467.5
93,206,201186,6,0,B|99:127,2,63.75
84,341,202130,1,0
256,192,202235,12,0,208424
112,72,208844,6,0,B|119:168,1,93.4999972134829,4|0
227,260,209263,1,0
227,260,209473,2,0,B|264:211|219:174,1,93.4999972134829,0|4
107,225,209893,2,0,B|15:311|136:403,2,186.999994426966,2|0|2
409,175,210942,6,0,B|307:171,1,93.4999972134829,0|2
58,70,211361,2,0,B|171:77,1,93.4999972134829,0|2
380,92,211781,2,0,B|459:173|358:274,1,186.999994426966,0|8
239,184,212410,2,0,B|160:102|256:10,1,186.999994426966,0|0
300,111,213039,2,0,B|348:154|329:216,1,93.4999972134829,8|2
234,287,213459,5,0
60,265,213669,1,2
121,192,213879,2,0,B|166:222|145:290,1,93.4999972134829,12|6
303,181,214298,2,0,B|244:142|306:78,1,93.4999972134829,0|6
360,120,214718,2,0,B|414:152|372:217,1,93.4999972134829,8|2
248,243,215137,6,0,B|142:172|222:65,1,186.999994426966,4|8
209,83,215767,1,4
278,148,215977,2,0,B|352:243|251:325,1,186.999994426966,0|8
167,247,216606,2,0,B|157:55,2,186.999994426966,2|4|2
83,202,217655,6,0,B|72:82,1,93.4999972134829,0|2
279,82,218074,2,0,B|273:182,1,93.4999972134829,4|2
454,246,218494,2,0,B|475:49,2,186.999994426966,0|8|0
390,109,219543,1,0
390,109,219648,1,0
390,109,219753,6,0,B|339:162|407:230,1,93.4999972134829,8|0
269,364,220172,2,0,B|309:323|277:271,1,93.4999972134829
223,37,220592,2,0,B|172:79|238:149,1,93.4999972134829,12|2
307,142,221012,5,12
84,174,221221,1,2
321,221,221431,1,12
67,249,221641,1,2
309,299,221851,6,4,B|384:379|486:301,1,186.999994426966,4|8
476,307,222480,1,0
395,224,222690,2,0,B|323:158|217:206,1,186.999994426966,4|8
118,299,223319,2,0,B|58:244|92:169|92:169|151:207|132:314,1,280.499991640449,0|8
219,267,224158,6,0,B|217:209|193:166,1,93.4999972134829,0|2
232,75,224578,1,2
232,75,224788,2,0,B|232:132|259:183,1,93.4999972134829,0|2
358,311,225207,2,0,B|373:194|357:88,1,186.999994426966,6|8
361,124,225837,1,0
295,51,226046,6,0,B|166:42|87:42,1,186.999994426966,0|12
108,42,226676,1,0
177,128,226886,2,0,B|236:131|299:127,1,93.4999972134829,4|0
188,230,227305,2,0,B|131:234|85:238,1,93.4999972134829,8|0
206,326,227725,2,0,B|271:337|317:339,1,93.4999972134829,0|4
446,272,228144,5,8
446,272,228249,1,0
446,272,228354,1,0
417,122,228564,2,0,B|358:34|233:86,1,186.999994426966,4|8
250,79,229193,1,0
327,199,229403,2,0,B|273:303|156:224,1,186.999994426966,0|8
170,232,230032,1,0
54,163,230242,6,0,B|-45:249|78:340,1,186.999994426966,4|8
99,240,230872,2,0,B|104:134,1,93.4999972134829,0|2
78,58,231291,1,2
186,52,231501,1,8
285,46,231711,1,2
385,63,231921,2,0,B|479:135|395:227,1,186.999994426966,0|8
398,222,232550,1,0
293,222,232760,6,0,B|99:219,1,186.999994426966,0|8
106,219,233389,1,0
157,122,233599,2,0,B|217:157|186:227,1,93.4999972134829,0|0
317,348,234019,2,0,B|271:315|298:261,1,93.4999972134829,8|0
177,54,234438,2,0,B|225:73|223:145,1,93.4999972134829,8|0
353,302,234858,2,0,B|315:261|351:208,1,93.4999972134829,8|0
146,60,235277,6,0,B|206:94|148:166,1,93.4999972134829
56,137,235697,2,0,B|17:199|105:242,1,93.4999972134829,4|0
187,217,236116,2,0,B|252:160|384:171,1,186.999994426966,2|4
318,285,236746,2,0,B|240:348|130:301,1,186.999994426966,2|0
132,207,237375,5,4
132,207,237480,1,0
132,207,237585,1,2
142,59,237795,1,0
302,64,238005,1,0
299,214,238214,5,6
299,214,238319,1,0
299,214,238424,1,0
84,138,238634,2,0,B|111:97|136:39,1,93.4999972134829,0|0
259,111,239053,2,0,B|267:168|289:206,1,93.4999972134829,6|0
448,205,239473,6,0,B|546:140|488:27,1,186.999994426966,2|4
366,88,240102,2,0,B|268:164|390:270,1,186.999994426966,2|0
312,323,240732,2,0,B|199:335,1,93.4999972134829,4|2
64,77,241151,2,0,B|186:53,1,93.4999972134829,0|2
248,244,241571,2,0,B|113:238,1,93.4999972134829,4|2
143,124,241991,6,0,B|221:52|323:99,1,186.999994426966,0|4
316,95,242620,1,0
244,182,242830,2,0,B|147:247|74:159,1,186.999994426966,2|4
347,104,243459,2,0,B|413:139|350:209,1,93.4999972134829,2|0
186,229,243879,5,0
400,257,244088,1,4
161,298,244298,1,2
161,298,244403,1,0
161,298,244508,1,2
364,321,244718,1,0
276,199,244928,6,0,B|267:139|262:84,1,93.4999972134829,6|0
94,46,245347,2,0,B|86:106|75:160,1,93.4999972134829
34,253,245767,1,4
132,91,245977,1,0
117,255,246186,2,0,B|209:285|305:271,1,186.999994426966,2|4
249,174,246816,2,0,B|154:152|38:153,1,186.999994426966,2|0
155,65,247445,6,0,B|213:73|262:73,1,93.4999972134829,12|0
139,215,247865,2,0,B|200:214|249:208,1,93.4999972134829,8|0
199,362,248284,2,0,B|273:359|315:349,1,93.4999972134829,12|0
422,292,248704,6,0,B|513:204|407:129,1,186.999994426966,0|4
415,135,249333,1,0
263,124,249543,2,0,B|76:122,1,186.999994426966,2|4
133,214,250172,2,0,B|251:216,1,93.4999972134829,2|0
351,214,250592,1,0
106,256,250802,5,6
106,256,250907,1,0
106,256,251012,1,2
336,283,251221,1,0
154,304,251431,1,2
284,316,251641,2,0,B|363:247|300:139,1,186.999994426966,6|0
304,148,252270,1,0
174,48,252480,6,0,B|131:85|168:149,1,93.4999972134829,4|0
349,216,252900,2,0,B|454:169|365:40,1,186.999994426966,2|4
240,184,253529,2,0,B|174:280|55:181,1,186.999994426966,2|0
166,108,254158,2,0,B|204:74|264:90,1,93.4999972134829,6|0
206,259,254578,2,0,B|256:288|305:259,1,93.4999972134829,2|0
262,184,254998,2,0,B|206:151|134:199,1,93.4999972134829,6|0
231,328,255417,6,0,B|315:383|411:328,1,186.999994426966,0|4
407,329,256046,1,0
293,94,256256,2,0,B|197:22|92:117,1,186.999994426966,2|4
207,160,256886,2,0,B|271:253|376:203,1,186.999994426966,2|0
378,100,257515,5,6
378,100,257620,1,0
378,100,257725,1,2
141,109,257935,1,0
420,168,258144,1,0
185,167,258354,5,6
176,176,258774,1,0
167,185,259193,2,0,B|159:290,1,93.4999972134829,6|0
241,321,259613,2,0,B|344:270|281:141,1,186.999994426966,2|4
129,57,260242,2,0,B|25:120|127:230,1,186.999994426966,2|0
178,149,260872,6,0,B|188:33,1,93.4999972134829,8|0
419,293,261291,2,0,B|435:179,1,93.4999972134829,8|0
109,325,261711,2,0,B|104:206,1,93.4999972134829,8|0
256,192,262550,5,0
256,192,262655,12,0,270522
256,192,270627,12,0,277235
256,192,277340,12,0,283949
256,192,284053,12,0,288984
