osu file format v5

[General]
AudioFilename: Imogen Heap - Loose Ends.mp3
AudioLeadIn: 3000
PreviewTime: 33437
Countdown: 1
SampleSet: Normal
StackLeniency: 0.7
Mode: 0
LetterboxInBreaks: 1
EditorBookmarks: 17532,33567,57618,67187,83222,91498,97446,99773,116067
EditorDistanceSpacing: 1

[Metadata]
Title:Loose Ends
Artist:Imogen Heap
Creator:mrtn
Version:Normal
Source:
Tags:

[Difficulty]
HPDrainRate:3
CircleSize:4
OverallDifficulty:3
SliderMultiplier:1.6
SliderTickRate:2

[Events]
//Background and Video events
0,0,"background.jpg"
//Break Periods
2,50060,56178
//Storyboard Layer 0 (Background)
//Storyboard Layer 1 (Failing)
//Storyboard Layer 2 (Passing)
//Storyboard Layer 3 (Foreground)
//Storyboard Sound Samples
//Background Colour Transformations
3,100,163,162,255

[TimingPoints]
208,517.241379310345,4,1,0,70,1,0
17015,-100,4,2,0,100,0,0
33567,-100,4,1,0,70,0,0
48825,-100,4,1,0,0,0,0
49860,-100,4,1,0,70,0,0
57360,-100,4,1,0,70,0,0
66670,-100,4,2,0,100,0,0
83222,-100,4,1,0,70,0,0
99773,-100,4,1,0,70,0,0

[Colours]
Combo1 : 248,242,135
Combo2 : 47,198,168
Combo3 : 137,46,167
Combo4 : 252,97,97

[HitObjects]
184,88,208,5,4
328,152,725,5,0
288,224,983,2,2,B|264:264|352:320|408:304,1,160
456,248,1759,1,0
456,88,2276,5,4
304,32,2794,1,0
224,32,3052,2,2,B|144:80|168:176,1,160
216,232,3828,1,0
216,232,4087,1,0
216,232,4345,1,4
144,88,4863,6,0,B|56:88,1,80,0|0
120,152,5380,2,0,B|24:152,2,80
280,152,6414,1,8
416,240,6932,1,0
416,240,7190,1,0
200,344,7966,6,8,B|256:344,2,40
200,264,8483,1,0
200,104,9001,1,0
120,104,9259,1,4
280,104,9776,6,2,B|328:112|328:160,1,80
448,264,10552,6,0,B|424:304|376:304,1,80
384,224,11070,2,0,B|343:224|319:264,1,80,0|0
88,320,12104,6,8,B|72:272,2,40
160,288,12621,1,0
304,216,13139,2,0,B|352:184,2,40
56,48,14690,5,0
136,48,14949,2,0,B|200:48,1,40
296,48,15466,2,0,B|240:48,1,40
256,192,15983,12,4,16759
312,104,17276,5,2
312,104,17535,1,0
168,176,18052,1,2
168,176,18311,1,0
312,248,18828,6,0,B|312:336,3,80,0|0|0|0
152,288,20121,5,2
224,248,20380,1,0
152,208,20639,1,2
224,168,20897,1,0
360,88,21414,5,2
360,88,21673,2,0,B|264:56|200:96,1,160
256,328,22966,5,0
400,256,23483,6,2,B|400:160,1,80,2|0
328,216,24001,2,2,B|328:120,1,80,2|0
256,176,24518,2,2,B|256:80,1,80,2|0
184,136,25035,1,4
416,80,25811,5,0
336,80,26070,1,0
336,160,26328,2,0,B|384:160,1,40
376,240,26716,2,0,B|376:296,1,40
296,264,27104,5,2
136,264,27621,1,0
136,184,27880,1,0
256,80,28397,1,0
256,80,28656,1,2
336,80,28914,1,0
336,80,29173,1,2
408,216,29690,5,0
360,280,29949,2,0,B|312:328|224:280|256:224,1,160
272,152,30725,1,0
120,104,31242,2,0,B|72:184|152:216|104:272,1,160
256,320,32276,5,2
256,240,32535,1,2
192,192,32794,1,8
256,152,33052,1,8
256,72,33311,1,12
336,72,33570,5,0
416,72,33828,2,2,B|480:80|488:128,2,80
416,232,34863,1,4
176,232,35639,6,0,B|80:232,2,80
256,232,36414,1,8
256,232,36673,1,8
256,152,36932,2,0,B|256:56,1,80
416,96,37708,6,0,B|472:96|472:40,2,80
336,96,38483,2,0,B|264:168|360:240,1,160,4|0
224,336,39518,5,8
144,336,39776,1,8
144,256,40035,1,0
224,256,40294,1,4
344,152,40811,5,0
296,88,41070,1,8
248,152,41328,1,0
200,88,41587,1,4
112,224,42104,5,0
120,304,42363,2,0,B|192:352|224:256|288:296,1,160
344,312,43139,1,0
448,192,43656,6,8,B|432:128|392:120,1,80
360,192,44173,1,0
312,128,44432,1,4
160,64,44949,5,0
80,64,45208,2,0,B|72:112|104:152,1,80,8|0
144,200,45725,1,4
200,256,45983,5,0
280,256,46242,2,0,B|360:256|368:224,1,80,8|0
384,168,46759,2,0,B|432:136|480:176|488:200|488:264,1,160
464,80,47794,5,0
384,80,48052,1,0
304,80,48311,1,0
256,192,48828,12,4,49863
256,136,57621,6,8,B|256:80,2,40,8|8|8
256,216,58139,2,0,B|272:288|352:264|384:224,1,160
381,226,58914,1,0
312,80,60208,6,0,B|224:80,3,80
72,264,61759,6,8,B|72:320,2,40
72,184,62276,1,0
232,184,62794,2,0,B|288:184,2,40
152,184,63311,5,2
200,120,63570,1,2
152,184,63828,1,2
64,48,64345,5,0
136,48,64604,2,0,B|200:48,1,40
296,48,65121,2,0,B|240:48,1,40
256,192,65639,12,4,66414
256,80,67190,5,0
192,128,67449,2,0,B|144:160,1,40
112,256,67966,2,0,B|112:304,1,40
184,328,68354,2,0,B|248:352|304:304,1,120
280,232,69001,5,2
280,232,69259,2,0,B|280:144|392:128,1,160
464,128,70035,1,2
416,64,70294,1,0
336,64,70552,1,4
120,168,71328,6,0,B|120:232,2,40
200,168,71845,2,0,B|200:216,1,40
200,288,72233,2,0,B|264:344|320:320,1,120,0|2
400,192,73139,5,2
400,192,73397,1,0
296,72,73914,1,0
296,152,74173,1,2
216,152,74432,1,0
216,232,74690,1,2
352,320,75207,5,0
424,288,75466,2,2,B|464:248,1,40
384,224,75854,1,0
360,104,76242,2,2,B|296:112|288:152,2,80
208,40,77276,2,2,B|144:48|136:88,2,80,0|2|2
152,168,79087,5,0
152,248,79345,1,0
232,248,79604,1,2
232,248,79733,1,2
312,248,79992,2,0,B|352:176|312:120,1,120
256,80,80639,2,2,B|208:64,1,40
56,184,81414,5,2
144,312,81932,1,2
240,184,82449,1,2
144,56,82966,1,4
224,56,83225,6,0,B|320:56,1,80
384,56,83742,1,0
448,104,84001,2,2,B|456:160|400:176,1,80
336,176,84518,5,0
256,176,84776,1,0
176,176,85035,2,8,B|176:224,2,40
96,176,85552,1,2
96,256,85811,1,6
472,32,87363,5,0
424,96,87621,1,0
344,96,87880,1,0
344,96,88009,2,0,B|248:96,1,80
152,152,88656,2,2,B|112:200|136:240,1,80
344,120,89690,5,0
344,120,89949,1,0
184,120,90466,6,0,B|112:128|80:200|160:280|224:280,1,240
288,280,91501,6,2,B|360:248|336:216,2,80
280,200,92276,2,0,B|296:144|352:160,1,80
416,160,92794,5,0
416,160,93052,1,0
416,80,93311,2,0,B|328:80,1,80
256,80,93828,1,0
256,80,94087,1,4
48,328,95121,5,0
48,248,95380,2,0,B|96:192|112:200,1,80
109,199,95768,1,0
256,192,96414,12,0,97449
160,200,97966,5,0
160,280,98225,1,0
232,240,98483,1,0
392,240,99001,1,0
464,96,99518,1,4
384,88,99776,5,0
304,88,100035,2,2,B|240:96|232:144,2,80
336,248,101070,1,4
336,248,101845,6,0,B|432:248,2,80,0|0|0
256,248,102621,1,8
256,248,102880,1,8
256,168,103139,2,0,B|256:72,1,80
96,120,103914,6,0,B|40:120|40:64,2,80
168,96,104690,2,0,B|240:168|144:240,1,160,4|0
280,336,105725,5,8
360,336,105983,1,8
360,256,106242,1,0
280,256,106501,1,4
168,152,107018,5,0
216,88,107276,1,8
264,152,107535,1,0
312,88,107794,1,4
400,224,108311,5,0
392,304,108570,2,0,B|320:352|288:256|224:296,1,160
168,312,109345,1,0
64,192,109863,6,8,B|80:128|120:120,1,80
152,192,110380,1,0
200,128,110639,1,4
352,64,111156,5,0
432,64,111414,2,0,B|440:112|408:152,1,80,8|0
368,200,111932,1,4
312,256,112190,5,0
232,256,112449,2,0,B|152:256|144:224,1,80
128,168,112966,2,0,B|80:136|32:176|24:200|24:264,1,160
48,80,114001,5,0
128,80,114259,1,0
208,80,114518,1,0
256,192,115035,12,4,116070
