osu file format v5

[General]
AudioFilename: Headlock - Imogen Heap.mp3
AudioLeadIn: 0
PreviewTime: 72889
Countdown: 0
SampleSet: Soft
StackLeniency: 0.7
Mode: 0
LetterboxInBreaks: 1

[Editor]
Bookmarks: 58375
DistanceSpacing: 1
BeatDivisor: 4
GridSize: 8

[Metadata]
Title:Headlock
Artist:Imogen Heap
Creator:Ruduen
Version:Locked
Source:
Tags:Imogen Heap Headlock

[Difficulty]
HPDrainRate:7
CircleSize:6
OverallDifficulty:7
SliderMultiplier:1.3
SliderTickRate:2

[Events]
//Background and Video events
0,0,"album-speak-for-yourself.jpg"
//Break Periods
2,49199,56600
2,104950,112350
2,135950,140100
//Storyboard Layer 0 (Background)
//Storyboard Layer 1 (Fail)
//Storyboard Layer 2 (Pass)
//Storyboard Layer 3 (Foreground)
//Storyboard Sound Samples
//Background Colour Transformations
3,100,163,162,255

[TimingPoints]
17500,500,4,2,0,100,1,0
32375,-100,4,2,0,69,0,0
33125,-100,4,2,0,100,0,0
73018,-100,4,1,0,59,0,1
104768,-100,4,2,0,29,0,0
112768,-100,4,2,0,50,0,0
120893,-100,4,2,0,59,0,0
128768,-100,4,2,0,70,0,0
133643,-100,4,2,0,31,0,0
134893,-100,4,2,0,21,0,0
135643,-100,4,2,0,11,0,0
136893,-100,4,2,0,2,0,0
140768,-100,4,1,0,61,0,1
188580,-100,4,2,0,52,0,0

[HitObjects]
224,256,17500,1,0
176,208,17750,1,0
176,144,18000,1,2
224,96,18250,1,2
288,96,18500,1,2
256,160,18750,2,0,L|256:224,2,32.5,0|0|0
176,208,19250,1,0
224,256,19500,1,0
288,256,19750,1,0
336,208,20000,1,2
336,144,20250,1,2
288,96,20500,1,2
256,192,20750,2,0,L|256:144,2,32.5
176,208,21250,5,0
176,144,21500,1,0
224,96,21750,1,0
288,96,22000,1,0
336,144,22250,1,0
336,208,22500,1,0
288,256,22750,1,2
224,144,23250,1,2
288,144,23500,1,2
288,208,23750,1,2
256,32,24250,6,0,L|224:64,2,32.5
256,96,24750,2,0,L|296:136,2,32.5
256,32,25250,5,0
256,96,25500,1,0
256,160,25750,1,2
256,224,26000,1,2
256,288,26250,2,0,L|256:336,2,32.5
192,288,26750,2,0,L|128:288,2,32.5
192,224,27250,1,0
192,160,27500,1,0
208,96,27750,1,2
256,64,28000,1,2
304,96,28250,1,2
320,160,28500,1,2
320,224,28750,2,0,L|272:224,2,32.5,0|0|2
384,224,29250,5,2
384,288,29500,1,2
320,288,29750,1,2
256,288,30000,1,2
256,224,30250,1,2
256,352,30750,5,2
320,352,31000,1,2
320,288,31250,1,2
320,224,31500,2,2,B|384:224,2,32.5,2|2|2
296,160,32000,2,2,L|336:120,2,32.5
232,160,32500,1,2
232,192,32625,1,2
256,208,32750,1,2
256,272,33000,1,2
256,336,33250,5,0
256,272,33500,1,0
256,208,33750,2,0,B|256:112,1,65
256,272,34250,5,2
256,208,34500,1,2
256,144,34750,2,2,B|256:48,1,65
256,208,35250,5,0
256,144,35500,1,0
256,80,35750,2,0,B|256:-16,1,65
256,144,36250,5,2
256,80,36500,1,2
256,144,36750,2,2,B|256:288,4,130
256,80,39000,5,0
192,112,39250,1,0
192,176,39500,1,2
256,208,39750,1,2
320,176,40000,1,0
320,112,40250,1,0
256,80,40500,1,2
192,112,40750,2,2,L|144:112,2,32.5,2|0|2
144,160,41250,5,0
208,160,41500,1,0
272,160,41750,2,0,B|368:160,1,65
272,160,42250,5,2
272,224,42500,1,2
272,288,42750,2,2,B|272:368,1,65
272,288,43250,5,0
208,288,43500,1,0
144,288,43750,2,0,B|48:288,1,65,0|0
144,288,44250,6,0,B|144:192,1,65
144,288,44750,2,0,B|288:288,3,130,2|2|0|4
288,160,46750,5,0
144,160,47250,1,2
144,224,47500,1,2
144,288,47750,1,2
288,288,48250,1,0
288,224,48500,1,0
288,160,48750,2,0,C|288:112,2,32.5,0|0|4
80,64,57500,5,0
80,128,57750,1,0
80,192,58000,1,0
144,192,58250,1,2
208,192,58500,1,2
272,192,58750,2,0,L|272:240,2,32.5
336,192,59250,1,0
336,128,59500,1,0
336,64,59750,1,2
272,64,60000,1,2
208,64,60250,1,2
144,64,60500,1,0
80,64,60750,2,0,L|80:112,2,32.5
80,144,61250,1,2
80,208,61500,5,0
80,272,61750,1,0
144,272,62000,1,0
208,272,62250,2,2,B|256:272,2,32.5
208,209,62750,1,0
208,144,63000,2,0,B|208:72|208:72|208:8|288:8|288:72,1,195
288,200,64250,1,0
224,200,64500,2,2,L|176:200,4,32.5
224,136,65250,5,0
224,72,65500,1,0
224,136,65750,1,0
160,136,66000,1,0
224,136,66250,1,0
384,128,67250,1,0
384,192,67500,1,0
320,192,67750,1,0
384,192,68000,1,0
384,256,68250,1,0
384,192,68500,1,2
448,192,68750,1,2
384,192,69000,1,0
256,192,69500,5,0
256,256,69750,1,0
192,256,70000,1,0
160,256,70125,1,0
128,256,70250,1,0
256,64,70750,1,0
192,64,71000,1,0
192,128,71250,1,0
192,192,71500,1,0
256,192,71750,1,0
384,128,72250,2,2,L|336:128,2,32.5
320,128,72750,2,2,L|272:128,2,32.5
304,192,73250,5,0
336,240,73500,1,0
272,240,73750,1,0
128,256,74250,5,2
80,288,74500,1,2
80,224,74750,1,2
128,96,75250,5,0
96,48,75500,1,0
160,48,75750,1,0
272,128,76250,5,8
320,96,76500,1,8
320,160,76750,1,0
320,224,77000,2,0,L|352:232|320:240|352:248|320:256,2,130,0|0|4
256,288,79000,5,0
256,224,79250,1,0
256,160,79500,1,2
192,160,79750,1,2
256,160,80000,1,0
320,160,80250,1,0
256,160,80500,1,0
256,96,80750,2,8,L|256:48,2,35
320,96,81250,5,0
368,144,81500,1,0
320,192,81750,1,0
208,208,82250,5,2
144,224,82500,1,2
112,280,82750,1,2
224,336,83250,5,0
288,336,83500,1,0
336,296,83750,1,0
336,176,84250,5,8
288,128,84500,1,8
224,128,84750,1,8
168,152,85000,2,0,B|88:232|152:344|216:334|256:272,1,260,0|8
256,112,87000,5,0
256,176,87250,1,0
256,240,87500,1,0
256,304,87750,1,2
256,176,88250,1,0
256,112,88500,1,0
256,48,88750,2,4,L|256:0,2,35
368,80,89500,5,0
368,144,89750,2,0,B|368:280,1,130
304,272,90500,1,2
240,272,90750,2,2,B|152:272,1,65
176,208,91250,1,0
176,144,91500,1,0
176,80,91750,2,0,B|176:0,1,65
240,16,92250,2,8,B|312:16,1,65,8|8
304,80,92750,2,0,B|304:120,1,32.5
304,144,93000,2,0,B|304:192,8,32.5,0|0|0|0|0|0|0|0|4
208,272,95000,6,0,B|280:272,1,65
272,208,95500,2,2,B|272:128,1,65
208,144,96000,2,0,B|120:144,1,65
144,208,96500,2,8,B|144:296,1,65
96,144,97250,5,0
96,208,97500,1,0
160,208,97750,1,0
288,208,98250,2,2,L|368:208|368:152,1,130
368,16,99250,2,0,L|288:16,2,65
368,144,100250,1,8
368,208,100500,1,8
368,272,100750,1,0
305,273,101000,2,0,L|256:273,8,32.5,0|0|0|0|0|0|0|0|4
304,80,102750,6,0,B|288:32|248:32,1,65
216,80,103250,1,0
216,144,103500,1,0
216,208,103750,2,0,B|248:240|288:224,1,65
336,240,104250,1,0
336,304,104500,1,0
288,352,104750,1,0
128,208,113250,5,0
128,144,113500,1,0
160,96,113750,2,0,B|240:48|272:152,1,130
64,192,115250,1,0
112,240,115500,2,2,L|160:288|224:288|280:240,1,195
368,96,117250,5,0
368,160,117500,1,0
320,208,117750,1,0
192,208,118250,1,0
144,256,118500,1,0
144,320,118750,1,0
272,320,119250,1,2
272,256,119500,1,2
224,208,119750,1,2
80,128,121250,5,0
144,128,121500,1,0
208,128,121750,2,0,B|304:128|328:48,1,130
96,192,123250,5,0
160,192,123500,1,0
224,192,123750,2,0,B|320:192|352:112,1,130
112,256,125250,5,0
176,256,125500,1,0
240,256,125750,2,0,B|336:256|368:176,2,130
112,256,127250,1,2
96,192,127500,1,2
80,128,127750,1,2
416,128,129250,5,0
352,128,129500,1,0
288,128,129750,2,0,B|192:128|160:208,1,130
432,192,131250,5,0
368,192,131500,1,0
304,192,131750,2,2,B|256:191|224:232,2,65
448,256,133250,5,0
384,256,133500,1,0
320,272,133750,1,0
208,320,134250,1,0
144,320,134500,1,0
88,296,134750,1,0
32,176,135250,1,2
40,112,135500,1,2
88,72,135750,1,2
304,336,141000,5,2
240,336,141250,1,0
176,336,141500,1,0
176,272,141750,2,0,C|176:256|160:240,2,32.5
224,224,142250,2,0,C|224:208|240:192,2,32.5,0|0|0
176,176,142750,2,2,C|176:160|160:144,2,32.5
208,112,143250,1,0
256,64,143500,1,0
320,64,143750,2,0,C|336:64|352:80,2,32.5
384,32,144250,2,0,C|400:32|416:16,2,32.5
416,96,144750,2,2,C|432:96|448:112,2,32.5
400,160,145250,5,0
384,224,145500,1,0
336,272,145750,2,0,C|352:288|352:304,2,32.5,0|0|0
272,288,146250,2,0,C|272:304|272:304|256:320,2,32.5
208,272,146750,2,2,C|192:272|176:256,2,32.5
160,224,147250,1,0
144,160,147500,1,0
144,96,147750,2,0,C|128:80|112:80,2,32.5,0|0|0
80,128,148250,2,0,C|64:144|64:160,2,32.5,0|0|0
96,192,148750,2,4,C|96:208|128:224,2,32.5,0|0|0
160,192,149250,5,2
160,256,149500,1,0
224,256,149750,2,0,C|272:256,2,32.5
224,256,150250,2,0,C|224:312,2,32.5
224,256,150750,2,2,L|224:208,2,32.5,0|0|0
288,256,151250,1,0
288,320,151500,1,0
224,320,151750,2,0,C|176:320,2,32.5
224,256,152250,2,0,C|224:216,4,32.5
224,256,153000,6,2,B|144:208|176:120,2,130
392,160,154750,5,0
272,120,155250,1,2
224,168,155500,1,2
176,120,155750,1,2
80,208,156250,1,0
120,256,156500,1,0
168,216,156750,2,4,L|200:184,2,35,4|4|4
368,112,157750,6,0,L|312:168,1,65
368,224,158250,1,2
320,272,158500,1,2
272,224,158750,1,2
272,96,159250,2,0,L|224:48|224:48|168:88,1,130
176,208,160250,1,8
208,256,160500,1,8
248,304,160750,1,0
288,256,161000,2,0,B|336:208|288:120,2,130,0|2|2
256,64,162750,6,0,B|256:134|168:134|168:208|168:208|168:280|256:280|256:280|344:280|344:192|344:192|344:136|296:136,1,520,0|8
256,200,165250,5,0
304,232,165500,1,0
304,168,165750,1,0
176,168,166250,1,2
176,232,166500,1,2
176,296,166750,1,2
304,296,167250,1,0
368,296,167500,1,0
368,232,167750,1,0
368,104,168250,1,8
304,104,168500,1,8
240,104,168750,1,0
176,104,169000,2,0,B|96:104,4,65,2|2|2|2|2
400,80,171000,6,0,L|352:160,1,70
320,184,171500,2,0,L|256:120,1,70
176,32,172250,2,2,L|176:168,1,130,2|4
256,144,173500,5,0
256,80,173750,1,0
256,288,174500,1,2
256,352,174750,1,2
192,224,175250,1,0
128,224,175500,1,0
64,224,175750,1,0
320,224,176250,1,8
384,224,176500,1,8
448,224,176750,2,2,C|448:294|400:264|352:304|304:264|224:288,1,325
80,48,179000,6,0,C|144:80|96:128|128:192|192:192|256:144|272:208|272:264,1,455,0|8
224,144,181250,5,0
160,144,181500,1,0
112,192,181750,1,0
224,144,182250,1,2
160,144,182500,1,2
112,96,182750,1,2
224,144,183250,1,0
288,144,183500,1,0
336,80,183750,1,0
224,144,184250,1,2
288,144,184500,1,2
336,192,184750,1,2
336,256,185000,2,2,B|336:296,4,32.5
272,256,185750,1,8
208,256,186000,1,8
256,192,186750,12,2,188750
