osu file format v5

[General]
AudioFilename: Headlock - Imogen Heap.mp3
AudioLeadIn: 0
PreviewTime: 72875
Countdown: 0
SampleSet: Normal
StackLeniency: 0.7
Mode: 0
LetterboxInBreaks: 1

[Editor]
DistanceSpacing: 0.899999976158142
BeatDivisor: 6
GridSize: 8

[Metadata]
Title:Headlock
Artist:Imogen Heap
Creator:Ruduen
Version:Free
Source:
Tags:Imogen Heap Headlock

[Difficulty]
HPDrainRate:5
CircleSize:5
OverallDifficulty:5
SliderMultiplier:1.4
SliderTickRate:1

[Events]
//Background and Video events
0,0,"album-speak-for-yourself.jpg"
//Break Periods
2,48950,56300
2,104950,112050
2,135950,139800
//Storyboard Layer 0 (Background)
//Storyboard Layer 1 (Fail)
//Storyboard Layer 2 (Pass)
//Storyboard Layer 3 (Foreground)
//Storyboard Sound Samples
//Background Colour Transformations
3,100,163,162,255

[TimingPoints]
17500,500,4,2,0,41,1,0
73018,-100,4,1,0,59,0,0
104768,-100,4,2,0,29,0,0
112768,-100,4,2,0,50,0,0
120893,-100,4,2,0,59,0,0
128768,-100,4,2,0,70,0,0
133643,-100,4,2,0,31,0,0
134893,-100,4,2,0,21,0,0
135643,-100,4,2,0,11,0,0
136893,-100,4,2,0,2,0,0
140768,-100,4,1,0,61,0,0
188580,-100,4,2,0,52,0,0

[HitObjects]
192,256,17500,1,0
144,208,17750,1,0
192,160,18000,1,2
256,176,18250,1,2
256,240,18500,1,2
320,256,19500,5,0
368,208,19750,1,0
320,160,20000,1,2
256,176,20250,1,2
256,240,20500,1,2
256,320,21250,5,0
208,272,21500,1,0
256,224,21750,1,0
304,176,22000,1,0
256,128,22250,1,0
208,80,22500,1,0
256,32,22750,1,2
256,160,23250,1,2
256,224,23500,1,2
256,288,23750,1,2
256,208,25250,5,0
256,144,25500,1,0
192,128,25750,1,2
144,176,26000,1,2
192,224,26250,1,2
176,64,27250,5,0
240,80,27500,1,0
304,96,27750,1,2
352,144,28000,1,2
352,208,28250,1,2
352,272,28500,1,2
352,336,28750,1,2
208,336,29250,5,0
208,272,29500,1,2
160,224,29750,1,0
160,160,30000,1,2
208,112,30250,1,2
320,192,30750,5,0
256,192,31000,1,2
192,192,31250,1,2
128,192,31500,2,2,B|32:192,1,70,2|2
57,122,32000,1,0
112,288,33250,5,0
112,224,33500,1,0
112,160,33750,2,0,B|112:64,1,70
176,64,34250,1,2
176,128,34500,1,2
176,192,34750,2,2,B|176:288,1,70
240,288,35250,1,2
240,224,35500,1,2
240,160,35750,2,2,B|240:64,1,70
304,64,36250,5,10
304,128,36500,1,10
304,192,36750,2,2,B|304:336,4,140
304,128,39000,5,0
304,64,39250,1,0
240,96,39500,1,2
240,160,39750,1,2
304,192,40000,1,0
368,160,40250,1,0
368,96,40500,1,2
304,128,40750,1,2
160,144,41250,5,0
224,144,41500,1,0
288,144,41750,2,0,B|384:144,1,70
368,208,42250,1,2
304,208,42500,1,2
240,208,42750,2,2,B|144:208,1,70
160,272,43250,1,0
224,272,43500,1,0
288,272,43750,2,0,B|384:272,1,70
352,336,44250,6,2,B|256:336,1,70
208,336,44750,2,0,B|208:192,3,140
304,96,46750,5,0
160,96,47250,1,2
112,144,47500,1,2
160,192,47750,1,2
304,192,48250,1,0
352,240,48500,1,0
352,304,48750,1,0
224,80,57500,5,0
224,144,57750,1,0
272,192,58000,1,2
320,144,58250,1,2
320,80,58500,1,2
224,256,59250,5,0
288,256,59500,1,0
352,256,59750,1,2
352,320,60000,1,2
288,320,60250,1,2
224,320,60500,1,0
160,320,60750,1,0
160,112,61500,5,0
160,176,61750,1,0
160,240,62000,2,0,B|240:240,1,70
368,240,62750,1,0
368,168,63000,2,0,B|336:120|312:216|280:168|280:168|248:120|216:72,1,210
93,78,64250,1,2
352,208,65250,5,0
320,144,65500,1,0
256,112,65750,1,2
192,144,66000,1,2
160,208,66250,1,2
400,64,67250,5,0
368,128,67500,1,0
320,176,67750,1,0
256,192,68000,1,2
192,176,68250,1,2
144,128,68500,1,2
128,64,68750,1,2
256,64,69500,5,0
256,128,69750,1,0
256,192,70000,1,0
256,256,70250,1,0
384,256,70750,1,0
320,256,71000,1,0
256,256,71250,1,2
192,256,71500,1,2
128,256,71750,1,2
256,192,72250,1,2
256,112,73250,5,0
288,176,73500,1,0
224,176,73750,1,0
80,176,74250,1,2
48,112,74500,1,2
112,112,74750,1,2
256,112,75250,1,0
224,176,75500,1,0
288,176,75750,1,0
432,176,76250,1,8
464,112,76500,1,8
400,112,76750,1,2
256,112,77250,1,2
256,256,77750,5,8
256,112,78250,1,8
256,208,79000,5,0
192,208,79250,1,0
192,272,79500,1,2
256,272,79750,1,2
320,272,80000,1,0
320,208,80250,1,0
256,208,80500,1,8
256,144,80750,1,8
256,288,81250,5,0
288,224,81500,1,0
320,160,81750,1,0
192,160,82250,1,2
224,96,82500,1,2
256,32,82750,1,2
256,160,83250,1,0
224,224,83500,1,0
192,288,83750,1,0
320,288,84250,1,8
288,224,84500,1,8
256,160,84750,1,2
256,16,85250,1,2
256,160,85750,5,8
256,304,86250,1,8
192,96,87000,5,0
224,160,87250,1,0
256,224,87500,1,2
304,272,87750,1,2
304,128,88250,1,0
264,184,88500,1,0
216,232,88750,1,4
368,64,89500,5,0
368,128,89750,1,0
368,336,90500,1,2
304,336,90750,1,2
160,336,91250,1,0
160,272,91500,1,0
160,208,91750,1,0
160,64,92250,1,8
224,64,92500,1,8
288,64,92750,2,0,B|384:64|432:80,3,140,2|2|8|8
416,288,95000,5,0
384,352,95250,1,0
352,288,95500,1,2
320,352,95750,1,2
288,288,96000,1,0
256,352,96250,1,0
224,288,96500,1,8
192,352,96750,1,8
80,256,97250,5,0
112,192,97500,1,0
144,256,97750,1,0
192,128,98250,1,2
224,64,98500,1,2
256,128,98750,1,2
304,256,99250,1,0
336,192,99500,1,0
368,256,99750,1,0
416,128,100250,1,8
448,64,100500,1,8
480,128,100750,2,0,B|480:224,5,70,2|2|8|8|2|8
272,192,102750,5,0
128,192,103250,1,2
160,128,103500,1,2
208,80,103750,1,2
352,80,104250,1,0
400,128,104500,1,0
432,192,104750,1,4
128,208,113250,5,0
128,144,113500,1,0
160,80,113750,1,2
288,48,114250,1,2
32,176,115250,1,0
40,240,115500,1,0
88,280,115750,1,2
144,304,116000,1,2
208,304,116250,1,2
480,240,117250,5,0
432,192,117500,1,0
480,144,117750,1,0
336,144,118250,1,0
288,192,118500,1,0
336,240,118750,1,2
192,240,119250,1,0
144,192,119500,1,2
192,144,119750,1,2
64,128,121250,5,0
128,128,121500,1,0
192,128,121750,2,2,B|288:128|320:32,1,140
64,208,123250,1,0
128,208,123500,1,0
192,208,123750,2,2,B|288:208|320:112,1,140
64,288,125250,1,0
128,288,125500,1,0
192,288,125750,2,2,B|288:288|320:192,2,140
48,288,127250,1,2
48,224,127500,1,2
48,160,127750,1,2
416,128,129250,5,0
352,128,129500,1,0
288,128,129750,2,2,B|192:128|160:224,1,140
448,192,131250,5,0
384,192,131500,1,0
320,192,131750,2,2,B|272:191|208:256,2,70
320,256,133250,5,0
256,256,133500,1,0
192,256,133750,1,0
112,144,134250,5,0
176,144,134500,1,0
240,144,134750,1,0
320,32,135250,5,0
256,32,135500,1,0
192,32,135750,1,0
304,336,141000,5,0
240,336,141250,1,0
224,272,141500,1,0
208,208,141750,2,2,B|208:16|128:16|128:16|256:16|256:16|272:16,1,350
320,16,143250,1,0
336,80,143500,1,0
368,144,143750,2,2,B|368:336|448:336|448:336|320:336|320:336|304:336,1,350
256,336,145250,1,0
192,336,145500,1,0
128,336,145750,2,2,B|-32:176|128:0,1,350
176,32,147250,1,0
240,32,147500,1,0
304,32,147750,2,2,B|304:336|96:240,1,350
80,208,149250,5,0
112,144,149500,1,0
144,80,149750,2,2,B|272:0|480:128,1,350
480,192,151250,1,0
464,256,151500,1,0
416,304,151750,2,2,B|208:320|192:240|320:240,1,280
352,176,153000,2,2,B|464:64,2,140
144,192,154750,5,0
240,288,155250,1,2
288,336,155500,1,2
336,288,155750,1,2
336,144,156250,1,0
288,96,156500,1,0
240,144,156750,1,4
48,336,157750,5,0
48,192,158250,1,2
64,128,158500,1,2
128,96,158750,1,2
272,64,159250,1,0
336,64,159500,1,0
384,112,159750,1,0
432,240,160250,1,8
384,288,160500,1,8
320,320,160750,1,2
256,336,161000,2,2,B|208:384|112:336,2,140,0|10|10
256,48,162750,6,0,B|256:128,1,70
256,192,163250,1,0
192,192,163500,1,2
192,256,163750,1,2
192,320,164000,1,0
256,320,164250,1,0
320,320,164500,1,8
320,256,164750,1,8
256,128,165250,5,0
256,192,165500,1,0
256,256,165750,1,0
128,192,166250,1,2
192,192,166500,1,2
256,192,166750,1,2
192,320,167250,1,0
192,256,167500,1,0
192,192,167750,1,0
320,256,168250,1,8
256,256,168500,1,8
192,256,168750,1,0
128,256,169000,2,2,B|48:256,4,70,2|2|8|8|10
456,176,171000,5,0
408,224,171250,1,0
344,256,171500,1,2
288,296,171750,2,2,B|255:319|220:296,1,70
160,256,172250,1,0
96,224,172500,1,0
40,184,172750,1,4
192,32,173500,5,0
192,96,173750,1,0
192,304,174500,1,2
192,368,174750,1,2
336,368,175250,1,0
336,304,175500,1,0
336,240,175750,1,0
336,96,176250,1,8
336,32,176500,1,8
272,32,176750,2,2,B|272:384,1,280,2|8
144,192,179000,5,0
208,224,179250,1,0
144,256,179500,1,2
80,224,179750,1,2
80,160,180000,1,0
144,128,180250,1,0
208,160,180500,1,8
144,192,180750,1,8
224,336,181250,5,0
288,336,181500,1,0
224,336,181750,1,0
288,208,182250,1,2
224,208,182500,1,2
288,208,182750,1,2
224,80,183250,1,0
288,80,183500,1,0
224,80,183750,1,0
80,80,184250,1,8
80,144,184500,1,8
80,208,184750,1,2
80,272,185000,2,8,B|80:344,2,70,8|2|8
80,208,185750,1,2
80,144,186000,1,8
256,192,186750,12,2,188750
