osu file format v5

[General]
AudioFilename: 01 Headlock.mp3
AudioLeadIn: 0
PreviewTime: -1
Countdown: 1
SampleSet: Soft
StackLeniency: 0.7
Mode: 0
LetterboxInBreaks: 1

[Metadata]
Title:Headlock
Artist:Imogen Heap
Creator:JujYFru1T
Version:Easy
Source:
Tags:

[Difficulty]
HPDrainRate:5
CircleSize:5
OverallDifficulty:5
SliderMultiplier:1.4
SliderTickRate:2

[Events]
//Background and Video events
0,0,"ImmiHeap.JPG"
//Break Periods
2,48687,55787
//Storyboard Layer 0 (Background)
//Storyboard Layer 1 (Failing)
//Storyboard Layer 2 (Passing)
//Storyboard Layer 3 (Foreground)
//Storyboard Sound Samples
//Background Colour Transformations
3,100,255,128,192

[TimingPoints]
987,500,4,2,0,37,1,0

[Colours]
Combo1 : 255,128,192
Combo2 : 236,236,0
Combo3 : 0,128,255
Combo4 : 0,215,0

[HitObjects]
128,160,17487,6,8,B|416:64,1,280
448,288,19487,6,8,B|288:288|160:192,1,280
384,128,21487,5,8
288,192,21987,1,8
192,224,23487,5,8
96,224,23987,1,8
416,320,25487,6,8,B,1,210
128,192,27487,6,0,B|416:192,1,280
416,288,28987,1,8
96,192,30487,5,12
64,96,30987,1,2
160,32,31487,1,2
256,96,31987,1,2
64,256,32987,6,0,B|224:256,2,140
288,256,34987,2,0,B|448:256,2,140
384,224,37487,5,2
320,128,37987,1,2
224,96,38487,1,2
192,256,40487,5,8
224,160,40987,2,0,B|64:160,3,140
416,288,42987,2,0,B|256:256,2,140
320,192,44487,1,0
192,96,45487,5,2
256,160,45987,1,2
320,192,46487,1,2
320,288,46987,5,12
64,128,48487,1,12
352,192,56987,5,8
224,224,57487,2,8,B|96:160,1,140
0,128,58487,1,0
319,122,58987,5,8
192,160,59487,2,8,B|64:256,1,140
0,320,60487,1,0
256,192,61487,12,4,64487
384,128,65487,5,4
320,128,65987,2,4,B,1,140
256,288,67487,5,4
128,288,67987,2,4,B|128:128,1,140
320,192,69487,5,0
160,192,70487,1,0
192,128,71487,5,2
288,96,71987,1,2
352,192,72487,1,2
256,256,72987,6,12,B|96:256,1,140
64,160,73987,1,0
160,96,74487,1,0
384,128,74987,6,12,B|224:128,1,140
256,256,75987,1,0
96,160,76487,1,0
64,256,76987,5,8
256,64,78237,1,8
384,160,78987,1,8
224,128,80487,5,10
320,160,80987,2,10,B,1,140
160,224,82487,5,10
64,288,82987,2,8,B,1,140
384,288,84487,5,10
224,288,84987,2,8,B|96:192,1,140
96,128,86987,5,0
256,160,87987,1,0
96,256,88987,5,12
128,192,89487,1,12
192,128,89987,1,12
288,288,90987,5,12
256,192,91487,1,12
320,96,91987,1,12
128,128,93487,6,8,B|448:128,3,280,8|12|8|12
256,224,97487,5,12
192,224,97987,1,12
128,192,98487,1,12
288,128,99487,5,12
224,128,99987,1,12
160,160,100487,1,12
256,192,101487,12,12,104987
352,160,107237,2,0,B|256:160,1,70
256,160,107737,1,0
128,192,108237,1,0
320,256,109237,6,0,B|160:256,1,140
64,256,110237,1,0
160,224,110737,1,0
256,192,111237,2,10,B|416:192,1,140
64,128,113237,5,0
96,160,113487,1,0
128,224,113737,2,0,B|256:288,1,140
480,128,115237,5,0
448,160,115487,1,0
416,224,115737,2,0,B|288:320,1,140
256,192,117362,12,0,120487
256,160,120987,5,0
128,192,122987,1,0
384,224,124987,1,0
128,224,126987,5,0
224,160,127487,1,0
320,224,127987,1,0
416,288,128487,1,0
128,64,128987,6,8,B|288:64,3,140
224,224,130987,2,8,B|384:224,3,140
256,160,132987,5,8
160,160,134487,1,8
128,224,134987,1,8
128,64,136487,5,8
288,160,137487,1,4
160,288,138487,1,4
128,96,139487,5,6
224,128,139987,1,6
256,192,140487,1,6
160,224,140987,1,4
448,96,142487,5,4
384,128,142987,1,6
96,192,144487,5,4
160,160,144987,1,6
128,96,146487,6,4,B|288:96,4,140
192,160,148987,1,6
192,256,150487,5,4
256,256,150987,1,4
320,160,152487,5,4
256,160,152987,1,4
96,128,154487,5,4
192,192,154987,1,4
320,256,155487,1,4
320,320,156487,5,4
224,288,156987,1,4
256,192,157987,12,4,160987
128,128,162487,5,8
288,192,162987,1,8
224,288,163487,1,8
128,256,163987,1,8
128,160,164487,1,8
224,192,164987,5,12
288,288,165487,2,12,B|448:288,2,140
160,192,166987,5,12
224,288,167487,2,12,B|64:288,2,140
280,163,168987,5,12
336,232,169487,2,12,B|496:232,2,140
256,288,170987,5,4
448,320,172487,1,4
448,192,172987,1,4
128,96,174487,6,4,B|512:224,4,280
32,160,178987,1,4
480,320,180487,5,4
352,256,180987,1,4
256,192,181487,1,4
128,32,182487,5,4
160,96,182987,1,4
224,160,183487,1,4
352,224,184487,5,4
224,224,184987,1,4
160,224,185487,1,4
64,128,186987,5,2
128,224,188487,1,2
256,192,188987,1,6
