osu file format v5

[General]
AudioFilename: Imogen Heap - Have You Got It In You.mp3
AudioLeadIn: 0
PreviewTime: 71214
Countdown: 0
SampleSet: Soft
StackLeniency: 0.7
Mode: 0
LetterboxInBreaks: 1

[Editor]
Bookmarks: 14558,26124,49257,72389,83955,107088,118654,130220,141787,164919,176485,188052,199618,222751
DistanceSpacing: 0.5
BeatDivisor: 4
GridSize: 8

[Metadata]
Title:Have You Got It In You?
Artist:Imogen Heap
Creator:Kharl
Version:Hard
Source:
Tags:

[Difficulty]
HPDrainRate:6
CircleSize:6
OverallDifficulty:7
SliderMultiplier:1.6
SliderTickRate:2

[Events]
//Background and Video events
Video,0,"haveYou.avi"
0,0,"haveYouBg.jpg"
//Break Periods
2,49457,70405
2,118854,129320
2,176685,187152
//Storyboard Layer 0 (Background)
//Storyboard Layer 1 (Fail)
//Storyboard Layer 2 (Pass)
//Storyboard Layer 3 (Foreground)
//Storyboard Sound Samples
//Background Colour Transformations
3,100,0,0,0

[TimingPoints]
2992,361.44578313253,4,2,0,60,1,0
14558,-100,4,2,1,60,0,0
26305,-100,4,2,0,60,0,0
72389,-100,4,2,0,100,0,0
83955,-100,4,2,0,100,0,0
130220,-100,4,1,0,60,0,1
141787,-100,4,1,0,60,0,0
165100,-100,4,2,0,100,0,0
188052,-200,4,2,0,60,0,0
224558,-200,4,2,0,50,0,0
226004,-200,4,2,0,40,0,0
227449,-200,4,2,0,35,0,0
228895,-200,4,2,0,30,0,0
231787,-200,4,2,1,20,0,0

[HitObjects]
80,64,14558,1,0
80,64,14738,1,0
80,112,14919,1,0
128,112,15100,1,0
128,160,15281,1,0
176,160,15461,1,0
176,208,15642,1,0
224,208,15823,1,0
224,256,16004,1,2
272,112,16365,5,0
272,160,16546,1,0
320,160,16726,1,0
320,208,16907,1,0
368,208,17088,1,0
368,256,17269,1,0
416,256,17449,1,2
368,112,17811,5,0
368,160,17992,1,0
320,160,18172,1,0
320,208,18353,1,0
272,208,18534,1,0
272,256,18714,1,0
224,256,18895,1,2
224,112,19257,5,0
224,160,19437,1,0
176,160,19618,1,0
176,208,19799,1,0
128,208,19979,2,2,B|128:40,1,160
24,48,20702,6,0,B|24:144,1,80
72,112,21064,2,0,B|72:200,1,80
120,176,21425,2,0,B|120:272,1,80
168,240,21787,1,2
168,104,22148,6,0,B|168:200,1,80
216,168,22510,2,0,B|216:256,1,80
264,232,22871,2,0,B|264:320,1,80
312,296,23232,1,2
416,336,23594,6,0,B|416:232,1,80
368,272,23955,2,0,B|368:176,1,80
320,208,24317,2,0,B|320:112,1,80
272,144,24678,1,2
152,144,25040,6,0,B|64:144,1,80
72,192,25401,2,0,B|160:192,1,80
200,192,25763,2,2,B|200:24,1,160,2|4
80,152,26666,5,0
128,120,26847,2,0,B|208:88|288:120,1,160
296,176,27389,2,0,B|400:120|488:176|488:288|408:352|288:296,1,400
184,328,28654,5,0
240,312,28835,1,0
240,256,29016,2,0,B|64:256,1,160
32,224,29558,1,0
112,136,29919,2,0,B|208:136|288:176|328:232,2,240
112,80,31184,1,0
112,192,31546,1,0
168,192,31726,1,2
304,112,32269,5,0
416,160,32630,1,0
304,224,32991,1,0
304,168,33172,1,0
304,168,33263,1,0
304,168,33353,1,2
192,136,33714,5,0
88,192,34076,1,0
192,248,34437,1,0
192,192,34618,1,0
192,192,34708,1,0
192,192,34799,1,2
304,168,35160,5,0
416,208,35522,1,0
304,280,35883,1,0
304,224,36064,1,0
304,224,36154,1,0
304,224,36245,1,2
192,192,36606,5,0
192,304,36967,1,0
144,272,37148,1,0
96,240,37329,2,2,B|96:72,1,160,2|6
432,152,38232,5,0
384,120,38413,2,0,B|304:88|224:120,1,160
216,176,38955,2,0,B|112:120|24:176|24:288|104:352|224:296,1,400
328,328,40220,5,0
272,312,40401,1,0
272,256,40582,2,0,B|448:256,1,160
480,224,41124,1,0
400,136,41485,2,0,B|304:136|224:176|184:232,2,240
400,80,42750,1,0
400,192,43112,1,0
344,192,43292,1,2
344,80,43835,5,0
344,128,44016,1,0
296,128,44196,1,0
296,176,44377,1,0
248,176,44558,1,0
248,224,44738,1,0
200,224,44919,1,2
200,80,45281,5,0
200,128,45461,1,0
152,128,45642,1,0
152,176,45823,1,0
104,176,46004,1,0
104,224,46184,1,0
56,224,46365,2,0,B|56:120|144:24|344:32|432:80|472:168|464:272|440:336,1,640,2|2
392,320,47991,5,0
336,320,48172,1,0
280,304,48353,1,0
224,280,48534,1,0
176,248,48714,1,0
136,208,48895,1,0
104,160,49076,1,2
96,104,49257,1,4
288,88,71305,5,0
288,32,71486,1,0
344,32,71666,1,0
344,88,71847,1,0
400,88,72028,1,0
456,88,72208,1,0
456,144,72389,6,0,B|280:144,1,160
296,200,72931,2,0,B|48:200,1,240,0|2
56,304,73835,2,0,B|232:304,1,160
216,360,74377,2,0,B|304:360,1,80
352,360,74738,1,8
408,360,74919,1,8
408,248,75281,6,0,B|152:248,1,240
168,304,76004,2,0,B|352:304,2,160,0|2|0
168,192,77088,5,0
168,136,77269,1,0
224,136,77449,1,0
224,192,77630,1,8
224,248,77811,1,8
280,248,77991,1,0
280,192,78172,6,0,B|464:192,1,160
440,136,78714,2,0,B|184:136,1,240,0|2
200,248,79618,2,0,B|32:248,1,160
40,304,80160,2,0,B|136:304,1,80
176,304,80522,1,8
232,304,80702,1,8
288,304,80883,1,2
288,248,81064,6,0,B|464:248,1,160
448,192,81606,2,0,B|280:192,1,160
288,136,82148,1,2
288,80,82329,1,0
344,80,82510,6,0,B|440:80,1,80
424,136,82871,2,2,B|336:136,1,80
344,192,83232,2,0,B|392:272|496:240,2,160,0|0|4
272,64,84678,6,0,B|360:72|448:144,1,160
448,168,85220,2,0,B|480:248|384:312|240:328|128:296,1,400
32,232,86485,5,0
56,184,86666,1,0
88,144,86847,2,2,B|160:96|248:88,1,160
288,88,87389,2,0,B|376:88|464:144,2,160
232,88,88293,2,2,B|136:96|96:232|168:304,1,240
200,296,89016,1,0
240,256,89196,1,8
272,208,89377,2,0,B|272:40,1,160,8|4
384,64,90100,5,0
432,88,90281,1,0
384,112,90461,1,0
432,136,90642,1,0
384,160,90823,1,2
384,272,91184,5,0
352,320,91365,1,0
328,272,91546,1,0
296,320,91726,1,0
272,272,91907,1,0
240,320,92088,1,8
216,272,92269,1,8
104,272,92630,5,0
104,224,92811,1,0
56,248,92991,1,0
56,200,93172,1,0
56,152,93353,1,0
104,176,93534,1,0
104,128,93714,1,2
200,56,94076,5,0
200,56,94257,1,0
256,56,94437,1,0
232,104,94618,1,0
288,104,94799,1,0
312,56,94979,1,8
344,104,95160,1,8
272,200,95522,5,4
72,208,96064,5,0
120,208,96245,2,0,B|128:272|184:304|232:328,1,160
256,192,96787,12,4,97690
344,72,98232,5,0
392,104,98413,2,0,B|448:176|392:256,1,160
352,216,98955,1,0
272,144,99317,2,0,B|192:168|144:248|152:336,2,240
216,144,100582,2,0,B|128:136|88:56,1,160
144,40,101124,1,2
288,80,101666,5,0
288,80,102028,2,0,B|424:296,1,240
415,283,102751,1,0
312,304,103112,6,0,B|144:320,1,160
96,328,103654,1,8
96,328,103835,1,8
40,232,104196,6,0,B|192:152,1,160
280,208,104919,1,0
328,240,105100,1,0
376,208,105281,1,2
424,240,105461,1,0
464,128,105823,5,0
416,96,106004,1,0
360,112,106184,1,0
312,144,106365,2,0,B|232:200|232:200|184:232|128:200|128:200|24:144,1,320,0|4
136,144,107449,5,0
184,112,107630,2,0,B|264:64|352:72|424:128,1,240,0|2
472,216,108534,6,0,B|224:216,1,240
176,216,109257,1,0
120,216,109437,1,8
64,216,109618,1,8
64,272,109799,1,0
64,272,110160,2,0,B|232:272,1,160
224,272,111064,1,2
336,272,111425,6,0,B|424:272|472:352,1,160
416,360,111967,1,0
296,360,112329,2,8,B|208:360|112:304|72:248,1,240,8|8
192,264,113232,1,0
248,264,113413,1,0
248,208,113594,5,2
80,152,114136,1,2
80,264,114497,1,2
152,128,115040,6,0,B|152:80|152:80|152:40|192:40|192:40|312:40|312:40|352:40|352:80|352:80|352:120|352:120|352:168|312:168|312:168|288:168|288:168|240:168|240:216|240:216|240:280,1,560
240,360,116847,1,2
240,360,117208,5,0
296,352,117389,1,0
344,328,117570,1,0
384,288,117751,2,0,B|416:256|424:216,1,80
440,168,118112,1,8
432,112,118293,1,8
400,64,118473,1,2
360,24,118654,1,4
32,272,130220,6,0,B|32:360,2,80
112,312,130763,1,0
192,352,130943,2,0,B|192:256,2,80
272,312,131485,1,2
352,312,131666,6,0,B|440:312,2,80
392,232,132208,1,0
432,152,132389,2,0,B|336:152,2,80,0|8|8
392,72,132931,1,0
320,40,133112,5,0
288,120,133293,1,0
288,120,133473,1,0
256,40,133654,1,0
176,40,133835,2,0,B|88:40,1,80
56,120,134196,2,0,B|144:120,1,80,0|2
216,120,134558,1,0
176,192,134738,1,0
216,264,134919,5,0
256,192,135100,1,0
296,264,135281,2,0,B|384:312,1,80,0|8
416,224,135642,2,0,B|336:184,1,80,8|0
288,128,136004,5,4
368,128,136184,1,0
288,128,136365,1,0
288,48,136546,1,0
208,48,136726,1,0
128,48,136907,1,0
208,48,137088,1,0
208,128,137269,1,2
128,128,137449,5,0
56,88,137630,1,0
128,128,137811,1,0
56,168,137991,1,0
128,208,138172,1,0
72,280,138353,1,8
128,208,138534,1,8
168,280,138714,1,2
240,232,138895,6,0,B|240:328,1,80
320,312,139257,2,0,B|416:312,1,80
400,232,139618,2,0,B|400:144,1,80
320,152,139979,2,0,B|224:152,1,80,0|2
256,192,140341,12,4,141425
32,112,141787,6,0,B|168:32|288:176|320:224|488:128,1,480,0|2
488,240,143232,2,0,B|344:176|184:288,1,320
136,304,144136,1,8
80,296,144317,1,8
80,184,144678,6,2,B|80:96|176:56,1,160
208,96,145220,2,0,B|208:184|104:224,2,160
248,136,146124,5,0
248,192,146305,1,0
248,192,146485,1,2
304,192,146666,1,0
304,136,146847,1,0
272,88,147028,1,0
272,88,147118,1,0
272,88,147208,1,8
272,32,147389,1,8
312,56,147570,6,0,B|416:80|416:192,1,160
416,216,148112,2,8,B|400:304|296:320,1,160
256,320,148654,2,0,B|160:312|152:208,1,160
152,168,149196,1,8
272,168,149558,2,8,B|240:96|136:88,1,160
176,48,150100,1,0
280,48,150461,2,2,B|376:64|416:144,1,160
376,168,151004,1,0
272,184,151365,1,0
168,200,151726,1,0
136,248,151907,5,0
112,296,152088,1,0
136,344,152269,1,2
192,360,152449,1,0
240,336,152630,1,0
240,288,152811,1,0
208,280,152901,1,0
192,256,152992,1,8
232,224,153172,1,8
280,248,153353,6,0,B|360:328|480:312|520:160|448:72|368:56|288:64,1,480,4|0
248,64,154618,2,0,B|160:64|80:104|40:176,1,240
40,216,155341,1,0
88,216,155522,1,2
184,304,155883,5,0
136,280,156064,1,0
112,232,156245,2,2,B|96:136|192:72,1,160
216,64,156787,2,0,B|296:24|376:80,2,160
216,120,157690,5,0
176,160,157871,1,0
184,216,158052,1,2
232,240,158232,1,0
280,224,158413,1,0
312,184,158594,1,0
328,168,158684,1,0
352,152,158775,1,8
400,152,158955,1,8
440,184,159136,6,0,B|320:336,1,160,4|0
288,304,159678,2,2,B|392:168,1,160
336,160,160220,2,0,B|232:296,1,160
192,264,160763,2,2,B|304:120,1,160
248,112,161305,2,8,B|144:248,2,160
208,80,162208,1,0
152,80,162389,1,0
120,120,162570,2,0,B|56:184,1,80
104,208,162931,2,0,B|40:272,1,80
64,312,163293,1,0
120,312,163473,5,0
176,312,163654,1,0
232,312,163835,1,0
288,312,164016,1,0
344,312,164196,2,0,B|432:312,1,80
424,256,164558,2,0,B|328:256,1,80
432,128,164919,5,4
432,184,165100,1,0
432,184,165281,1,0
376,128,165461,1,0
376,184,165642,1,0
320,184,165823,2,2,B|320:88,1,80
56,128,166365,5,0
56,184,166546,1,0
56,184,166726,1,0
112,128,166907,1,0
112,184,167088,1,0
168,184,167269,2,8,B|168:88,1,80
432,128,167811,5,0
376,128,167992,1,0
376,128,168173,1,0
432,184,168353,1,0
376,184,168534,1,0
320,184,168715,2,2,B|320:88,1,80
56,128,169257,5,0
112,128,169438,1,0
112,128,169618,1,0
56,184,169799,1,0
112,184,169980,1,0
168,184,170160,2,8,B|168:88,1,80
448,112,170702,5,0
448,168,170883,1,0
448,168,171064,1,0
392,168,171245,1,0
392,112,171425,1,0
336,112,171606,2,0,B|336:200,1,80
336,248,171967,1,2
280,248,172148,5,0
280,304,172329,1,0
280,304,172510,1,0
224,248,172690,1,0
224,304,172871,1,0
168,304,173052,2,8,B|168:208,1,80
168,168,173413,1,2
112,168,173594,5,0
56,112,173775,1,0
56,112,173955,1,0
56,168,174136,1,0
112,112,174317,1,0
56,56,174498,2,0,B|160:56,1,80
192,56,174859,1,2
256,192,175040,12,4,176485
232,120,188052,5,2
440,216,189498,6,0,B|272:216,1,160
272,96,190582,1,0
224,120,190763,1,0
128,176,191124,1,0
72,176,192389,6,0,B|168:216,1,80
192,232,192931,1,0
272,144,193293,2,0,B|336:192|304:264,1,120,0|2
256,192,195281,5,2
328,288,196004,6,0,B|424:232,1,80
432,208,196546,1,0
352,128,196907,2,0,B|280:128|216:192,1,120
200,200,197630,1,0
72,112,198534,5,0
112,72,198714,1,0
168,72,198895,1,0
208,112,199076,1,0
248,152,199256,1,0
304,152,199437,1,0
344,112,199618,6,0,B|408:112|448:176,1,120,2|0
456,224,200341,1,0
408,248,200522,1,0
360,224,200702,1,0
312,200,200883,1,0
256,208,201064,2,0,B|184:224|144:296,1,120,2|0
112,304,201787,1,0
56,296,201967,1,0
24,248,202148,5,0
96,168,202510,2,2,B|168:120|256:104,2,160
312,48,204317,5,0
352,88,204497,1,0
352,144,204678,1,0
312,184,204859,1,0
256,184,205039,1,0
208,152,205220,1,0
168,112,205401,6,0,B|104:112|64:176,1,120,2|0
56,224,206124,1,0
104,248,206305,1,0
152,224,206485,1,0
200,200,206666,1,0
256,208,206847,2,0,B|328:224|368:296,1,120,2|0
400,304,207570,1,0
456,296,207750,1,0
480,248,207931,1,0
456,200,208112,1,0
408,168,208293,6,0,B|272:168,1,120,2|0
248,208,209016,1,0
200,240,209196,1,0
144,256,209377,1,0
88,232,209558,1,0
48,192,209738,1,2
128,120,210100,5,0
160,72,210281,1,0
216,72,210461,1,0
248,120,210642,1,0
280,168,210823,1,0
336,168,211004,1,0
368,120,211184,1,2
440,232,211365,5,0
384,232,211546,1,0
328,216,211726,1,0
280,184,211907,1,0
240,144,212088,1,0
208,96,212269,1,0
184,48,212449,1,0
208,96,212630,1,2
104,160,212811,5,0
56,184,212992,1,0
32,232,213172,1,0
56,280,213353,1,0
112,296,213534,1,0
160,264,213715,1,0
208,232,213895,1,0
256,200,214076,6,2,B|376:200|416:240,2,160
296,320,215883,6,0,B|256:272,1,40
216,288,216245,2,0,B|184:336,1,40
136,320,216606,2,0,B|104:280,2,40,0|0|2
72,176,217148,5,0
128,176,217329,1,0
184,160,217509,1,0
128,176,217690,1,0
184,160,217871,1,0
232,128,218052,1,0
272,88,218232,1,0
232,128,218413,1,2
216,264,218594,5,0
272,264,218775,1,0
328,248,218955,1,0
376,216,219136,1,0
416,176,219317,1,0
448,128,219498,1,0
472,80,219678,1,0
448,128,219859,1,2
320,176,220040,5,0
280,208,220220,1,0
224,224,220401,1,0
280,208,220582,1,0
224,224,220763,1,0
168,216,220943,1,0
120,184,221124,1,0
168,216,221305,1,2
192,112,221666,5,0
240,80,221847,1,0
288,104,222028,1,0
312,152,222208,1,0
272,192,222389,1,0
240,240,222570,1,0
240,296,222751,5,2
160,64,223112,5,0
64,120,223473,1,0
160,176,223835,1,0
160,120,224016,1,0
160,120,224107,1,0
160,120,224197,1,0
352,120,224558,5,0
448,176,224919,1,0
352,232,225281,1,0
352,176,225462,1,0
352,176,225553,1,0
352,176,225643,1,0
160,176,226004,5,0
64,232,226365,1,0
160,288,226727,1,0
160,232,226908,1,0
160,232,226999,1,0
160,232,227089,1,0
352,232,227449,5,0
448,288,227811,1,0
448,184,228172,2,0,B|448:80,1,80,0|2
352,120,228895,5,0
168,120,229257,1,0
256,264,229618,1,0
352,120,229979,1,0
136,96,230341,5,0
256,304,230702,1,0
136,96,231064,1,0
384,96,231425,1,0
256,344,231787,5,0
416,72,232148,1,0
104,72,232510,1,0
256,192,232871,12,2,234317
