osu file format v5

[General]
AudioFilename: 13 - Half Life.mp3
AudioLeadIn: 0
PreviewTime: 43354
Countdown: 0
SampleSet: Soft
StackLeniency: 0.7
Mode: 0
LetterboxInBreaks: 1

[Editor]
DistanceSpacing: 1.20000004768372
BeatDivisor: 4
GridSize: 8

[Metadata]
Title:Half Life
Artist:Imogen Heap
Creator:Larto
Version:Safe
Source:
Tags:

[Difficulty]
HPDrainRate:5
CircleSize:4
OverallDifficulty:5
SliderMultiplier:1.4
SliderTickRate:0.5

[Events]
//Background and Video events
0,0,"sadlovesongb.jpg"
//Break Periods
2,128357,144412
//Storyboard Layer 0 (Background)
//Storyboard Layer 1 (Fail)
//Storyboard Layer 2 (Pass)
//Storyboard Layer 3 (Foreground)
//Storyboard Sound Samples
//Background Colour Transformations

[TimingPoints]
5703,545.454545454545,4,2,1,16,1,0
5943,545.454545454545,4,2,1,16,1,0
7592,545.454545454545,4,2,1,16,1,0
8116,545.454545454545,4,2,1,16,1,0
10056,545.454545454545,4,2,1,16,1,0
10323,545.454545454545,4,2,1,16,1,0
11000,545.454545454545,4,2,1,16,1,0
11509,545.454545454545,4,2,1,16,1,0
12010,545.454545454545,4,2,1,18,1,0
13100,-100,4,2,1,0,0,0
13236,-200,4,2,1,0,0,0
14423,545.454545454545,4,2,1,21,1,0
18404,545.454545454545,4,2,1,21,1,0
21185,545.454545454545,4,2,1,21,1,0
21437,-200,4,2,1,0,0,0
22898,-100,4,2,1,21,0,0
23125,545.454545454545,4,2,1,21,1,0
23403,545.454545454545,4,2,1,21,1,0
24503,545.454545454545,4,2,1,21,1,0
26023,545.454545454545,4,2,1,21,1,0
26411,545.454545454545,4,2,1,21,1,0
26717,545.454545454545,4,2,1,21,1,0
31038,545.454545454545,4,2,1,21,1,0
31630,545.454545454545,4,2,1,21,1,0
32172,545.454545454545,4,2,1,21,1,0
33791,545.454545454545,4,2,1,21,1,0
35720,545.454545454545,4,2,1,21,1,0
36493,545.454545454545,4,2,1,21,1,0
37666,545.454545454545,4,2,1,21,1,0
38620,-100,4,2,1,12,0,0
38734,545.454545454545,4,2,1,12,1,0
40890,545.454545454545,4,2,1,33,1,0
54419,-100,4,2,1,0,0,0
57419,-100,4,2,1,29,0,0
65465,-100,4,2,1,0,0,0
65601,-100,4,2,1,16,0,0
65854,-100,4,2,1,15,0,0
66112,-100,4,2,1,29,0,0
105945,-200,4,2,1,44,0,0
107990,-100,4,2,1,22,0,0
109899,-100,4,2,1,0,0,0
110172,-100,4,2,1,27,0,0
128172,-100,4,2,1,0,0,0
129227,-100,4,2,1,64,0,0
156399,-100,4,2,1,40,0,0
160899,-100,4,2,1,25,0,0
167525,545.454545454545,4,2,1,25,1,0
168732,545.454545454545,4,2,1,25,1,0
172004,545.454545454545,4,2,1,25,1,0
176387,545.454545454545,4,2,1,25,1,0
185157,545.454545454545,4,2,1,25,1,0
189474,545.454545454545,4,2,1,25,1,0
194813,-200,4,2,1,25,0,0
196040,-200,4,2,1,0,0,0
200677,-100,4,2,1,4,0,0
201222,-100,4,2,1,9,0,0
201767,-100,4,2,1,15,0,0
202312,-100,4,2,1,13,0,0
209946,-100,4,2,1,21,0,0
211037,-100,4,2,1,34,0,0
212128,-100,4,2,1,49,0,0
212946,-100,4,2,1,20,0,0
213219,-100,4,2,1,0,0,0

[HitObjects]
80,96,5702,1,0
80,96,5943,2,2,B|40:152|72:216|144:232|208:168,1,210
304,72,7592,1,0
432,96,8116,2,2,B|472:152|440:216|368:232|304:168,1,210
208,72,9752,1,0
248,208,10323,6,2,B|184:248|336:304|232:336,2,140
352,104,12010,1,0
352,104,12282,2,2,B|312:64|256:32|192:64|160:112,1,210
72,320,14423,5,0
136,336,14695,2,2,B|224:360|352:344,1,210
456,176,16332,5,0
456,176,16877,2,2,B|368:152|240:168,1,210
288,328,18540,5,2
232,280,18813,1,0
216,208,19085,2,2,B|200:168|216:128|272:96|328:104|360:168,1,210,2|0
384,208,20176,2,0,B|424:264|488:224|472:184|448:152,1,140,2|0
440,104,20994,1,2
136,88,23125,5,0
64,72,23403,2,2,B|16:80|-8:168|40:176,2,105,2|2|0
88,144,24503,2,0,B|96:192|144:224|208:208,1,140,2|0
328,176,25593,5,0
456,232,26023,1,2
344,312,26411,1,0
344,312,26717,2,0,B|272:312|216:296|144:248|64:248,1,280,2|0
24,200,28080,6,0,B|0:160|32:128,2,70,2|0|2
136,280,29171,2,0,B|160:320|128:352,2,70,2|0|2
136,280,29989,5,4
256,32,31038,5,2
256,184,31630,1,0
376,280,32172,2,0,B|352:328|264:376|160:336|136:272,3,280,4|4|2|2
256,192,35992,1,0
256,192,36502,1,4
256,184,38484,5,2
256,184,38734,1,0
256,192,39006,12,4,40890
56,184,41435,6,2,B|72:240|128:248|184:224,1,140,2|0
341,229,42526,2,0,B|384:248|440:240|456:184,1,140,2|0
336,112,43617,5,2
256,96,43890,1,0
176,112,44162,2,0,B|176:152|184:208|272:200,1,140,0|2
336,200,44980,2,0,B|352:256|264:296|208:304|128:248|96:200|104:128,1,350,0|0
40,24,46890,5,2
176,96,47435,1,0
336,96,47980,1,2
472,24,48526,1,0
396,164,49071,5,2
396,164,49344,1,0
396,164,49617,2,0,B|328:176|256:184|176:176|104:160,3,280,4|0|0|2
256,288,53708,5,0
256,288,54253,1,2
256,192,54390,12,0,57253
64,144,58071,5,0
88,216,58344,2,2,B|120:264|200:264,1,105
288,247,59162,2,0,B|352:235|375:152|360:106,1,175,2|0
168,80,60526,5,0
168,160,60799,2,2,B|168:200|168:200|224:200|224:200|224:264,2,140
232,120,62162,1,2
288,168,62435,1,0
344,224,62708,6,0,B|408:264|480:240,1,140,4|0
344,224,63799,2,0,B|280:264|208:240,1,140,2|2
256,176,64617,1,0
240,104,64890,6,0,B|264:48|344:24|376:16,3,140
376,176,67071,6,2,B|328:232|248:224|184:280,1,210
144,328,68162,1,0
64,192,68708,5,2
136,176,68980,2,0,B|184:232|264:224|328:280,1,210,0|2
368,328,70071,1,0
408,96,70890,5,2
264,40,71435,2,0,B|216:40|176:56,1,70,4|0
152,112,71980,2,0,B|192:136|232:120,1,70
296,128,72526,2,2,B|304:168|272:216|224:232|176:240|112:216,1,210
24,128,73890,1,0
408,80,75253,6,0,B|312:80,1,70,2|0
256,80,75799,1,8
104,152,76344,6,0,B|200:152,1,70,2|0
256,152,76890,1,8
408,224,77435,6,0,B|312:224,1,70,2|0
256,224,77980,2,8,B|224:256|256:272|256:272|288:296|232:336,2,105,8|0|0
72,80,79617,6,0,B|128:56|168:48,1,70,2|0
224,48,80162,1,8
248,128,80435,1,0
328,120,80708,2,0,B|368:56|456:64|480:128|488:168|472:184|456:216|440:232|400:232,1,280,2|8
392,160,82071,1,0
336,216,82344,6,2,B|264:216|304:296|216:296,3,140
72,296,84526,6,0,B|24:256|24:184,1,105,4|0
136,208,85344,2,2,B|192:160|192:120|144:120|120:136|112:160|168:176|216:96,1,210
344,24,86708,6,4,B|424:40|440:96|432:160|368:192,1,210,4|2
176,272,88344,6,2,B|256:320|336:288,1,140
336,112,89435,2,4,B|256:64|176:96,1,140,4|0
256,192,90526,5,2
256,192,90799,1,4
256,192,91071,12,2,93253
376,200,93799,5,2
376,120,94071,1,0
312,160,94344,1,4
136,184,94889,5,2
136,264,95162,1,0
200,224,95435,1,4
256,80,95980,5,2
256,160,96253,1,0
327,199,96526,2,4,B|272:266|171:212,1,140,4|0
129,193,97344,2,2,B|108:228|114:283|180:320|212:324|324:332|469:291|379:92,1,490
264,32,99799,1,0
144,128,100344,5,2
208,176,100617,1,0
264,224,100889,2,0,B|336:208|336:136,2,105,2|2|2
223,288,101980,2,0,B|136:332|78:284,1,140,4|0
40,232,102799,2,2,B|-8:112|32:24|120:-8|232:-8,1,350
336,48,104708,6,2,B|384:104|480:72,1,140,0|2
256,192,106071,12,4,109889
192,120,110708,6,0,B|144:144|120:120,2,70,0|0|8
320,120,111799,2,0,B|368:144|400:120,2,70,0|0|8
256,256,112889,2,0,B|256:336,2,70,0|0|8
323,111,113980,6,0,B|251:71|179:119,1,140,2|0
128,172,114799,2,6,B|176:224|256:224|256:224|344:224|400:152,3,280,6|0|0|0
432,112,118344,5,2
392,272,118889,1,2
280,152,119435,2,0,B|224:200|256:296,1,140,4|0
328,240,120253,2,2,B|264:192|120:200|56:288,1,280,2|0
32,344,121617,1,4
200,328,122162,1,0
96,192,122708,1,2
256,192,123526,12,4,128162
72,264,145617,6,0,B|56:216|64:176,1,70,8|0
144,208,146162,2,2,B|128:168|136:128,1,70
216,160,146708,2,0,B|192:112|216:80,2,70,8|0|2
440,264,147799,6,0,B|456:216|448:176,1,70,8|0
368,208,148344,2,2,B|384:168|376:128,1,70
296,160,148890,2,0,B|320:112|296:80,2,70,8|0|2
256,320,149980,5,8
168,176,150526,1,2
344,176,151071,1,8
256,320,151617,1,2
104,232,152162,2,8,B|72:192|72:104|160:24|256:136|256:136|352:40|472:136|400:240,1,560,8|4
424,336,155435,5,6
88,336,156526,1,6
88,48,157617,5,2
424,48,158708,1,0
256,192,158844,12,0,160890
171,276,163071,5,4
227,220,165253,1,2
284,163,167525,1,0
340,107,169550,1,0
171,107,172004,5,2
227,163,174185,1,0
284,220,176387,1,4
340,276,178568,1,2
256,72,180750,5,4
256,152,182932,1,0
256,232,185157,1,2
256,312,187338,1,2
176,280,189474,5,2
344,280,190019,1,4
344,112,190564,1,2
176,112,191110,1,4
126,272,191655,2,2,B|176:313|256:321|336:313|400:265,1,280
328,232,193837,6,2,B|360:160|288:80|208:128,1,210
256,192,194928,2,4,B|232:224|232:240|256:264|280:280|280:304|248:328,1,140,4|0
256,192,196564,12,0,200383
144,80,200928,5,12
256,80,201474,1,0
368,80,202019,1,12
368,184,202564,1,0
368,296,203110,1,12
256,296,203655,1,0
144,296,204201,1,12
144,192,204746,1,0
144,80,205292,6,0,B|72:80,2,70,12|2|0
256,192,206383,2,0,B|256:120,2,70,12|2|0
368,304,207474,2,0,B|440:304,2,70,12|2|0
200,304,208564,1,12
136,152,209110,6,0,B|136:80,1,70,8|0
216,80,209655,2,0,B|216:0,1,70,2|0
296,10,210201,2,0,B|296:80,1,70,8|0
376,82,210746,2,0,B|376:152,1,70,2|0
376,232,211292,6,0,B|376:304,1,70,8|0
296,304,211837,2,0,B|296:384,1,70,2|0
216,374,212383,2,0,B|216:304,1,70,8|0
136,302,212928,2,0,B|136:232,1,70,2|0
256,192,213746,12,4,217837
