osu file format v5

[General]
AudioFilename: 13 - Half Life.mp3
AudioLeadIn: 0
PreviewTime: 43354
Countdown: 0
SampleSet: Soft
StackLeniency: 0.7
Mode: 0
LetterboxInBreaks: 1

[Editor]
DistanceSpacing: 0.800000011920929
BeatDivisor: 4
GridSize: 8

[Metadata]
Title:Half Life
Artist:Imogen Heap
Creator:Larto
Version:Rest
Source:
Tags:

[Difficulty]
HPDrainRate:2
CircleSize:3
OverallDifficulty:2
SliderMultiplier:1.1
SliderTickRate:0.5

[Events]
//Background and Video events
0,0,"sadlovesongb.jpg"
//Break Periods
//Storyboard Layer 0 (Background)
//Storyboard Layer 1 (Fail)
//Storyboard Layer 2 (Pass)
//Storyboard Layer 3 (Foreground)
//Storyboard Sound Samples
//Background Colour Transformations
3,100,163,162,255

[TimingPoints]
5703,545.454545454545,4,2,1,16,1,0
5943,545.454545454545,4,2,1,16,1,0
7592,545.454545454545,4,2,1,16,1,0
8116,545.454545454545,4,2,1,16,1,0
10056,545.454545454545,4,2,1,16,1,0
10323,545.454545454545,4,2,1,16,1,0
11000,545.454545454545,4,2,1,16,1,0
11509,545.454545454545,4,2,1,16,1,0
12010,545.454545454545,4,2,1,18,1,0
13100,-100,4,2,1,0,0,0
13236,-200,4,2,1,0,0,0
14423,545.454545454545,4,2,1,21,1,0
18404,545.454545454545,4,2,1,21,1,0
21185,545.454545454545,4,2,1,21,1,0
21437,-200,4,2,1,0,0,0
22898,-100,4,2,1,21,0,0
23125,545.454545454545,4,2,1,21,1,0
23403,545.454545454545,4,2,1,21,1,0
24503,545.454545454545,4,2,1,21,1,0
26023,545.454545454545,4,2,1,21,1,0
26411,545.454545454545,4,2,1,21,1,0
26717,545.454545454545,4,2,1,21,1,0
31038,545.454545454545,4,2,1,21,1,0
31630,545.454545454545,4,2,1,21,1,0
32172,545.454545454545,4,2,1,21,1,0
33791,545.454545454545,4,2,1,21,1,0
35720,545.454545454545,4,2,1,21,1,0
36493,545.454545454545,4,2,1,21,1,0
37666,545.454545454545,4,2,1,21,1,0
38620,-100,4,2,1,12,0,0
38734,545.454545454545,4,2,1,12,1,0
40890,545.454545454545,4,2,1,33,1,0
54419,-100,4,2,1,0,0,0
57419,-100,4,2,1,29,0,0
65465,-100,4,2,1,0,0,0
65601,-100,4,2,1,16,0,0
65854,-100,4,2,1,15,0,0
66112,-100,4,2,1,29,0,0
105945,-200,4,2,1,44,0,0
107990,-100,4,2,1,22,0,0
109899,-100,4,2,1,0,0,0
110172,-100,4,2,1,27,0,0
128172,-100,4,2,1,0,0,0
129227,-100,4,2,1,64,0,0
156399,-100,4,2,1,40,0,0
160899,-100,4,2,1,25,0,0
167525,545.454545454545,4,2,1,25,1,0
168732,545.454545454545,4,2,1,25,1,0
172004,545.454545454545,4,2,1,25,1,0
176387,545.454545454545,4,2,1,25,1,0
185157,545.454545454545,4,2,1,25,1,0
189474,545.454545454545,4,2,1,25,1,0
194813,-200,4,2,1,25,0,0
196040,-200,4,2,1,0,0,0
200677,-100,4,2,1,4,0,0
201222,-100,4,2,1,9,0,0
201767,-100,4,2,1,15,0,0
202312,-100,4,2,1,13,0,0
209946,-100,4,2,1,21,0,0
211037,-100,4,2,1,34,0,0
212128,-100,4,2,1,49,0,0
212946,-100,4,2,1,20,0,0
213219,-100,4,2,1,0,0,0

[HitObjects]
184,128,5943,6,2,B|88:128|80:264|208:264,1,220,2|0
328,128,8116,2,2,B|424:128|432:264|304:264,1,220,2|0
256,192,10323,5,4
256,192,11409,1,2
256,192,12555,1,0
120,264,14695,6,2,B|144:312|176:344|248:360|344:344|376:312|392:256,1,330,2|0
392,120,16877,2,0,B|368:72|336:40|264:24|168:40|136:72|120:128,1,330,2|0
192,240,19085,6,2,B|200:272|256:296|256:296|312:264|336:240|368:200|344:112|288:120|256:176|256:176|208:120|176:176,1,440
256,192,23403,5,2
176,296,24503,5,2
256,352,25048,1,0
336,296,25593,1,2
336,88,26717,5,4
256,32,27262,1,0
176,88,27807,2,4,B|192:216|360:192,1,220,2|0
328,336,29989,5,4
184,336,31038,1,2
184,192,32172,5,4
328,192,33262,1,0
328,48,34336,5,0
184,48,35427,1,2
107,118,36493,6,2,B|99:174|147:238|211:238|267:182,1,220
405,266,38734,6,4,B|413:210|365:146|301:146|245:202,1,220,4|2
256,272,40370,5,0
256,352,40890,5,4
96,192,41980,5,2
256,32,43071,5,2
416,192,44162,5,2
368,320,45253,6,0,B|136:320,3,220,4|2|2|2
128,232,49071,5,2
192,160,49617,1,4
256,232,50162,1,2
320,160,50708,1,0
384,232,51253,1,2
448,176,51799,1,0
448,88,52344,1,2
368,48,52890,6,2,B|136:48,1,220,2|4
256,192,54526,12,0,57253
184,240,58344,6,0,B|74:240,1,110,4|0
72,152,59435,2,2,B|182:152,1,110,2|0
256,88,60526,2,2,B|288:192|256:320,1,220
328,144,62708,6,0,B|438:144,1,110,4|0
440,232,63799,2,0,B|330:232,1,110,2|0
256,296,64890,2,2,B|224:192|256:64,2,220,2|0|4
336,328,67617,5,2
424,360,68162,1,0
256,296,69253,5,0
176,328,69799,1,2
88,360,70344,1,0
80,164,71435,6,2,B|80:104|144:56|256:48|384:48|436:119|433:172,1,440
176,342,75253,6,2,B|176:232,1,110,2|8
256,232,76344,2,0,B|256:342,1,110,2|2
336,342,77435,2,0,B|336:232,1,110,2|8
304,144,78526,1,2
208,144,79071,1,0
154,66,79617,6,2,B|185:38|210:24|258:24|258:24|290:24|335:39|371:80,4,220
160,152,84526,6,0,B|96:184|96:224,2,82.5,0|2|2
352,152,86708,6,0,B|416:184|416:224,2,82.5,0|2|2
336,280,88344,5,0
256,320,88889,1,2
176,280,89435,1,0
256,240,89980,1,2
256,160,90526,1,0
256,192,91071,12,4,93253
168,104,94344,5,0
344,104,95435,5,0
344,280,96526,5,2
256,280,97071,1,0
168,280,97617,1,4
168,280,98708,5,0
344,280,99799,5,0
344,104,100889,5,2
256,104,101435,1,0
168,104,101980,6,0,B|120:152|168:216,1,110,4|0
232,152,103071,2,0,B|280:200|232:264,1,110,2|0
160,208,104162,2,0,B|112:256|160:320,1,110,4|0
240,256,105253,1,2
256,192,106071,12,0,109889
80,96,110708,6,0,B|136:128|192:96,1,110,0|8
200,184,111799,2,0,B|256:216|312:184,1,110,0|8
326,99,112889,2,0,B|376:128|432:96,2,110,0|8|0
424,248,115071,6,0,B|368:280|312:248,1,110,4|8
304,336,116162,2,0,B|248:368|192:336,1,110,0|8
177,251,117253,2,0,B|128:280|72:248,2,110,0|8|0
256,80,119435,5,4
344,80,119980,1,2
344,168,120526,1,0
256,168,121071,1,2
168,168,121617,1,0
168,256,122162,1,2
256,256,122708,1,0
256,192,123799,12,4,128162
