osu file format v6

[General]
AudioFilename: Imogen Heap - Between Sheets.mp3
AudioLeadIn: 0
PreviewTime: 71962
Countdown: 0
SampleSet: Soft
StackLeniency: 0.7
Mode: 0
LetterboxInBreaks: 1

[Editor]
Bookmarks: 56717,61081,109081
DistanceSpacing: 0.600000023841858
BeatDivisor: 3
GridSize: 8

[Metadata]
Title:Between Sheets
Artist:Imogen Heap
Creator:Agent Spin Here
Version:Safe
Source:
Tags:

[Difficulty]
HPDrainRate:7
CircleSize:4
OverallDifficulty:5
SliderMultiplier:1.4
SliderTickRate:1

[Events]
//Background and Video events
0,0,"sds.jpg"
//Break Periods
2,56889,59853
2,67798,72398
2,109253,112034
//Storyboard Layer 0 (Background)
//Storyboard Layer 1 (Fail)
//Storyboard Layer 2 (Pass)
//Storyboard Layer 3 (Foreground)
//Storyboard Sound Samples
//Background Colour Transformations
3,100,0,0,0

[TimingPoints]
26143.9452466874,545.454545454545,4,2,0,30,1,0
33626,-100,4,1,0,11,0,0
33990,-100,4,2,0,30,0,0
39081,-100,4,2,0,20,0,0
43444,-100,4,1,0,9,0,0
43808,-100,4,2,0,30,0,0
68353,-100,4,2,0,20,0,0
73717,-100,4,2,0,30,0,0
78353,-100,4,2,0,20,0,0
88808,-100,4,2,0,20,0,0
89899,-100,4,2,0,10,0,0
91171,-100,4,2,0,30,0,0
113053,-50,4,2,0,30,0,0

[Colours]
Combo1 : 255,193,100
Combo2 : 122,252,122
Combo3 : 103,103,252
Combo4 : 252,86,86

[HitObjects]
136,136,26143,6,0,B|176:48|328:48|368:136,1,280,2|0
376,248,27780,2,0,B|336:336|184:336|144:248,1,280,2|0
224,168,29416,6,0,B|264:112|296:168,1,93.3333333333333
312,208,29962,2,0,B|257:297|201:201,1,140,2|0
160,184,30689,5,0
128,168,30871,1,0
88,168,31053,1,2
40,256,31598,2,0,B|64:312|104:328|168:312,2,140,0|2|4
256,152,33780,5,4
416,312,34871,6,2,B|496:216|288:128|448:32,1,280,2|0
96,312,36507,2,2,B|16:216|224:128|64:32,1,280,2|0
152,40,37871,2,0,B|256:40|256:208,1,210
360,240,39234,6,0,B|400:248|424:296,1,46.6666666666667
416,296,39598,2,0,B|432:336|416:360,1,46.6666666666667,0|2
152,144,40325,6,0,B|112:136|88:88,1,46.6666666666667
96,88,40689,2,0,B|80:48|96:24,1,46.6666666666667,0|2
360,144,41416,6,0,B|400:136|424:88,1,46.6666666666667
416,88,41780,2,0,B|432:48|416:24,1,46.6666666666667,0|2
152,240,42507,6,0,B|112:248|88:296,1,46.6666666666667
96,296,42871,2,0,B|80:336|96:360,1,46.6666666666667,0|2
256,192,43598,5,4
216,64,44143,6,2,B|256:16|296:64,1,93.3333333333333,0|2
256,120,44871,1,2
256,192,45234,1,2
256,192,45416,1,0
184,240,45780,5,2
224,280,45962,1,0
280,280,46143,1,0
320,240,46325,2,2,B|376:168|440:192,2,93.3333333333333,2|2|0
48,40,48143,5,0
48,40,48325,1,0
48,40,48507,1,0
152,80,48871,2,2,B|48:160|248:240|104:360,1,280,2|0
72,352,50143,1,0
24,320,50325,1,2
24,264,50507,1,0
56,216,50689,2,2,B|96:136|168:160,1,93.3333333333333
176,152,51234,2,0,B|280:144|288:256,1,140
256,192,52871,12,4,56689
216,72,61053,6,0,B|168:64|120:96,1,93.3333333333333
96,136,61598,2,2,B|104:224|184:256|248:216|288:144|400:128|400:312|400:320,1,420,2|0
256,192,63416,12,4,67598
104,64,73598,5,2
104,64,73780,1,0
104,64,73962,1,0
104,64,74143,2,0,B|80:160|232:168|248:248|200:312,1,280,4|0
302,296,75780,2,0,B|264:248|280:168|432:160|408:64,1,280,4|0
320,40,77416,2,2,B|256:0|184:40,1,140,2|0
56,344,78507,6,0,B|56:280|136:264,1,93.3333333333333
160,272,79053,2,2,B|232:288|272:232,1,93.3333333333333,2|0
280,208,79598,2,0,B|296:136|248:88,1,93.3333333333333
216,96,80143,2,2,B|232:32|304:32,1,93.3333333333333,2|0
320,72,80689,2,0,B|360:112|432:104,1,93.3333333333333
456,120,81234,2,2,B|528:168|456:232|456:232|400:288|496:368,1,280
432,376,82507,1,0
376,360,82689,1,0
344,312,82871,6,4,B|248:216|400:112|280:16,1,280,4|0
168,312,84507,2,2,B|264:216|112:112|232:16,1,280,4|0
256,16,85962,2,2,B|256:160,1,140,2|0
40,344,87780,6,0,B|136:344,1,93.3333333333333,4|0
112,288,88325,2,0,B|208:288,1,93.3333333333333,0|0
184,232,88871,2,0,B|280:232,1,93.3333333333333,4|0
256,176,89416,2,0,B|352:176,1,93.3333333333333,0|0
328,120,89962,2,0,B|424:120,1,93.3333333333333,4|0
456,72,90507,2,2,B|512:112|496:216,1,140
80,344,92143,6,0,B|40:280|80:216,1,93.3333333333333
88,208,92689,2,2,B|128:152|200:224|312:280|352:232,1,280,2|0
424,152,94143,1,0
424,152,94325,2,2,B|408:96|360:72,1,93.3333333333333
104,64,95234,5,0
104,64,95416,1,10
104,64,95598,1,0
104,64,95780,2,0,B|80:160|136:200|192:200|216:200,1,186.666666666667
304,184,96871,1,0
360,184,97053,1,2
416,200,97234,1,0
456,232,97416,1,2
320,336,97962,5,0
320,336,98143,2,0,B|256:352|208:304,1,93.3333333333333
64,328,99053,2,2,B|40:248|72:168,1,140,2|4
368,40,100689,5,0
304,40,100871,1,2
264,88,101053,1,0
328,88,101234,1,4
256,192,101416,12,4,109053
88,336,113234,5,0
88,336,113416,2,2,B|8:232|80:48,1,280,8|2
424,336,114325,5,0
424,336,114507,2,2,B|504:232|432:48,1,280,8|2
88,336,115416,5,0
88,336,115598,2,2,B|8:232|80:48,1,280,8|2
120,40,116325,1,0
176,48,116507,1,0
208,96,116689,1,0
200,152,116871,1,2
184,208,117053,1,0
208,256,117234,1,4
264,272,117416,1,0
312,240,117598,1,0
256,192,117780,12,4,122143
256,192,122325,12,4,126507
