osu file format v12

[General]
AudioFilename: Immediate Music - Dark Side Of Power.mp3
AudioLeadIn: 1000
PreviewTime: 61701
Countdown: 1
SampleSet: Normal
StackLeniency: 0.7
Mode: 0
LetterboxInBreaks: 1

[Editor]
DistanceSpacing: 1
BeatDivisor: 4
GridSize: 4

[Metadata]
Title:Dark Side Of Power
TitleUnicode:Dark Side Of Power
Artist:Immediate Music
ArtistUnicode:Immediate Music
Creator:Hellzero
Version:Insane
Source:Shingeki no Kyojin
Tags:
BeatmapID:274402
BeatmapSetID:104325

[Difficulty]
HPDrainRate:6
CircleSize:4
OverallDifficulty:7
ApproachRate:8
SliderMultiplier:1.8
SliderTickRate:1

[Events]
//Background and Video events
0,0,"BG.jpg",0,0
//Break Periods
//Storyboard Layer 0 (Background)
//Storyboard Layer 1 (Fail)
//Storyboard Layer 2 (Pass)
//Storyboard Layer 3 (Foreground)
//Storyboard Sound Samples
//Background Colour Transformations
3,100,163,162,255

[TimingPoints]
925,379.746835443038,4,1,0,30,1,0
925,-142.857142857143,4,1,0,30,0,0
6906,-100,4,1,0,40,0,0
25133,-100,4,1,0,50,0,0
61606,-83.3333333333333,4,1,0,60,0,0
98062,-66.6666666666667,4,1,0,60,0,0
102697,-66.6666666666667,4,1,0,30,0,0
104216,-66.6666666666667,4,1,0,20,0,0
105735,-66.6666666666667,4,1,0,10,0,0
107254,-66.6666666666667,4,1,0,5,0,0

[HitObjects]
196,284,925,2,0,P|256:304|316:284,1,125.999996154785,4|0,0:0|0:0,0:0:0:0:
360,168,1684,1,2,0:0:0:0:
316,124,1874,1,0,0:0:0:0:
256,104,2064,1,0,0:0:0:0:
196,124,2254,1,0,0:0:0:0:
152,168,2443,1,2,0:0:0:0:
256,240,2823,1,2,0:0:0:0:
256,104,3203,5,2,0:0:0:0:
316,124,3393,1,0,0:0:0:0:
196,124,3583,1,0,0:0:0:0:
360,168,3773,1,0,0:0:0:0:
152,168,3962,1,2,0:0:0:0:
256,316,4342,1,2,0:0:0:0:
410,265,4722,5,2,0:0:0:0:
472,192,4912,1,0,0:0:0:0:
410,118,5102,1,0,0:0:0:0:
348,192,5292,1,0,0:0:0:0:
256,53,5481,6,0,L|256:116,1,62.9999980773926,2|0,0:0|0:0,0:0:0:0:
116,115,5861,2,0,L|152:168,1,62.9999980773926,2|0,0:0|0:0,0:0:0:0:
44,240,6241,2,0,L|101:265,1,62.9999980773926,2|0,0:0|0:0,0:0:0:0:
172,332,6621,1,2,0:0:0:0:
256,288,6811,1,0,0:0:0:0:
340,332,7000,6,0,P|424:312|440:228,1,180,4|2,0:0|0:0,0:0:0:0:
360,192,7570,1,0,0:0:0:0:
304,120,7760,2,0,P|320:76|352:44,1,90,2|0,0:0|0:0,0:0:0:0:
208,120,8140,2,0,P|192:76|160:44,1,90,0|0,0:0|0:0,0:0:0:0:
56,264,8519,6,0,P|56:172|124:128,1,180,0|2,0:0|0:0,0:0:0:0:
132,220,9089,1,0,0:0:0:0:
204,272,9279,1,2,0:0:0:0:
256,348,9469,1,0,0:0:0:0:
308,272,9659,1,0,0:0:0:0:
380,220,9849,1,0,0:0:0:0:
336,104,10038,6,0,P|256:140|176:104,2,180,2|2|2,0:0|0:0|0:0,0:0:0:0:
256,52,10988,1,0,0:0:0:0:
256,144,11178,2,0,L|256:256,1,90
164,320,11557,6,0,P|118:315|84:288,1,90,2|0,0:0|0:0,0:0:0:0:
88,164,11937,2,0,P|134:169|168:196,1,90,2|0,0:0|0:0,0:0:0:0:
256,260,12317,1,2,0:0:0:0:
364,260,12507,2,0,L|476:260,2,90,0|2|0,0:0|0:0|0:0,0:0:0:0:
312,144,13076,6,0,P|224:136|195:58,1,180,4|2,0:0|0:0,0:0:0:0:
284,56,13646,1,0,0:0:0:0:
372,76,13836,1,2,0:0:0:0:
400,160,14026,1,0,0:0:0:0:
400,160,14216,2,0,L|484:228,1,90,2|0,0:0|0:0,0:0:0:0:
396,304,14595,6,0,L|296:336,1,90,0|0,0:0|0:0,0:0:0:0:
116,304,14975,2,0,L|216:336,1,90,0|0,0:0|0:0,0:0:0:0:
256,260,15355,1,2,0:0:0:0:
256,260,15545,1,0,0:0:0:0:
256,168,15735,2,0,L|256:64,1,90,2|0,0:0|0:0,0:0:0:0:
180,120,16114,5,2,1:0:0:0:
126,193,16304,1,0,0:0:0:0:
41,165,16494,1,0,0:0:0:0:
41,74,16684,1,0,0:0:0:0:
126,46,16874,2,0,P|168:28|216:36,1,90,2|0,0:0|0:0,0:0:0:0:
368,71,17254,2,0,P|326:89|284:84,1,90,2|0,0:0|0:0,0:0:0:0:
368,72,17633,5,0,0:0:0:0:
453,100,17823,1,0,0:0:0:0:
453,191,18013,1,2,0:0:0:0:
368,219,18203,1,0,0:0:0:0:
314,146,18393,2,0,P|266:142|226:154,1,90,2|0,0:0|0:0,0:0:0:0:
168,276,18773,2,0,P|216:280|256:268,1,90,2|0,0:0|0:0,0:0:0:0:
148,192,19152,5,4,0:0:0:0:
56,203,19342,1,0,0:0:0:0:
24,286,19532,1,2,0:0:0:0:
80,358,19722,1,0,0:0:0:0:
169,345,19912,2,0,P|212:344|257:327,1,90,2|0,0:0|0:0,0:0:0:0:
348,224,20292,2,0,P|393:228|432:247,1,90,2|0,0:0|0:0,0:0:0:0:
352,312,20671,5,0,0:0:0:0:
266,272,20861,1,0,0:0:0:0:
262,183,21051,1,2,0:0:0:0:
337,132,21241,1,0,0:0:0:0:
420,164,21431,2,0,P|425:115|408:76,1,90,2|0,0:0|0:0,0:0:0:0:
260,88,21811,2,0,P|212:99|182:130,1,90,2|0,0:0|0:0,0:0:0:0:
112,208,22190,5,0,1:0:0:0:
150,289,22380,1,0,1:0:0:0:
59,281,22570,1,2,1:0:0:0:
120,182,22760,5,0,1:0:0:0:
166,309,22950,1,2,1:0:0:0:
33,285,23140,1,0,1:0:0:0:
212,220,23330,2,0,P|257:221|296:244,1,90,2|0,0:0|0:0,0:0:0:0:
444,228,23709,5,2,0:0:0:0:
468,226,23899,1,0,0:0:0:0:
364,328,24089,1,2,0:0:0:0:
338,328,24279,1,0,0:0:0:0:
315,202,24469,5,2,0:0:0:0:
348,205,24659,1,2,0:0:0:0:
487,336,24849,1,2,0:0:0:0:
452,336,25038,1,2,0:0:0:0:
256,288,25228,6,0,P|168:304|124:232,1,180,4|0,0:0|0:0,0:0:0:0:
320,44,25988,2,0,B|256:128|256:128|172:128,1,180,10|0,0:0|0:0,0:0:0:0:
122,44,26557,2,0,L|212:44,1,90
444,192,27127,2,0,L|344:276,1,90
332,332,27507,2,0,B|404:348|404:348|485:281,1,180,10|0,0:0|0:0,0:0:0:0:
336,96,28266,6,0,P|256:60|176:96,1,180
176,288,29026,2,0,P|256:324|336:288,1,180,10|0,0:0|0:0,0:0:0:0:
88,168,29785,5,2,0:0:0:0:
168,128,29975,1,0,0:0:0:0:
256,152,30165,1,2,0:0:0:0:
344,128,30355,1,0,0:0:0:0:
424,168,30545,1,2,0:0:0:0:
256,316,30925,1,2,0:0:0:0:
468,320,31304,6,0,P|424:320|380:300,1,90,4|0,0:0|0:0,0:0:0:0:
384,212,31684,2,0,P|342:193|298:193,1,90
65,249,32064,2,0,P|156:280|220:236,1,180,10|0,0:0|0:0,0:0:0:0:
408,52,32823,6,0,P|344:64|308:104,1,90
256,136,33203,2,0,P|237:150|173:162,1,90
173,295,33583,2,0,P|96:280|88:192,1,180,10|0,0:0|0:0,0:0:0:0:
468,228,34342,5,0,0:0:0:0:
408,296,34532,1,0,0:0:0:0:
324,260,34722,2,0,L|256:320,1,90
256,121,35102,2,0,B|256:208|256:208|184:268,1,180,10|0,0:0|0:0,0:0:0:0:
92,148,35861,5,0,0:0:0:0:
160,88,36051,1,0,0:0:0:0:
92,236,36241,2,0,L|28:316,1,90,0|0,0:0|0:0,0:0:0:0:
160,296,36621,5,2,0:0:0:0:
312,336,36811,1,0,0:0:0:0:
200,336,37000,1,2,0:0:0:0:
352,296,37190,1,0,0:0:0:0:
208,220,37380,6,0,P|187:175|160:144,1,90,4|0,0:0|0:0,0:0:0:0:
204,64,37760,2,0,L|168:36,2,45,8|0|0,0:0|0:0|0:0,0:0:0:0:
304,220,38140,2,0,P|324:175|352:144,1,90
308,64,38519,2,0,L|344:36,2,45,8|0|0,0:0|0:0|0:0,0:0:0:0:
464,192,38899,6,0,L|416:272,1,90
316,316,39279,2,0,L|368:348,2,45,8|0|0,0:0|0:0|0:0,0:0:0:0:
256,248,39659,2,0,L|209:170,1,90
120,192,40038,2,0,L|81:215,2,45,8|0|0,0:0|0:0|0:0,0:0:0:0:
136,104,40418,5,0,0:0:0:0:
136,104,40608,1,0,0:0:0:0:
256,72,40798,2,0,L|256:20,2,45,8|0|0,0:0|0:0|0:0,0:0:0:0:
376,104,41178,1,0,0:0:0:0:
376,104,41368,1,0,0:0:0:0:
444,192,41557,2,0,L|492:192,2,45,8|0|0,0:0|0:0|0:0,0:0:0:0:
396,288,41937,6,0,P|348:304|316:332,1,90,2|0,0:0|0:0,0:0:0:0:
193,329,42317,2,0,P|164:304|116:288,1,90,8|0,0:0|0:0,0:0:0:0:
140,192,42697,1,2,0:0:0:0:
212,244,42887,1,0,0:0:0:0:
300,244,43076,1,10,0:0:0:0:
372,192,43266,1,0,0:0:0:0:
452,148,43456,6,0,L|452:56,1,90,4|0,0:0|0:0,0:0:0:0:
364,36,43836,2,0,L|364:88,2,45,8|0|0,0:0|0:0|0:0,0:0:0:0:
276,60,44216,2,0,L|276:152,1,90,0|0,0:0|0:0,0:0:0:0:
192,180,44595,2,0,L|192:232,2,45,8|0|0,0:0|0:0|0:0,0:0:0:0:
44,192,44975,6,0,L|112:272,1,90
188,332,45355,1,8,0:0:0:0:
188,332,45450,1,0,0:0:0:0:
188,332,45545,1,0,0:0:0:0:
256,272,45735,1,0,0:0:0:0:
324,332,45925,1,0,0:0:0:0:
409,260,46114,2,0,L|440:228,2,45,8|0|0,0:0|0:0|0:0,0:0:0:0:
348,192,46494,6,0,B|348:144|348:144|336:104,1,90,0|0,0:0|0:0,0:0:0:0:
256,148,46874,2,0,L|256:212,2,45,8|0|0,0:0|0:0|0:0,0:0:0:0:
176,104,47254,2,0,B|164:144|164:144|164:192,1,90
216,284,47633,1,8,0:0:0:0:
256,308,47728,1,0,0:0:0:0:
296,284,47823,1,0,0:0:0:0:
396,332,48013,6,0,L|432:248,1,90,2|0,0:0|0:0,0:0:0:0:
431,134,48393,2,0,L|396:52,1,90,8|0,0:0|0:0,0:0:0:0:
316,96,48773,1,10,0:0:0:0:
292,132,48868,1,0,0:0:0:0:
248,140,48962,1,0,0:0:0:0:
316,288,49152,1,10,0:0:0:0:
292,252,49247,1,0,0:0:0:0:
248,244,49342,1,0,0:0:0:0:
176,192,49532,6,0,L|72:192,1,90,4|0,0:0|0:0,0:0:0:0:
44,112,49912,1,8,0:0:0:0:
88,100,50007,1,0,0:0:0:0:
120,68,50102,1,0,0:0:0:0:
204,40,50292,2,0,B|240:72|240:72|281:78,1,90
352,136,50671,2,0,L|400:108,2,45,8|0|0,0:0|0:0|0:0,0:0:0:0:
472,192,51051,6,0,L|384:244,1,90
304,224,51431,1,8,0:0:0:0:
268,248,51526,1,0,0:0:0:0:
256,292,51621,1,0,0:0:0:0:
180,340,51811,2,0,L|112:280,1,90
64,190,52190,2,0,L|40:228,2,45,8|0|0,0:0|0:0|0:0,0:0:0:0:
148,156,52570,5,0,0:0:0:0:
176,68,52760,1,0,0:0:0:0:
256,112,52950,1,8,0:0:0:0:
256,112,53045,1,0,0:0:0:0:
256,112,53140,1,0,0:0:0:0:
336,68,53330,1,0,0:0:0:0:
364,156,53519,1,0,0:0:0:0:
320,232,53709,2,0,L|368:264,2,45,8|0|0,0:0|0:0|0:0,0:0:0:0:
256,296,54089,6,0,B|208:296|208:296|168:308,1,90,2|0,0:0|0:0,0:0:0:0:
36,240,54469,2,0,B|84:240|84:240|124:228,1,90,8|0,0:0|0:0,0:0:0:0:
148,140,54849,1,2,0:0:0:0:
208,72,55038,1,0,0:0:0:0:
304,72,55228,1,10,0:0:0:0:
364,140,55418,1,0,0:0:0:0:
464,192,55608,6,0,L|424:296,1,90,4|0,0:0|0:0,0:0:0:0:
348,244,55988,1,8,0:0:0:0:
312,220,56083,1,0,0:0:0:0:
268,216,56178,1,0,0:0:0:0:
256,304,56368,2,0,P|208:288|184:252,1,90
184,168,56747,1,8,0:0:0:0:
220,140,56842,1,0,0:0:0:0:
228,96,56937,1,0,0:0:0:0:
136,92,57127,6,0,L|36:108,1,90
96,192,57507,2,0,L|32:192,2,45,8|0|0,0:0|0:0|0:0,0:0:0:0:
47,277,57887,2,0,L|136:292,1,90
212,244,58266,1,8,0:0:0:0:
256,232,58361,1,0,0:0:0:0:
300,244,58456,1,0,0:0:0:0:
348,320,58646,6,0,P|396:300|420:272,1,90
464,192,59026,1,8,0:0:0:0:
464,192,59121,1,0,0:0:0:0:
464,192,59216,1,0,0:0:0:0:
420,112,59406,2,0,P|396:84|348:64,1,90
352,152,59785,1,8,0:0:0:0:
372,192,59880,1,0,0:0:0:0:
352,232,59975,1,0,0:0:0:0:
308,312,60165,5,8,0:0:0:0:
218,333,60355,1,8,0:0:0:0:
137,294,60545,1,8,0:0:0:0:
100,209,60735,1,0,0:0:0:0:
125,122,60925,1,8,0:0:0:0:
201,72,61114,1,8,0:0:0:0:
290,82,61304,1,8,0:0:0:0:
354,147,61494,1,8,0:0:0:0:
432,192,61684,6,0,P|444:248|480:288,1,107.999996704102,4|0,0:0|0:0,0:0:0:0:
388,352,62064,1,8,0:0:0:0:
296,292,62254,1,0,0:0:0:0:
196,256,62443,6,0,B|140:256|140:256|88:280,1,107.999996704102,2|0,0:0|0:0,0:0:0:0:
92,106,62823,2,0,B|140:128|140:128|196:128,1,107.999996704102,10|0,0:0|0:0,0:0:0:0:
300,96,63203,1,0,0:0:0:0:
352,192,63393,1,0,0:0:0:0:
300,288,63583,1,8,0:0:0:0:
300,288,63678,1,0,0:0:0:0:
300,288,63773,1,0,0:0:0:0:
352,192,63962,6,0,L|480:192,1,107.999996704102,2|0,0:0|0:0,0:0:0:0:
160,192,64342,2,0,L|32:192,1,107.999996704102,10|0,0:0|0:0,0:0:0:0:
20,296,64722,1,0,0:0:0:0:
112,352,64912,1,0,0:0:0:0:
200,288,65102,1,8,0:0:0:0:
200,288,65197,1,0,0:0:0:0:
200,288,65292,1,0,0:0:0:0:
296,244,65481,6,0,P|320:284|380:296,1,107.999996704102,2|0,0:0|0:0,0:0:0:0:
412,136,65861,2,0,P|388:96|328:84,1,107.999996704102,10|0,0:0|0:0,0:0:0:0:
168,71,66241,5,2,0:0:0:0:
236,188,66431,1,2,0:0:0:0:
150,87,66621,1,10,0:0:0:0:
253,173,66811,1,0,0:0:0:0:
139,107,67000,1,2,0:0:0:0:
265,153,67190,1,2,0:0:0:0:
135,129,67380,1,10,0:0:0:0:
268,129,67570,1,0,0:0:0:0:
144,224,67760,6,0,P|92:248|60:292,1,107.999996704102,4|0,0:0|0:0,0:0:0:0:
164,320,68140,1,8,0:0:0:0:
256,264,68330,1,0,0:0:0:0:
348,320,68519,2,0,B|368:268|368:268|420:252,1,107.999996704102,2|0,0:0|0:0,0:0:0:0:
417,131,68899,2,0,B|368:116|368:116|348:64,1,107.999996704102,10|0,0:0|0:0,0:0:0:0:
256,124,69279,5,0,0:0:0:0:
160,72,69469,1,0,0:0:0:0:
80,144,69659,1,8,0:0:0:0:
176,196,69849,1,0,0:0:0:0:
256,268,70038,2,0,P|312:280|360:268,1,107.999996704102,2|0,0:0|0:0,0:0:0:0:
360,124,70418,2,0,P|312:112|256:124,1,107.999996704102,10|0,0:0|0:0,0:0:0:0:
176,196,70798,5,0,0:0:0:0:
96,272,70988,1,0,0:0:0:0:
20,192,71178,1,8,0:0:0:0:
20,192,71273,1,0,0:0:0:0:
20,192,71368,1,0,0:0:0:0:
88,108,71557,2,0,L|184:48,1,107.999996704102,2|0,0:0|0:0,0:0:0:0:
332,50,71937,2,0,L|424:108,1,107.999996704102,10|0,0:0|0:0,0:0:0:0:
400,252,72317,6,0,L|324:168,1,107.999996704102,2|0,0:0|0:0,0:0:0:0:
112,252,72697,2,0,L|184:171,1,107.999996704102,10|0,0:0|0:0,0:0:0:0:
197,333,73076,5,8,0:0:0:0:
314,333,73266,1,8,0:0:0:0:
178,314,73456,1,8,0:0:0:0:
333,314,73646,1,8,0:0:0:0:
256,192,73836,6,0,B|256:136|256:136|284:88,1,107.999996704102,4|0,0:0|0:0,0:0:0:0:
448,192,74216,2,0,B|448:248|448:248|420:296,1,107.999996704102,8|0,0:0|0:0,0:0:0:0:
256,192,74595,2,0,B|256:136|256:136|228:88,1,107.999996704102,2|0,0:0|0:0,0:0:0:0:
64,192,74975,2,0,B|64:248|64:248|92:296,1,107.999996704102,10|0,0:0|0:0,0:0:0:0:
200,288,75355,5,0,0:0:0:0:
292,344,75545,1,0,0:0:0:0:
392,300,75735,2,0,L|464:280,2,53.9999983520508,8|0|0,0:0|0:0|0:0,0:0:0:0:
372,192,76114,2,0,P|344:140|344:92,1,107.999996704102,2|0,0:0|0:0,0:0:0:0:
168,92,76494,2,0,P|168:140|140:192,1,107.999996704102,10|0,0:0|0:0,0:0:0:0:
56,260,76874,5,0,0:0:0:0:
152,308,77064,1,0,0:0:0:0:
256,276,77254,2,0,L|256:212,2,53.9999983520508,8|0|0,0:0|0:0|0:0,0:0:0:0:
348,336,77633,2,0,L|424:256,1,107.999996704102,2|0,0:0|0:0,0:0:0:0:
422,83,78013,2,0,L|347:161,1,107.999996704102,10|0,0:0|0:0,0:0:0:0:
256,104,78393,5,2,0:0:0:0:
256,104,78583,2,0,P|196:108|156:140,1,107.999996704102,0|8,0:0|0:0,0:0:0:0:
68,192,78962,1,0,0:0:0:0:
68,192,79152,2,0,P|80:248|68:296,1,107.999996704102,2|0,1:0|0:0,0:0:0:0:
160,356,79532,1,10,0:0:0:0:
200,336,79627,1,0,0:0:0:0:
224,300,79722,1,0,0:0:0:0:
308,232,79912,6,0,B|352:264|352:264|416:264,1,107.999996704102,4|0,0:0|0:0,0:0:0:0:
488,192,80292,1,8,0:0:0:0:
488,192,80481,1,0,0:0:0:0:
405,120,80671,2,0,B|352:120|352:120|308:152,1,107.999996704102,2|0,0:0|0:0,0:0:0:0:
106,120,81051,2,0,B|160:120|160:120|204:152,1,107.999996704102,10|0,0:0|0:0,0:0:0:0:
128,228,81431,5,0,0:0:0:0:
192,316,81621,1,0,0:0:0:0:
256,228,81811,1,8,0:0:0:0:
320,316,82000,1,0,0:0:0:0:
384,228,82190,2,0,P|448:208|464:168,1,107.999996704102,2|0,0:0|0:0,0:0:0:0:
336,48,82570,2,0,P|272:68|256:108,1,107.999996704102,10|0,0:0|0:0,0:0:0:0:
176,336,82950,6,0,P|240:316|256:276,1,107.999996704102
160,232,83330,1,8,0:0:0:0:
60,192,83519,1,0,0:0:0:0:
124,104,83709,2,0,L|216:32,1,107.999996704102,2|0,0:0|0:0,0:0:0:0:
388,104,84089,2,0,L|296:32,1,107.999996704102,10|0,0:0|0:0,0:0:0:0:
256,136,84469,5,2,0:0:0:0:
332,212,84659,1,0,0:0:0:0:
255,288,84849,1,10,0:0:0:0:
178,211,85038,1,0,0:0:0:0:
256,98,85228,5,8,0:0:0:0:
256,208,85418,1,8,0:0:0:0:
256,316,85608,2,0,L|256:370,2,53.9999983520508,8|0|0,0:0|0:0|0:0,0:0:0:0:
148,304,85988,6,0,P|96:304|56:268,1,107.999996704102,4|0,0:0|0:0,0:0:0:0:
52,160,86368,1,8,0:0:0:0:
104,144,86462,1,0,0:0:0:0:
132,100,86557,1,0,0:0:0:0:
256,98,86747,1,2,0:0:0:0:
256,98,86937,1,0,0:0:0:0:
380,100,87127,1,10,0:0:0:0:
408,144,87222,1,0,0:0:0:0:
460,160,87317,1,0,0:0:0:0:
396,248,87507,6,0,P|344:272|296:264,1,107.999996704102
216,192,87887,1,8,0:0:0:0:
164,200,87981,1,0,0:0:0:0:
132,244,88076,1,0,0:0:0:0:
36,192,88266,2,0,P|36:134|63:94,1,107.999996704102,2|0,0:0|0:0,0:0:0:0:
172,100,88646,1,10,0:0:0:0:
224,88,88741,1,0,0:0:0:0:
256,44,88836,1,0,0:0:0:0:
340,112,89026,5,4,0:0:0:0:
460,64,89216,1,0,0:0:0:0:
440,192,89406,1,8,0:0:0:0:
440,192,89500,1,0,0:0:0:0:
440,192,89595,1,0,0:0:0:0:
460,320,89785,1,2,0:0:0:0:
340,272,89975,1,0,0:0:0:0:
240,192,90165,1,10,0:0:0:0:
184,192,90260,1,0,0:0:0:0:
128,192,90355,1,0,0:0:0:0:
52,268,90545,6,0,B|100:292|100:292|168:292,1,107.999996704102,2|0,0:0|0:0,0:0:0:0:
154,92,90925,2,0,B|100:92|100:92|52:116,1,107.999996704102,10|0,0:0|0:0,0:0:0:0:
154,292,91304,2,0,L|284:292,1,107.999996704102,2|0,0:0|0:0,0:0:0:0:
262,92,91684,2,0,L|154:92,1,107.999996704102,10|0,0:0|0:0,0:0:0:0:
256,192,92064,5,4,0:0:0:0:
345,131,92254,1,0,0:0:0:0:
430,198,92443,1,8,0:0:0:0:
393,299,92633,1,0,0:0:0:0:
285,295,92823,2,0,P|244:328|188:336,1,107.999996704102,2|0,0:0|0:0,0:0:0:0:
28,256,93203,2,0,P|69:223|125:215,1,107.999996704102,10|0,0:0|0:0,0:0:0:0:
224,180,93583,5,0,0:0:0:0:
122,215,93773,1,0,0:0:0:0:
57,129,93962,1,8,0:0:0:0:
119,41,94152,1,0,0:0:0:0:
222,73,94342,2,0,P|270:51|326:58,1,107.999996704102,2|0,0:0|0:0,0:0:0:0:
476,224,94722,2,0,P|427:245|371:238,1,107.999996704102,10|0,0:0|0:0,0:0:0:0:
340,137,95102,5,4,0:0:0:0:
375,239,95292,1,0,0:0:0:0:
289,304,95481,1,8,0:0:0:0:
201,242,95671,1,0,0:0:0:0:
233,139,95861,2,0,P|211:90|218:34,1,107.999996704102,2|0,0:0|0:0,0:0:0:0:
376,240,96241,2,0,P|397:288|391:341,1,107.999996704102,14|0,0:0|0:0,0:0:0:0:
196,304,96621,5,8,0:0:0:0:
316,304,96811,1,8,0:0:0:0:
120,341,97000,2,0,P|114:288|136:240,1,107.999996704102,8|0,0:0|0:0,0:0:0:0:
168,145,97380,1,8,0:0:0:0:
200,41,97570,1,8,0:0:0:0:
308,40,97760,1,8,0:0:0:0:
343,142,97950,1,8,0:0:0:0:
360,272,98140,6,0,P|256:344|152:272,1,270.000010299683,4|4,0:0|0:0,0:0:0:0:
464,192,98899,1,0,0:0:0:0:
360,192,99089,1,0,0:0:0:0:
256,236,99279,1,0,0:0:0:0:
156,192,99469,1,0,0:0:0:0:
48,128,99659,6,0,P|152:56|256:128,1,270.000010299683,4|4,0:0|0:0,0:0:0:0:
424,328,100418,1,0,0:0:0:0:
344,256,100608,1,0,0:0:0:0:
256,316,100798,1,0,0:0:0:0:
168,256,100988,1,0,0:0:0:0:
88,328,101178,1,0,0:0:0:0:
256,192,101273,12,0,107254,0:0:0:0:
