osu file format v6

[General]
AudioFilename: 2-flamingice.mp3
AudioLeadIn: 0
PreviewTime: 47958
Countdown: 1
SampleSet: Normal
StackLeniency: 0.7
Mode: 0
LetterboxInBreaks: 1
SkinPreference:Default

[Editor]
DistanceSpacing: 0.819999992847443
BeatDivisor: 4
GridSize: 8

[Metadata]
Title:Flaming Ice
Artist:Imai Yuka
Creator:Ekaru
Version:Hard
Source:Digimon Tamers
Tags:image character cd song songs Renamon

[Difficulty]
HPDrainRate:3
CircleSize:5
OverallDifficulty:6
SliderMultiplier:1.8
SliderTickRate:2

[Events]
//Background and Video events
0,0,"renamon_is_sexy.jpg"
//Break Periods
2,67607,81254
2,127814,143736
2,157400,159047
//Storyboard Layer 0 (Background)
//Storyboard Layer 1 (Fail)
//Storyboard Layer 2 (Pass)
//Storyboard Layer 3 (Foreground)
//Storyboard Sound Samples
//Background Colour Transformations
3,100,163,162,255

[TimingPoints]
6580,413.793103448276,4,1,0,50,1,0
49614,-100,4,1,0,50,0,1
67407,-100,4,1,0,50,0,0
109200,-100,4,1,0,50,0,1
127821,-100,4,1,0,50,0,0
160511,-100,4,1,0,50,0,1
182235,-100,4,1,0,50,0,0

[Colours]
Combo1 : 247,235,9
Combo2 : 255,255,255
Combo3 : 215,116,239
SliderBorder : 0,0,0

[HitObjects]
0,352,22717,1,0
32,288,22924,1,8
104,288,23131,1,0
136,224,23338,1,8
208,224,23545,1,0
248,160,23752,1,8
320,160,23959,1,0
352,96,24166,1,8
424,96,24373,1,0
464,32,24579,1,0
504,96,24786,1,0
464,160,24993,1,0
464,160,25097,1,2
424,224,25304,1,2
424,224,25407,1,0
256,32,26028,5,0
256,104,26235,1,8
256,352,26648,1,0
256,280,26855,1,0
256,208,27062,1,2
32,192,27683,1,0
104,192,27890,1,8
424,192,28304,1,0
352,192,28511,1,0
280,192,28717,1,2
512,352,29338,5,0
480,288,29545,1,8
408,288,29752,1,0
376,224,29959,1,8
304,224,30166,1,0
264,160,30373,1,8
192,160,30579,1,0
160,96,30786,1,8
88,96,30993,1,0
48,32,31200,1,0
8,96,31407,1,0
48,160,31614,1,0
48,160,31717,1,2
88,224,31924,1,2
88,224,32028,1,0
256,368,32648,5,0
256,368,32855,1,0
256,224,33269,1,0
256,224,33476,1,0
256,224,33683,1,0
184,96,34097,1,0
256,72,34304,1,0
328,96,34511,2,2,B|392:104|448:144|464:184|472:216,1,180
488,272,35131,1,2
352,328,35545,5,0
280,320,35752,1,0
216,280,35959,1,0
176,216,36166,2,8,B|128:216|88:200|56:144|80:88,2,180,8|2|8
240,88,37407,5,0
304,40,37614,1,2
368,88,37821,1,2
264,368,38442,1,0
352,368,38648,1,0
432,192,39062,1,0
360,192,39269,1,8
288,192,39476,1,8
216,192,39683,2,2,B|16:192,2,180,2|8|2
256,48,40924,5,0
256,120,41131,1,8
296,368,41752,1,0
216,368,41959,1,8
80,200,42373,1,0
128,144,42580,1,0
176,200,42786,1,0
128,256,42993,2,0,B|96:296|32:288|-8:240|8:184,1,180
16,128,43614,1,0
40,56,43821,1,0
185,56,44235,6,4,B|312:16|345:160,1,180
352,344,45269,5,0
440,224,45683,1,0
480,160,45890,1,0
440,96,46097,2,0,B|384:48|296:24|224:40|136:72|88:112|88:208|96:264|128:320|192:344|256:336,1,630
368,256,47959,5,8
240,184,48373,1,8
312,312,48786,1,8
152,328,49200,5,0
80,320,49407,1,0
56,248,49614,2,0,B|64:200|136:152|184:160,1,135
261,161,50235,1,2
312,216,50442,1,2
426,205,50855,5,0
459,269,51062,1,0
411,329,51269,2,0,B|367:348|287:314|268:269,1,135
227,203,51890,1,2
245,131,52097,1,2
80,256,52511,6,0,B|88:320|120:360|176:368|240:344,1,180
216,280,53131,1,0
160,232,53338,1,0
104,184,53545,1,0
80,112,53752,1,0
120,48,53959,1,0
192,48,54166,1,0
256,88,54373,2,0,B|343:39|447:96,1,180
429,159,54993,2,6,B|341:207|237:151,1,180
126,271,55821,5,0
204,253,56028,1,0
151,199,56235,2,0,B|116:51,1,135
226,43,56855,1,8
298,27,57062,1,8
407,180,57476,5,0
329,160,57683,1,0
353,232,57890,2,0,B|316:380,1,135
213,337,58511,1,8
142,319,58717,1,8
48,232,59131,5,0
64,160,59338,1,0
128,192,59545,2,0,B|144:144|200:128|256:144|272:208,1,180
197,226,60166,1,0
128,256,60373,2,8,B|144:304|200:320|264:312|275:232,2,180
480,80,62235,6,0,B|448:32|400:16|352:24|288:72,1,180
360,112,62855,1,0
392,176,63062,1,0
400,248,63269,1,0
352,304,63476,1,0
288,336,63683,1,0
224,304,63890,1,0
192,240,64097,1,8
192,240,64200,1,2
192,240,64304,1,8
320,176,64717,5,0
336,104,64924,1,0
288,48,65131,1,0
216,48,65338,1,0
168,104,65545,1,0
192,176,65752,1,0
256,208,65959,2,0,B|272:280|248:328|184:352|136:336,1,180
176,264,66580,2,4,B|120:240|80:264|64:320|96:360|112:360,2,180
400,352,82304,6,0,B|304:296|360:168,1,180
416,144,82924,1,2
376,80,83131,1,0
312,48,83338,1,8
240,48,83545,1,0
176,88,83752,1,2
128,144,83959,1,0
56,120,84166,1,8
16,184,84373,1,0
56,248,84580,1,0
56,248,84683,1,8
128,248,84890,1,8
128,248,84993,1,0
424,312,85614,5,0
424,240,85821,1,8
280,56,86235,1,0
224,104,86442,1,0
168,56,86648,1,2
104,352,87062,1,0
32,336,87269,1,8
80,280,87476,2,0,B|64:224|96:160|160:160|216:168,1,180
252,164,88097,1,6
325,164,88304,1,6
208,352,88924,6,0,B|304:320,1,90
392,240,89338,2,0,B|272:216,1,90
200,152,89752,2,0,B|296:96,1,90
360,32,90166,2,0,B|456:80,1,90
496,168,90580,5,0
496,240,90786,1,0
496,312,90993,1,0
432,352,91200,1,0
432,352,91304,1,2
360,352,91511,1,2
360,352,91614,1,0
256,280,92235,5,0
256,208,92442,1,8
376,48,92855,1,0
376,120,93062,1,0
376,192,93269,1,2
136,192,93683,1,0
136,120,93890,1,0
136,48,94097,2,2,B|200:40|248:64|264:112|272:160,1,180
268,213,94717,1,6
160,312,95131,5,0
216,360,95338,1,0
288,360,95545,1,0
344,312,95752,2,2,B|528:312,2,180,2|8|2
296,176,96993,5,0
280,104,97200,1,0
240,40,97407,2,0,B|176:32|144:72|128:112|152:168,1,180
184,216,98028,1,0
256,240,98235,2,0,B|312:280|304:336|272:368|192:368,1,180
152,336,98855,1,0
144,264,99062,1,0
88,216,99269,2,2,B|32:184|16:136|16:72|40:48,2,180,2|8|2
288,40,100511,5,0
352,80,100717,2,0,B|368:128|352:184|312:216|256:224,1,180
232,280,101338,1,0
256,352,101545,2,0,B|312:344|368:312|392:272|400:240,1,180
424,184,102166,1,0
440,112,102373,1,0
424,40,102580,2,0,B|336:0|232:48,1,180
246,115,103200,1,0
246,188,103407,2,0,B|152:224|54:180,1,180,0|4
160,72,104235,5,4
256,208,104855,12,4,107545
352,72,108786,5,0
288,104,108993,1,0
344,144,109200,1,0
408,232,109511,2,8,B|432:288|416:336|336:344,1,135
296,360,110028,1,2
160,72,110442,5,0
224,104,110648,1,0
168,144,110855,1,0
104,232,111166,2,8,B|80:288|96:336|176:344,1,135
216,360,111683,1,2
344,280,112097,6,0,B|152:280,1,180
184,208,112717,1,0
256,208,112924,1,0
328,208,113131,1,0
288,144,113338,1,0
216,144,113545,1,0
144,144,113752,1,0
104,80,113959,2,0,B|288:80,1,180
360,80,114580,2,4,B|416:64|480:88|504:152|488:208,1,180
416,312,115407,5,8
376,248,115614,1,8
336,312,115821,1,2
256,240,116131,1,2
176,312,116442,2,4,B|72:312,1,90
96,72,117062,5,8
136,136,117269,1,8
176,72,117476,1,2
256,144,117786,1,2
336,72,118097,2,4,B|440:72,1,90
440,216,118717,5,0
400,280,118924,1,0
328,304,119131,2,0,B|240:352|144:296,1,180
200,240,119752,1,0
144,192,119959,2,0,B|152:136|176:104|224:72|272:64|328:56|392:80|448:104|480:152|512:192|512:248|512:288|488:320,1,540
288,312,121821,5,0
208,312,122028,1,0
248,248,122235,1,0
288,184,122442,1,0
208,184,122648,1,0
128,184,122855,1,0
48,184,123062,1,0
88,120,123269,1,0
128,56,123476,1,0
128,56,123580,1,2
48,56,123786,1,2
48,56,123890,1,0
88,248,124304,5,0
128,312,124511,1,0
200,288,124717,1,0
248,232,124924,1,0
208,168,125131,1,0
144,128,125338,1,0
176,64,125545,1,0
304,136,125959,1,0
368,168,126166,2,0,B|432:200|432:240|424:296|400:336|368:344|336:360|288:352|256:336|224:296|200:248|208:176|224:128|208:72|168:40|88:48,1,630,0|4
104,304,144786,5,0
168,264,144993,1,0
104,224,145200,1,0
40,184,145407,2,0,B|32:128|64:88|104:64|160:64|216:88|272:120|312:176|344:224|336:296|288:352|256:368,1,540
200,376,146855,5,0
160,320,147062,2,0,B|96:304|64:232|120:176,1,180
184,208,147683,1,0
240,256,147890,2,0,B|288:224|296:136|232:96,1,180
168,72,148511,1,8
168,72,148614,1,8
96,64,148821,2,12,B|16:88|-16:144|-24:200|-16:264|8:312|32:344|72:368|112:376|152:368,1,405
400,280,150166,5,0
432,216,150373,2,0,B|432:160|392:112|320:112|280:128,1,180
328,192,150993,1,0
336,264,151200,2,0,B|296:312|240:328|176:304|144:264,1,180
120,240,151821,1,0
120,240,151924,1,0
64,192,152131,2,0,B|48:128|64:88|104:72|160:64|216:72|256:112|248:160,1,315
188,192,153062,2,0,B|201:257|252:256|300:256|308:184,3,180,0|2|2|4
328,336,154717,5,0
256,312,154924,1,0
184,336,155131,1,0
256,208,155338,12,4,157200
144,336,160097,5,0
72,312,160304,1,0
40,248,160511,2,2,B|40:192|80:144|112:128,1,135
200,80,161131,1,8
272,104,161338,1,8
368,336,161752,5,0
440,312,161959,1,0
472,248,162166,2,2,B|472:192|432:144|400:128,1,135
312,80,162786,1,8
240,104,162993,1,8
96,64,163407,6,0,B|96:256,1,180
40,296,164028,1,0
96,352,164235,1,0
144,296,164442,1,0
192,352,164648,1,0
240,296,164855,1,0
288,352,165062,1,0
336,296,165269,2,0,B|408:272|424:224|424:184|416:128,1,180
344,155,165890,1,4
194,155,166304,1,4
67,26,166717,5,0
19,83,166924,1,0
0,154,167131,1,0
110,131,167442,1,8
221,145,167752,1,2
184,216,167959,1,2
444,26,168373,5,0
492,83,168579,1,0
512,154,168786,1,0
401,131,169097,1,8
290,145,169407,1,2
328,216,169614,1,2
192,72,170028,5,0
256,40,170235,1,0
312,80,170442,2,0,B|376:56|464:88|488:168,1,180
496,208,171062,1,0
472,280,171269,2,0,B|448:320|400:360|352:376|312:384|264:376|216:360|160:328|112:280|80:216|80:176|80:136|96:112,1,540
336,48,173131,6,0,B|280:224,1,180,0|0
256,288,173752,1,0
208,344,173959,1,0
136,360,174166,1,0
64,344,174373,1,0
16,288,174579,1,0
24,216,174786,1,0
80,168,174993,1,8
80,168,175097,1,8
80,168,175200,1,8
176,280,175614,5,0
240,320,175821,1,0
304,280,176028,1,0
272,216,176235,1,0
200,216,176442,1,0
232,72,176855,1,0
368,152,177269,1,0
440,152,177476,1,0
400,216,177683,5,2
208,328,178304,1,2
120,208,178717,1,2
136,96,179028,1,2
240,56,179338,1,2
392,216,179752,6,0,B|192:216,1,180
136,216,180373,1,0
72,248,180579,1,2
72,320,180786,1,2
136,352,180993,1,2
200,320,181200,1,8
200,248,181407,1,8
264,280,181614,1,2
264,280,181717,1,2
264,280,181821,1,2
256,208,182235,12,4,183683
