osu file format v12

[General]
AudioFilename: Kimi Rhythm.mp3
AudioLeadIn: 1500
PreviewTime: 56559
Countdown: 0
SampleSet: Soft
StackLeniency: 0.7
Mode: 0
LetterboxInBreaks: 1

[Editor]
DistanceSpacing: 1.1
BeatDivisor: 4
GridSize: 4

[Metadata]
Title:Kimi Rhythm (TV Size)
TitleUnicode:キミリズム (TV Size)
Artist:Imai Masaki
ArtistUnicode:今井マサキ
Creator:No_Gu
Version:Easy
Source:Kokoro Connect
Tags:ココロコネクト opening
BeatmapID:246671
BeatmapSetID:89685

[Difficulty]
HPDrainRate:2
CircleSize:3
OverallDifficulty:2
ApproachRate:3
SliderMultiplier:0.8
SliderTickRate:1

[Events]
//Background and Video events
0,0,"BG.jpg",0,0
Video,0,"video.avi"
//Break Periods
//Storyboard Layer 0 (Background)
//Storyboard Layer 1 (Fail)
//Storyboard Layer 2 (Pass)
//Storyboard Layer 3 (Foreground)
//Storyboard Sound Samples
//Background Colour Transformations
3,100,163,162,255

[TimingPoints]
560,444.444444444444,4,2,1,70,1,0
4146,444.444444444444,4,2,1,50,1,0
7004,444.444444444444,4,2,1,50,1,0
7671,444.444444444444,4,2,1,50,1,0
14814,444.444444444444,4,2,1,50,1,0
29018,444.444444444444,4,2,1,50,1,0
57449,444.444444444444,4,2,1,70,1,1
71560,-100,4,2,1,70,0,0
71671,-100,4,2,1,70,0,1
85560,-100,4,2,1,70,0,0
85671,-100,4,2,1,70,0,1
85782,-100,4,2,1,5,0,0

[Colours]
Combo1 : 128,255,255
Combo2 : 255,255,128
Combo3 : 128,255,128
Combo4 : 255,128,128

[HitObjects]
204,56,560,2,0,P|268:64|324:40,2,120,2|2|2,0:0|0:0|0:0,0:0:0:0:
132,104,2337,2,0,P|68:96|12:120,2,120,2|2|2,0:0|0:0|0:0,0:0:0:0:
184,180,4146,6,0,L|264:172,1,80,2|0,1:0|1:0,0:0:0:0:
300,252,5034,2,0,L|220:260,1,80,0|0,1:0|1:0,0:0:0:0:
256,192,5923,12,4,7671,0:0:0:0:
188,104,8337,6,0,B|156:88|156:88|116:92|88:132,1,120,2|8,1:0|0:0,0:0:0:0:
104,220,9448,1,0,1:0:0:0:
188,252,9893,2,8,P|256:216|324:252,1,160
408,220,11226,5,2,1:0:0:0:
424,132,11670,2,0,B|396:92|356:88|356:88|324:104,1,120,8|0,0:0|1:0,0:0:0:0:
288,128,12559,1,8,0:0:0:0:
220,72,13004,2,0,L|212:32,3,40,0|8|8|4,1:0|0:0|0:0|1:0,0:0:0:0:
116,236,14814,6,0,B|124:176|124:176|104:116,2,120,4|2|0,1:0|0:0|0:0,0:0:0:0:
180,296,16591,2,0,B|120:288|120:288|60:308,2,120,2|2|8,1:0|1:0|0:0,0:0:0:0:
244,236,18369,6,0,B|236:296|236:296|256:356,2,120,2|2|0,1:0|1:0|0:0,0:0:0:0:
180,176,20146,2,0,B|240:184|240:184|300:164,2,120,2|2|8,1:0|1:0|0:0,0:0:0:0:
136,100,21925,6,0,P|88:72|20:80,2,120,4|2|0,1:0|1:0|0:0,0:0:0:0:
152,188,23702,2,0,P|200:160|227:97,2,120,2|2|8,1:0|1:0|0:0,0:0:0:0:
68,160,25480,6,0,P|67:215|108:268,2,120,2|2|8,1:0|1:0|0:0,0:0:0:0:
104,132,27036,2,0,L|228:140,1,120,4|8,1:0|0:0,0:0:0:0:
260,116,27925,2,0,L|384:124,1,120,4|8,1:0|0:0,0:0:0:0:
432,192,29018,5,4,1:0:0:0:
376,260,29462,2,8,B|352:312|372:352|372:352|340:332|308:336,1,160
256,268,30795,1,0,1:0:0:0:
201,335,31240,2,8,B|172:332|140:352|140:352|160:312|136:260,1,160
80,192,32573,5,0,1:0:0:0:
136,124,33017,2,8,B|160:72|140:32|140:32|172:52|204:48,1,160
256,116,34350,1,0,1:0:0:0:
310,48,34795,2,8,B|340:52|372:32|372:32|352:72|376:124,1,160
432,192,36129,5,4,1:0:0:0:
412,276,36573,2,8,P|356:288|296:212,1,160
256,136,37906,1,0,1:0:0:0:
215,216,38351,2,8,P|156:288|100:276,1,160
48,204,39684,5,0,1:0:0:0:
92,128,40129,2,8,L|256:108,1,160
292,128,41240,2,0,P|316:180|304:248,1,120,4|8,1:0|0:0,0:0:0:0:
257,312,42351,1,8,0:0:0:0:
173,284,42795,1,8,0:0:0:0:
172,196,43240,5,4,1:0:0:0:
257,169,43684,2,8,P|337:165|409:221,1,160
412,296,45017,1,0,1:0:0:0:
332,332,45462,2,8,B|284:324|256:304|256:304|228:324|180:328,1,160
100,296,46795,5,0,1:0:0:0:
111,208,47240,2,8,P|175:165|255:169,1,160
336,136,48573,2,0,L|340:56,1,80,0|8,1:0|0:0,0:0:0:0:
424,88,49462,2,0,L|420:168,1,80,0|8,0:0|0:0,0:0:0:0:
352,224,50351,5,4,1:0:0:0:
324,308,50795,2,8,P|256:344|188:308,1,160
160,224,52129,1,0,1:0:0:0:
188,140,52573,2,8,P|256:104|324:140,1,160
352,172,53684,6,0,L|472:168,1,120,4|8,1:0|0:0,0:0:0:0:
500,200,54573,2,0,P|516:276|496:328,1,120,4|8,1:0|0:0,0:0:0:0:
420,336,55684,2,0,L|372:328,3,40,0|8|8|8,1:0|1:2|1:2|0:0,0:0:0:0:
172,272,57449,5,4,1:0:0:0:
116,204,57893,1,8,0:0:0:0:
108,116,58337,2,0,P|112:76|132:40,1,80,0|8,0:0|0:0,0:0:0:0:
216,24,59226,1,0,1:0:0:0:
284,80,59671,2,8,P|364:92|432:48,1,160
500,104,61004,5,0,1:0:0:0:
448,176,61448,2,8,B|428:216|428:216|472:264|460:332,1,160
432,356,62560,2,0,B|388:336|388:336|356:360|308:352,1,120,4|8,1:0|0:0,0:0:0:0:
264,284,63671,2,0,L|272:204,1,80,0|8,0:0|0:0,0:0:0:0:
212,140,64560,5,4,1:0:0:0:
136,96,65004,2,8,P|68:104|20:176,1,160
48,260,66337,1,0,1:0:0:0:
112,320,66782,2,8,L|276:296,1,160
336,236,68115,5,0,1:0:0:0:
364,152,68560,2,0,L|352:108,1,40,8|4,0:0|1:0,0:0:0:0:
272,76,69226,2,0,L|260:32,2,40,0|8|4,1:0|0:0|1:0,0:0:0:0:
228,152,70115,2,0,L|238:190,1,40,0|8,1:0|0:0,0:0:0:0:
184,260,70782,2,8,P|148:268|100:256,1,80
60,184,71671,5,4,1:0:0:0:
84,100,72115,2,8,B|124:64|124:64|184:60|216:116,1,160
256,188,73448,1,0,1:0:0:0:
299,110,73893,2,8,B|328:60|388:64|388:64|428:100,1,160
460,180,75226,6,0,L|452:260,1,80,0|8,1:0|0:0,0:0:0:0:
364,268,76115,2,0,L|372:188,1,80,0|8,0:0|0:0,0:0:0:0:
348,152,76782,2,0,P|296:116|232:124,1,120,4|8,1:0|0:0,0:0:0:0:
172,172,77893,2,8,P|128:176|92:160,1,80
68,80,78782,5,4,1:0:0:0:
12,148,79226,2,8,L|24:308,1,160
108,328,80560,1,0,1:0:0:0:
188,296,81004,2,8,B|232:284|256:256|256:256|280:284|324:296,1,160
404,328,82337,5,0,1:0:0:0:
488,308,82783,2,8,L|500:148,1,160
468,116,83893,2,0,P|416:88|352:92,1,120,4|8,1:0|0:0,0:0:0:0:
316,112,84782,2,0,P|264:140|200:136,1,120,4|8,1:0|0:0,0:0:0:0:
164,120,85671,1,4,1:0:0:0:
256,192,85782,12,0,88560,0:0:0:0:
