osu file format v9

[General]
AudioFilename: Forever Blue(tv size ).mp3
AudioLeadIn: 1500
PreviewTime: 81516
Countdown: 0
SampleSet: Soft
StackLeniency: 0.4
Mode: 0
LetterboxInBreaks: 0

[Editor]
DistanceSpacing: 1
BeatDivisor: 4
GridSize: 8

[Metadata]
Title:Forever Blue (TV Size)
Artist:Imai Chihiro
Creator:Hinagiku
Version:Oct 26th
Source:Iriya no Sora, UFO no Natsu
Tags:DarkRingSystem mjw5150

[Difficulty]
HPDrainRate:5
CircleSize:4
OverallDifficulty:4
ApproachRate:6
SliderMultiplier:2
SliderTickRate:0.5

[Events]
//Background and Video events
0,0,"2.jpg"
Video,299,"iriya no sora ufo no natu op.avi"
//Break Periods
2,26053,34924
//Storyboard Layer 0 (Background)
//Storyboard Layer 1 (Fail)
//Storyboard Layer 2 (Pass)
//Storyboard Layer 3 (Foreground)
//Storyboard Sound Samples
//Background Colour Transformations
3,100,163,162,255

[TimingPoints]
1276,722.89156626506,4,2,0,50,1,0
24957,-100,4,2,0,30,0,0
77728,-100,4,2,0,30,0,0
79716,-100,4,2,0,30,0,0
82239,-100,4,2,0,50,0,1
106102,-100,4,2,0,50,0,1
110974,-100,4,2,0,50,0,0

[Colours]
Combo1 : 255,169,135
Combo2 : 255,135,248
Combo3 : 135,183,255
Combo4 : 135,255,172

[HitObjects]
256,192,553,1,2
176,128,914,1,0
91,194,1276,2,0,B|174:297|266:181,1,200,0|2
352,224,2360,2,0,B|352:80,1,100
288,48,3083,1,0
240,136,3444,6,0,B|240:256,1,100,2|0
312,312,4167,1,0
241,244,4528,1,0
168,312,4890,1,2
82,262,5251,2,0,B|82:366,1,100
194,196,6336,6,0,B|266:212|282:292,1,100,2|0
181,302,7059,2,0,B|213:190|373:182,1,200,0|2
419,230,8143,2,0,B|410:273|341:264,2,50,0|0|0
340,167,8866,1,0
251,120,9227,6,0,B|203:160|259:240,1,100,2|0
144,176,9950,2,0,B|184:224|136:288,1,100
96,360,10673,2,0,B|40:304|112:240,2,100,2|0|0
288,296,12119,5,2
286,295,12480,1,0
286,295,12842,2,0,B|198:151|182:239|130:275|276:338|310:151,1,300
332,101,14287,1,0
256,288,15010,5,2
184,216,15372,1,0
256,144,15733,1,0
328,216,16095,1,0
256,288,16456,1,2
256,184,16818,2,0,B|256:72,1,100
448,136,17902,5,2
448,136,18263,2,0,B|496:184|432:248,1,100
360,184,18986,1,0
360,184,19348,2,0,B|304:240|376:296,1,100,2|0
256,192,20071,12,2,22239
168,304,22962,6,0,B|328:304,1,150,4|0
216,192,24047,1,0
312,192,24408,1,0
312,192,25131,2,0,B|112:192,1,200,2|2
240,192,35974,5,0
40,192,36697,2,0,B|64:128|144:144,1,100,2|0
184,224,37420,2,0,B|160:280|80:272,1,100
40,192,38143,1,2
128,144,38504,1,0
216,192,38866,1,0
128,244,39227,2,0,B|128:132,1,100,0|2
208,88,39950,1,0
288,144,40312,2,0,B|288:264,1,100
288,243,41034,5,2
288,242,41396,1,0
216,312,41757,1,0
216,312,41938,1,0
216,312,42119,1,0
152,232,42480,2,0,B|72:136|168:40,1,200,2|0
200,144,43565,1,0
248,144,43745,2,0,B|312:144,1,50,0|2
384,96,44287,2,0,B|424:144|376:200,2,100,0|0|0
224,224,45372,5,2
168,136,45733,1,0
200,96,45914,1,0
248,88,46095,1,0
288,120,46275,1,0
304,168,46456,1,0
320,216,46637,1,0
360,240,46818,1,2
408,256,46998,1,0
448,224,47179,1,0
408,136,47540,5,0
320,80,47902,1,0
264,160,48263,1,2
176,112,48625,2,0,B|176:224,1,100
264,260,49348,2,0,B|264:140,1,100,0|2
264,160,50071,1,0
360,160,50432,6,0,B|360:96|296:72,1,100,0|0
311,78,51155,1,2
264,164,51516,1,0
208,248,51878,1,0
160,161,52239,2,0,B|160:97|224:73,1,100,0|2
256,168,52962,5,0
256,272,53324,1,0
336,216,53685,2,0,B|216:216,1,100,0|2
135,218,54408,1,0
95,187,54589,1,0
82,138,54769,1,0
141,57,55131,1,0
144,160,55492,2,0,B|288:160,1,100,2|0
244,160,56215,1,0
320,88,56577,5,0
392,160,56938,1,2
320,232,57299,1,0
248,304,57661,2,0,B|176:304|176:232,1,100
248,176,58384,6,0,B|312:168|320:240,1,100,2|0
224,264,59107,1,0
104,112,59830,1,2
304,112,60552,1,0
440,264,61275,1,2
256,192,61998,5,0
176,256,62360,1,0
96,320,62721,1,2
16,256,63083,1,0
96,192,63444,1,0
176,128,63806,6,0,B|296:128,1,100,0|2
320,216,64528,2,0,B|184:216,1,100
264,304,65251,2,0,B|368:304,1,100,0|2
448,352,65974,2,0,B|448:240,1,100
360,200,66697,2,0,B|360:336,1,100,0|2
272,248,67420,2,0,B|272:128,2,100
368,256,68504,5,2
368,256,68866,1,0
342,298,69046,1,0
298,323,69227,1,0
249,334,69408,1,0
199,326,69589,1,0
248,240,69950,1,0
312,160,70312,6,0,B|416:160,2,100
264,248,71396,2,0,B|240:312|144:312,1,100,2|0
168,208,72119,2,0,B|56:216|32:80,1,200,0|2
128,112,73203,2,0,B|176:72|256:112,1,100
304,160,73926,2,0,B|355:204|328:296,1,100,0|2
240,232,74649,5,0
144,216,75010,1,0
72,144,75372,1,0
168,128,75733,2,0,B|224:104|232:48,1,100,2|0
304,128,76456,1,0
304,128,76818,2,0,B|232:144|224:224,2,100,0|2|0
256,192,77721,12,0,79348
256,192,79709,12,4,80794
208,144,81516,6,0,B|256:104|296:144,1,100,0|0
256,232,82239,2,0,B|256:16,1,200,4|2
312,112,83324,2,0,B|184:112,1,100,0|0
212,112,84046,1,0
120,144,84408,5,2
80,120,84589,1,0
40,144,84769,1,0
56,240,85131,2,0,B|184:240,1,100,0|0
256,240,85854,2,0,B|152:240,1,100,2|0
158,139,86577,1,0
226,66,86938,2,0,B|274:35|333:54,1,100,0|2
266,134,87661,5,0
364,150,88022,1,0
402,181,88203,1,0
421,227,88384,1,0
406,275,88565,1,0
366,305,88745,1,2
296,232,89107,1,0
357,153,89468,2,0,B|357:49,2,100,0|0|2
457,154,90552,5,0
357,168,90914,1,0
257,155,91275,1,0
158,172,91637,2,0,B|286:172,1,100,2|0
344,221,92360,2,0,B|224:221,1,100
214,125,93083,6,0,B|238:69|318:85,1,100,2|0
295,182,93806,1,0
214,240,94167,1,0
167,257,94348,1,0
117,257,94528,1,2
68,242,94709,1,0
32,206,94890,1,0
121,161,95251,1,0
317,196,95974,6,0,B|317:52,1,100,2|0
232,144,96697,2,0,B|128:144,1,100
40,112,97420,2,0,B|40:224,1,100,2|0
128,248,98143,1,0
328,248,98866,5,2
368,152,99227,1,0
300,77,99589,1,0
161,221,100312,1,2
200,312,100673,1,0
297,334,101034,1,0
256,192,101396,12,2,103203
144,192,103926,6,0,B|320:192,1,150
440,192,105010,1,0
440,192,105372,2,0,B|240:192,1,200
256,192,106456,12,0,110974
