osu file format v9

[General]
AudioFilename: Forever Blue(tv size ).mp3
AudioLeadIn: 1500
PreviewTime: 81516
Countdown: 0
SampleSet: Soft
StackLeniency: 0.8
Mode: 0
LetterboxInBreaks: 0

[Editor]
Bookmarks: 12842,24408,35974,47541,59107,70673,81516,93806,110974
DistanceSpacing: 0.7
BeatDivisor: 4
GridSize: 8

[Metadata]
Title:Forever Blue (TV Size)
Artist:Imai Chihiro
Creator:Hinagiku
Version:Insane
Source:Iriya no Sora, UFO no Natsu
Tags:DarkRingSystem mjw5150

[Difficulty]
HPDrainRate:7
CircleSize:4
OverallDifficulty:7
ApproachRate:8
SliderMultiplier:3
SliderTickRate:2

[Events]
//Background and Video events
0,0,"4.jpg"
Video,299,"iriya no sora ufo no natu op.avi"
//Break Periods
//Storyboard Layer 0 (Background)
//Storyboard Layer 1 (Fail)
//Storyboard Layer 2 (Pass)
//Storyboard Layer 3 (Foreground)
//Storyboard Sound Samples
//Background Colour Transformations
3,100,163,162,255

[TimingPoints]
1276,722.89156626506,4,2,0,30,1,0
24227,-100,4,2,2,30,0,0
24589,-100,4,2,0,30,0,0
25312,-100,4,2,2,30,0,0
25673,-100,4,2,0,30,0,0
27119,-100,4,2,2,30,0,0
27480,-100,4,2,0,30,0,0
28203,-100,4,2,2,30,0,0
28565,-100,4,2,0,30,0,0
30010,-100,4,2,2,30,0,0
30372,-100,4,2,0,30,0,0
31095,-100,4,2,2,30,0,0
31456,-100,4,2,0,30,0,0
32902,-100,4,2,2,30,0,0
33263,-100,4,2,0,30,0,0
33986,-100,4,2,2,30,0,0
34348,-100,4,2,0,30,0,0
35884,-100,4,2,2,30,0,0
36065,-100,4,2,0,30,0,0
36878,-100,4,2,2,30,0,0
37239,-100,4,2,0,30,0,0
38685,-100,4,2,2,30,0,0
39047,-100,4,2,0,30,0,0
39860,-100,4,2,2,30,0,0
40221,-100,4,2,0,30,0,0
41577,-100,4,2,2,30,0,0
41938,-100,4,2,0,30,0,0
42661,-100,4,2,2,30,0,0
43022,-100,4,2,0,30,0,0
44468,-100,4,2,2,30,0,0
44830,-100,4,2,0,30,0,0
45553,-100,4,2,2,30,0,0
45914,-100,4,2,0,30,0,0
47450,-100,4,2,2,30,0,0
47631,-100,4,2,0,30,0,0
48535,-100,4,2,2,30,0,0
48896,-100,4,2,0,30,0,0
50251,-100,4,2,2,30,0,0
50613,-100,4,2,0,30,0,0
51336,-100,4,2,2,30,0,0
51697,-100,4,2,0,30,0,0
53143,-100,4,2,2,30,0,0
53504,-100,4,2,0,30,0,0
54318,-100,4,2,2,30,0,0
54589,-100,4,2,0,30,0,0
56125,-100,4,2,2,30,0,0
56396,-100,4,2,0,30,0,0
57119,-100,4,2,2,30,0,0
57571,-100,4,2,0,30,0,0
59016,-100,4,2,2,30,0,0
59288,-100,4,2,0,30,0,0
60010,-100,4,2,2,30,0,0
60372,-100,4,2,0,30,0,0
61908,-100,4,2,2,30,0,0
62179,-100,4,2,0,30,0,0
62902,-100,4,2,2,30,0,0
63263,-100,4,2,0,30,0,0
64709,-100,4,2,2,30,0,0
65071,-100,4,2,0,30,0,0
65794,-100,4,2,2,30,0,0
66155,-100,4,2,0,30,0,0
67691,-100,4,2,2,30,0,0
67872,-100,4,2,0,30,0,0
68685,-100,4,2,2,30,0,0
69047,-100,4,2,0,30,0,0
70492,-100,4,2,2,30,0,0
70854,-100,4,2,0,30,0,0
71667,-100,4,2,2,30,0,0
72029,-100,4,2,0,30,0,0
73474,-100,4,2,2,30,0,0
73655,-100,4,2,0,30,0,0
74468,-100,4,2,2,30,0,0
74830,-100,4,2,0,30,0,0
76275,-100,4,2,2,30,0,0
76637,-100,4,2,0,30,0,0
77360,-100,4,2,2,30,0,0
77721,-100,4,2,0,30,0,0
79174,-100,4,2,0,40,0,0
82149,-100,4,2,2,40,0,0
82239,-100,4,2,2,50,0,1
82330,-100,4,2,0,50,0,1
83233,-100,4,2,2,50,0,1
83595,-100,4,2,0,50,0,1
84950,-100,4,2,2,50,0,1
85312,-100,4,2,0,50,0,1
86035,-100,4,2,2,50,0,1
86396,-100,4,2,0,50,0,1
87932,-100,4,2,2,50,0,1
88113,-100,4,2,0,50,0,1
89016,-100,4,2,2,50,0,1
89197,-100,4,2,0,50,0,1
90824,-100,4,2,2,50,0,1
91004,-100,4,2,0,50,0,1
91908,-100,4,2,2,50,0,1
92089,-100,4,2,0,50,0,1
93715,-100,4,2,2,50,0,1
93896,-100,4,2,0,50,0,1
94800,-100,4,2,2,50,0,1
94980,-100,4,2,0,50,0,1
96607,-100,4,2,2,50,0,1
96788,-100,4,2,0,50,0,1
97691,-100,4,2,2,50,0,1
98053,-100,4,2,0,50,0,1
99498,-100,4,2,2,50,0,1
99679,-100,4,2,0,50,0,1
100583,-100,4,2,2,50,0,1
100763,-100,4,2,0,50,0,1
102390,-100,4,2,2,50,0,1
102571,-100,4,2,0,50,0,1
103474,-100,4,2,2,50,0,1
103655,-100,4,2,0,50,0,1
105282,-100,4,2,2,50,0,1
105462,-100,4,2,0,50,0,1
106366,-100,4,2,2,50,0,1
106547,-100,4,2,0,50,0,1
110974,-100,4,2,0,50,0,0

[Colours]
Combo1 : 255,169,135
Combo2 : 255,135,248
Combo3 : 135,183,255
Combo4 : 135,255,172

[HitObjects]
208,48,553,2,0,B|88:40|48:160|72:136,1,149.999995529652,2|0
48,208,1276,1,0
96,296,1638,1,0
144,320,1819,1,0
192,336,1998,2,0,B|296:328|360:216|360:216,1,150,2|0
321,266,2722,1,0
344,160,3084,1,0
440,208,3445,6,0,B|472:120|344:48,1,150,2|0
288,64,4167,1,0
256,104,4349,1,0
216,136,4529,1,0
128,192,4891,2,0,B|24:184|0:48|0:96|16:96,2,150,2|0|0
80,64,6336,5,2
80,64,6697,2,0,B|160:152|232:112,1,150,0|0
296,56,7421,1,0
256,152,7782,1,2
152,152,8144,2,0,B|152:272|152:256,2,75
152,152,8867,1,0
176,48,9227,6,0,B|96:64|32:112,1,150,2|0
176,48,9950,1,0
232,136,10312,1,0
232,136,10674,2,0,B|272:224|216:296,1,150,2|0
232,136,11397,1,0
32,200,12120,5,2
112,264,12481,1,0
112,264,12843,2,0,B|248:336|408:256,1,300,0|2
336,176,13927,1,0
440,176,14288,1,0
384,80,14650,1,0
296,144,15010,6,0,B|248:224|120:200,2,150,2|0|0
224,72,16096,1,0
120,88,16457,1,2
48,168,16819,1,0
104,256,17180,1,0
200,72,17902,6,0,B|104:96|80:152,2,150,2|0|0
200,72,18987,1,0
200,232,19349,2,0,B|103:207|79:151,2,150,2|0|0
200,232,20433,1,0
256,192,20794,12,0,22240
112,256,22962,6,0,B|272:328|448:240,1,300,0|2
256,184,24047,1,0
104,112,24408,2,0,B|264:40|440:128,1,300,2|4
416,208,25493,1,2
344,296,25855,1,0
96,208,26578,5,8
192,96,26939,1,0
288,208,27300,1,2
176,312,27662,1,0
328,312,28023,1,8
432,208,28384,1,2
336,96,28746,1,0
240,208,29108,1,0
184,120,29469,6,0,B|72:96|8:168,1,150,8|0
128,200,30192,2,8,B|104:312|176:376,1,150,2|0
216,256,30915,2,0,B|248:300|360:276,1,150,8|2
296,192,31638,2,0,B|320:80|248:16,1,150
216,128,32361,5,8
72,160,32722,2,0,B|120:184|160:120|248:128,1,150,0|2
320,80,33445,1,0
336,128,33626,1,0
328,184,33807,1,8
232,144,34168,2,0,B|177:152|137:88|89:112,1,150,2|0
232,144,34891,1,0
96,216,35252,5,8
176,288,35614,1,0
224,304,35794,1,0
272,296,35975,1,6
376,296,36337,2,0,B|408:192|256:160,2,150,0|8|2
280,336,37421,5,0
264,304,37602,1,0
256,272,37782,1,0
264,232,37963,1,0
296,208,38144,1,8
400,208,38505,6,0,B|448:112|320:48,1,150,0|2
264,40,39228,1,0
288,72,39409,1,0
304,104,39590,1,8
296,136,39770,1,0
272,160,39951,1,2
240,176,40132,1,2
208,192,40313,6,0,B|161:258|73:234,1,150,0|0
120,328,41035,2,0,B|200:352|304:312|280:320,3,150,8|0|2|0
176,272,42481,5,8
176,272,42843,2,0,B|80:248|72:152,1,150,2|0
75,173,43565,1,0
80,280,43927,1,8
72,176,44288,2,0,B|76:101|170:78,1,150,0|2
224,168,45011,1,0
280,160,45192,1,0
312,120,45373,1,8
384,192,45734,6,0,B|312:312|200:280|200:288,1,150,2|0
320,368,46457,1,0
224,328,46819,1,8
168,240,47180,1,0
128,144,47541,2,0,B|136:96|72:96,2,75,2|0|0
56,224,48264,5,8
88,320,48626,1,2
136,296,48807,1,2
168,256,48987,1,0
144,152,49349,2,0,B|64:128|-8:16,1,150,0|8
25,63,50072,5,0
128,64,50433,1,2
224,104,50794,1,0
320,64,51156,1,8
224,104,51517,1,2
224,208,51878,2,0,B|256:248|304:192|304:192|264:224,4,75,0|0|0|0|8
312,144,52963,6,0,B|400:176|416:264,1,150,0|2
496,304,53686,1,0
456,344,53867,2,0,B|320:344,1,75,0|8
288,296,54409,1,2
272,344,54770,2,0,B|128:368|80:296,1,150
88,296,55313,1,0
64,256,55492,6,0,B|40:112|112:64,1,150,8|0
96,64,56035,1,0
128,104,56216,1,2
232,120,56578,2,0,B|328:168|416:72,1,150,0|8
368,216,57300,1,2
312,224,57481,1,2
264,240,57662,1,0
128,48,58023,6,0,B|40:96|88:208|88:176,1,150,0|8
120,288,58746,1,0
160,320,58927,1,0
216,328,59108,1,6
320,304,59469,2,0,B|408:272|408:136|408:144,1,150,0|8
352,88,60191,6,0,B|280:48|144:56,1,150,2|0
120,112,60915,1,0
104,160,61096,1,0
136,200,61276,1,8
240,184,61638,1,0
264,232,61819,1,0
248,280,61998,1,2
160,224,62361,1,0
56,240,62721,2,0,B|128:264|168:352,1,150,8|2
56,240,63445,1,0
256,304,63807,6,0,B|247:303|352:288|360:184,1,150,0|8
432,128,64529,2,0,B|360:56|288:152,1,150,0|2
256,224,65252,1,0
216,192,65433,1,0
200,144,65614,1,8
288,88,65974,1,2
288,88,66337,2,0,B|368:32|488:72,1,150
384,152,67059,1,8
472,208,67421,1,0
488,256,67602,1,0
464,304,67782,6,0,B|432:368|280:352,1,150,2|0
296,320,68325,1,0
248,312,68504,1,8
144,312,68867,2,0,B|64:296|48:192,1,150,2|0
48,104,69590,5,0
48,104,69770,1,0
48,104,69950,2,0,B|104:56|224:40,1,150,8|0
128,136,70674,1,6
48,200,71035,1,0
48,200,71216,1,0
48,200,71397,2,0,B|103:247|184:257,1,150,8|2
232,288,71938,5,2
272,248,72120,2,0,B|304:136|224:88|224:96,1,150
256,48,72662,1,0
312,56,72843,2,0,B|408:40|488:128,1,150,8|0
472,144,73385,1,0
472,200,73566,2,0,B|440:288|304:280,1,150,2|0
280,208,74288,1,8
280,312,74649,6,0,B|104:312,1,150,2|0
112,264,75192,1,0
136,216,75373,2,0,B|286:216,1,150,0|8
304,168,75915,1,0
288,120,76096,2,0,B|112:120,1,150,0|2
224,56,76819,5,0
280,56,76999,1,0
336,56,77180,1,8
440,88,77541,2,0,B|520:128|488:272|496:264,1,150,2|0
400,184,78264,1,0
400,184,78626,1,8
256,192,79349,12,4,80614
208,80,81517,5,8
112,112,81879,1,0
112,112,82060,1,0
112,112,82240,1,2
56,200,82602,2,0,B|128:216|168:304|168:296,1,149.999995529652,0|8
216,320,83144,1,0
264,312,83325,1,2
312,296,83505,1,2
360,272,83686,1,0
184,168,84409,6,0,B|224:88|304:80,1,149.999995529652,8|0
296,80,85132,1,2
368,152,85493,1,0
384,256,85855,2,0,B|309:248|269:168,1,149.999995529652,8|2
200,96,86578,1,0
152,104,86758,1,0
112,136,86939,1,0
64,232,87300,5,8
32,328,87662,1,0
80,344,87843,1,0
136,344,88023,2,0,B|184:280|144:192,1,149.999995529652,2|0
96,184,88566,1,0
88,136,88745,1,8
120,96,88926,1,0
176,88,89108,2,0,B|272:88|304:176,1,150,2|0
192,184,89831,1,0
240,280,90192,6,0,B|328:328|408:256,1,149.999995529652,8|0
424,176,90915,1,2
432,128,91096,1,0
408,80,91276,1,0
304,56,91638,2,0,B|208:16|112:80,1,149.999995529652,8|2
64,96,92361,1,0
32,136,92541,1,0
88,136,92722,1,0
192,136,93084,5,8
296,136,93445,1,0
192,136,93807,2,0,B|136:224|248:312,1,149.999995529652,2|0
304,312,94529,1,8
352,288,94710,1,0
384,248,94891,1,2
280,216,95252,1,0
352,144,95614,5,0
440,88,95975,2,0,B|488:144|496:240,1,149.999995529652,8|0
408,280,96698,1,2
368,312,96879,1,0
320,304,97060,1,0
344,216,97421,1,8
248,256,97782,1,2
192,248,97963,1,2
168,200,98144,1,0
88,136,98505,1,0
128,40,98867,6,0,B|288:40|288:40,2,149.999995529652,8|0|2
256,192,99951,1,0
416,336,100313,2,0,B|257:336|267:336,2,149.999995529652,8|2|0
344,256,101397,5,0
392,160,101758,1,8
320,88,102120,1,0
240,160,102481,2,0,B|80:160|72:160,2,149.999995529652,2|0|8
192,256,103566,1,2
168,152,103927,6,0,B|16:152,1,149.999995529652
256,224,104650,1,8
320,304,105011,2,0,B|480:304|472:304,1,149.999995529652,0|6
432,208,105734,1,0
432,152,105915,1,0
432,96,106096,1,8
376,96,106276,1,0
376,96,106457,2,0,B|296:56|168:128,1,149.999995529652,2|0
176,112,106999,1,0
136,144,107180,1,0
112,192,107361,1,0
128,240,107541,1,8
168,280,107721,1,0
168,280,107902,1,0
256,192,108083,8,4,110974
