osu file format v12

[General]
AudioFilename: THE iDOLM@STER - arcadia -BOSSA NOVA Rearrange Mix-_.mp3
AudioLeadIn: 0
PreviewTime: 87486
Countdown: 0
SampleSet: Soft
StackLeniency: 0.7
Mode: 0
LetterboxInBreaks: 0
WidescreenStoryboard: 0

[Editor]
DistanceSpacing: 1.2
BeatDivisor: 4
GridSize: 4

[Metadata]
Title:arcadia -BOSSA NOVA Rearrange Mix- (Short ver.)
TitleUnicode:arcadia -BOSSA NOVA Rearrange Mix- (Short ver.)
Artist:Imai Asami
ArtistUnicode:Imai Asami
Creator:AlpacaCokelat
Version:Hard
Source:THE iDOLM@STER
Tags:kisaragi chihaya
BeatmapID:265811
BeatmapSetID:100130

[Difficulty]
HPDrainRate:6
CircleSize:4
OverallDifficulty:6
ApproachRate:7
SliderMultiplier:1.5
SliderTickRate:1

[Events]
//Background and Video events
0,0,"Kisaragi.Chihaya.full.1209174.jpg",0,0
//Break Periods
2,33477,39635
2,122509,124796
//Storyboard Layer 0 (Background)
//Storyboard Layer 1 (Fail)
//Storyboard Layer 2 (Pass)
//Storyboard Layer 3 (Foreground)
//Storyboard Sound Samples
//Background Colour Transformations
3,100,163,162,255

[TimingPoints]
374,483.870967741935,4,2,2,30,1,0
30373,-100,4,2,2,5,0,0
30857,-100,4,2,2,30,0,0
40535,-100,4,2,3,30,0,0
72470,-133.333333333333,4,2,2,30,0,0
79728,-100,4,2,2,30,0,0
89406,-100,4,2,2,40,0,1
104890,-133.333333333333,4,2,2,40,0,0
108761,-100,4,2,2,40,0,0
116503,-100,4,2,3,40,0,0
122309,-100,4,2,2,30,0,0
125696,-100,4,2,3,30,0,0
157148,-133.333333333333,4,2,3,30,0,0
164890,-100,4,2,3,30,0,0
174567,-100,4,2,2,40,0,1
189930,-100,4,2,2,40,0,0
190051,-133.333333333333,4,2,2,40,0,1
190777,-133.333333333333,4,2,2,20,0,1
191019,-133.333333333333,4,2,2,40,0,1
191744,-133.333333333333,4,2,2,20,0,1
191986,-133.333333333333,4,2,2,40,0,1
192712,-133.333333333333,4,2,2,20,0,1
192954,-133.333333333333,4,2,2,40,0,1
193922,-100,4,2,2,40,0,1
198519,-100,4,2,2,10,0,1
198761,-100,4,2,2,30,0,1
199486,-100,4,2,2,10,0,1
199728,-100,4,2,2,30,0,1
200454,-100,4,2,2,10,0,1
200696,-100,4,2,2,30,0,1
201422,-100,4,2,2,10,0,1
201664,-100,4,2,3,40,0,1
205172,-100,4,2,2,40,0,0
205293,-100,4,2,2,40,0,1
205414,-100,4,2,2,40,0,0

[Colours]
Combo1 : 18,124,255
Combo2 : 102,159,206

[HitObjects]
108,64,14890,1,0,0:0:0:0:
120,92,15373,1,0,0:0:0:0:
132,116,15857,6,0,P|172:184|240:240,1,150,4|2,0:0|0:0,0:0:0:0:
292,276,16583,1,0,0:0:0:0:
368,244,16825,1,0,0:0:0:0:
332,172,17067,1,0,0:0:0:0:
396,120,17309,1,2,0:0:0:0:
340,60,17551,2,0,P|282:53|188:72,1,150,0|0,0:0|0:0,0:0:0:0:
186,183,18277,2,0,P|244:190|338:171,1,150,2|0,0:0|0:0,0:0:0:0:
474,258,19244,5,2,0:0:0:0:
413,314,19486,1,0,0:0:0:0:
337,346,19728,2,0,P|289:358|161:342,1,150,0|2,0:0|0:0,0:0:0:0:
100,212,20696,1,0,0:0:0:0:
130,135,20938,1,0,0:0:0:0:
197,86,21180,1,2,0:0:0:0:
278,71,21422,2,0,B|358:51|334:115|438:107,1,150
420,190,22148,2,0,B|335:182|359:246|279:226,1,150,2|0,0:0|0:0,0:0:0:0:
156,116,23115,1,2,0:0:0:0:
156,116,23599,6,0,L|164:292,1,150,0|2,0:0|0:0,0:0:0:0:
349,265,24567,2,0,L|356:116,1,150,0|2,0:0|0:0,0:0:0:0:
196,72,25535,2,0,B|132:72|132:72|100:88|80:156,1,150,0|2,0:0|0:0,0:0:0:0:
92,224,26261,1,0,0:0:0:0:
88,304,26503,2,0,B|103:345|135:361|135:361|232:360,1,150,0|2,0:0|0:0,0:0:0:0:
209,360,27470,5,0,0:0:0:0:
311,314,27712,1,0,0:0:0:0:
377,222,27954,1,2,0:0:0:0:
260,176,28196,2,0,P|216:168|120:216,1,150
96,132,28922,1,2,0:0:0:0:
100,48,29164,2,0,P|144:56|240:8,1,150
304,60,29890,5,2,0:0:0:0:
360,120,30132,1,0,0:0:0:0:
368,204,30373,2,0,L|352:223,2,18.75
300,308,30857,1,2,0:0:0:0:
106,193,31341,5,0,0:0:0:0:
256,192,32309,12,4,33277,0:0:0:0:
136,80,40535,5,0,0:0:0:0:
224,92,40777,1,0,0:0:0:0:
312,104,41019,2,0,L|468:124,1,150,0|0,0:0|0:0,0:0:0:0:
396,200,41744,2,0,L|247:180,1,150,0|0,0:0|0:0,0:0:0:0:
148,212,42470,1,0,0:0:0:0:
92,280,42712,1,0,0:0:0:0:
144,352,42954,6,0,P|204:336|276:264,1,150,0|0,0:0|0:0,0:0:0:0:
356,68,43922,2,8,P|296:84|220:168,1,150,0|0,0:0|0:0,0:0:0:0:
328,365,44890,2,0,P|380:312|364:244,1,150,0|0,0:0|0:0,0:0:0:0:
296,288,45615,2,0,P|224:288|152:228,1,150,0|0,0:0|0:0,0:0:0:0:
152,164,46341,5,0,0:0:0:0:
176,84,46583,1,0,0:0:0:0:
336,40,47067,1,0,0:0:0:0:
476,132,47551,1,0,0:0:0:0:
476,216,47793,2,0,P|472:268|460:316,2,75,0|0|0,0:0|0:0|0:0,0:0:0:0:
476,132,48519,1,0,0:0:0:0:
392,144,48761,6,0,P|336:156|224:128,1,150,0|0,0:0|0:0,0:0:0:0:
392,240,49486,2,0,P|336:228|220:252,1,150,0|0,0:0|0:0,0:0:0:0:
156,296,50212,1,0,0:0:0:0:
228,352,50454,2,0,P|284:388|372:356,1,150,0|0,0:0|0:0,0:0:0:0:
300,312,51180,5,0,0:0:0:0:
448,184,51664,1,0,0:0:0:0:
324,36,52148,1,0,0:0:0:0:
152,104,52632,2,0,P|140:152|184:244,1,150,0|0,0:0|0:0,0:0:0:0:
292,216,53357,2,0,P|304:168|260:76,1,150,0|0,0:0|0:0,0:0:0:0:
172,44,54083,5,0,0:0:0:0:
92,104,54325,1,0,0:0:0:0:
80,268,54809,2,0,P|128:304|148:340,1,75
236,364,55293,1,0,0:0:0:0:
264,196,55777,1,0,0:0:0:0:
336,156,56019,1,0,0:0:0:0:
408,200,56261,1,0,0:0:0:0:
484,164,56503,6,0,P|472:112|384:48,1,150,0|0,0:0|0:0,0:0:0:0:
312,64,57228,2,0,P|268:108|152:124,1,150,0|0,0:0|0:0,0:0:0:0:
104,88,57954,1,0,0:0:0:0:
96,176,58196,2,0,P|112:220|184:328,1,150,0|0,0:0|0:0,0:0:0:0:
165,307,58922,5,0,0:0:0:0:
344,320,59406,1,0,0:0:0:0:
428,160,59890,1,0,0:0:0:0:
428,160,60373,6,0,P|404:120|308:48,1,150,0|0,0:0|0:0,0:0:0:0:
236,48,61099,2,0,P|188:48|104:120,1,150,0|0,0:0|0:0,0:0:0:0:
100,196,61825,1,0,0:0:0:0:
184,168,62067,6,0,P|252:176|280:204,2,75
208,264,62793,1,0,0:0:0:0:
264,336,63035,1,0,0:0:0:0:
396,212,63519,2,0,P|440:196|468:168,2,75,0|0|0,0:0|0:0|0:0,0:0:0:0:
344,140,64244,6,0,P|312:100|196:56,1,150,0|0,0:0|0:0,0:0:0:0:
280,4,64970,2,0,P|240:36|196:152,1,150,0|0,0:0|0:0,0:0:0:0:
236,216,65696,1,0,0:0:0:0:
296,284,65938,1,0,0:0:0:0:
360,348,66180,6,0,P|400:292|452:204,1,150
392,40,67148,2,0,P|352:96|309:165,1,150
112,112,68115,2,0,B|168:112|168:112|184:84|224:68|252:80|272:104,1,150,4|0,0:0|0:0,0:0:0:0:
368,136,68841,2,0,B|312:136|312:136|296:164|256:180|228:168|208:144,1,150,0|0,0:0|0:0,0:0:0:0:
180,92,69567,1,0,0:0:0:0:
136,164,69809,2,0,P|136:204|224:280,1,150,0|0,0:0|0:0,0:0:0:0:
292,276,70535,5,0,0:0:0:0:
352,220,70777,1,0,0:0:0:0:
296,156,71019,2,0,P|252:144|220:152,2,75,0|0|0,0:0|0:0|0:0,0:0:0:0:
352,220,71744,1,0,0:0:0:0:
352,220,71986,1,0,0:0:0:0:
352,220,72470,6,0,B|280:196|240:332|152:280,1,225.000008583069,0|0,0:0|0:0,0:0:0:0:
92,172,73922,2,0,P|128:144|160:72,1,112.500004291535
280,68,74890,2,0,P|308:104|380:136,1,112.500004291535
428,240,75857,5,0,0:0:0:0:
384,284,76099,1,0,0:0:0:0:
324,300,76341,1,0,0:0:0:0:
264,296,76583,2,0,P|220:284|160:236,2,112.500004291535,0|0|0,0:0|0:0|0:0,0:0:0:0:
312,220,77793,5,0,0:0:0:0:
264,56,78035,1,0,0:0:0:0:
116,136,78277,1,0,0:0:0:0:
164,300,78519,1,0,0:0:0:0:
168,308,79003,2,0,P|216:332|296:312,1,112.500004291535
328,264,79728,6,0,P|336:200|292:96,1,150,0|0,0:0|0:0,0:0:0:0:
308,36,80454,2,0,P|260:48|228:140,1,150,0|0,0:0|0:0,0:0:0:0:
372,320,81422,1,0,0:0:0:0:
372,320,81664,6,0,P|424:296|436:196,1,150
420,132,82390,2,0,P|368:156|356:256,1,150
372,320,83115,1,0,0:0:0:0:
296,348,83357,5,0,0:0:0:0:
212,340,83599,1,0,0:0:0:0:
136,256,83841,1,0,0:0:0:0:
388,96,84325,1,0,0:0:0:0:
392,100,84809,1,0,0:0:0:0:
256,192,85293,12,0,87470,0:0:0:0:
256,188,88196,1,0,0:0:0:0:
256,188,89406,6,0,P|272:248|348:328,1,150,4|2,0:0|0:0,0:0:0:0:
404,288,90132,1,0,0:0:0:0:
440,212,90373,1,0,0:0:0:0:
416,132,90615,2,0,P|388:92|360:72,1,75,0|2,0:0|0:0,0:0:0:0:
284,64,91099,2,0,P|232:80|136:60,1,150,0|0,0:0|0:0,0:0:0:0:
100,132,91825,6,0,P|88:172|88:212,1,75,2|0,0:0|0:0,0:0:0:0:
0,328,92309,2,0,P|25:294|57:271,1,75,0|0,0:0|0:0,0:0:0:0:
136,280,92793,1,2,0:0:0:0:
208,320,93035,1,0,0:0:0:0:
292,328,93277,6,0,P|348:304|428:224,1,150,0|2,0:0|0:0,0:0:0:0:
258,250,94003,2,0,P|304:212|324:108,1,150,0|0,0:0|0:0,0:0:0:0:
268,68,94728,1,2,0:0:0:0:
188,60,94970,2,0,P|134:102|110:187,1,150,0|0,0:0|0:0,0:0:0:0:
292,316,95696,6,0,P|253:270|168:246,1,150,2|0,0:0|0:0,0:0:0:0:
96,208,96422,1,0,0:0:0:0:
60,132,96664,1,2,0:0:0:0:
124,80,96906,6,0,L|304:96,1,150
384,192,97632,2,0,L|234:178,1,150,2|0,0:0|0:0,0:0:0:0:
156,200,98357,1,0,0:0:0:0:
120,272,98599,1,2,0:0:0:0:
184,324,98841,2,0,P|240:352|312:292,1,150,0|0,0:0|0:0,0:0:0:0:
304,216,99567,6,0,P|256:232|236:276,2,75,2|0|0,0:0|0:0|0:0,0:0:0:0:
112,256,100293,2,0,P|160:240|180:196,1,75,0|2,0:0|0:0,0:0:0:0:
104,172,100777,1,0,0:0:0:0:
168,120,101019,6,0,P|220:88|328:100,1,150,0|2,0:0|0:0,0:0:0:0:
428,144,101744,2,0,P|376:176|268:164,1,150,0|0,0:0|0:0,0:0:0:0:
212,140,102470,1,2,0:0:0:0:
224,220,102712,2,0,B|292:352|440:192|488:348,1,300
404,356,103922,5,0,0:0:0:0:
320,352,104164,1,0,0:0:0:0:
240,336,104406,1,2,0:0:0:0:
172,288,104648,1,0,0:0:0:0:
128,216,104890,6,0,P|128:180|284:168,1,225.000008583069,4|0,0:0|0:0,0:0:0:0:
308,268,106341,1,2,0:0:0:0:
490,217,106825,2,0,P|490:181|344:152,1,225.000008583069
308,268,108277,1,2,0:0:0:0:
152,324,108761,5,0,0:0:0:0:
92,268,109003,1,0,0:0:0:0:
88,184,109244,1,2,0:0:0:0:
124,108,109486,2,0,P|176:80|284:88,1,150,0|0,0:0|0:0,0:0:0:0:
388,276,110454,2,0,P|336:304|228:296,1,150,0|0,0:0|0:0,0:0:0:0:
176,256,111180,5,2,0:0:0:0:
132,176,111422,1,0,0:0:0:0:
448,108,111906,2,0,P|460:152|460:192,2,75,0|2|0,0:0|0:0|0:0,0:0:0:0:
376,72,112632,6,0,P|313:46|241:77,1,150,0|2,0:0|0:0,0:0:0:0:
308,148,113357,1,0,0:0:0:0:
241,76,113599,2,0,P|203:138|123:152,1,150,0|2,0:0|0:0,0:0:0:0:
137,56,114325,1,0,0:0:0:0:
131,153,114567,2,0,P|99:194|136:303,1,150,0|2,0:0|0:0,0:0:0:0:
188,221,115293,1,0,0:0:0:0:
114,285,115535,2,0,P|201:317|258:282,1,150,0|2,0:0|0:0,0:0:0:0:
248,292,116503,5,4,0:0:0:0:
384,212,116744,1,0,0:0:0:0:
280,92,116986,1,2,0:0:0:0:
144,184,117228,1,0,0:0:0:0:
141,169,117712,1,0,0:0:0:0:
256,192,118196,12,4,122309,0:0:0:0:
372,152,125696,6,0,P|364:192|336:216,1,75,0|0,0:0|0:0,0:0:0:0:
372,152,126180,6,0,P|332:172|224:172,1,150,0|0,0:0|0:0,0:0:0:0:
204,92,126906,2,0,P|160:124|168:236,1,150,0|0,0:0|0:0,0:0:0:0:
212,272,127632,1,0,0:0:0:0:
296,264,127873,2,0,L|404:144,1,150,0|0,0:0|0:0,0:0:0:0:
360,48,128599,2,0,L|259:159,2,150,0|0|0,0:0|0:0|0:0,0:0:0:0:
392,208,130051,6,0,P|368:248|272:296,1,150
96,332,130777,2,0,P|120:292|216:244,1,150
280,188,131503,2,0,P|284:124|208:44,1,150
152,84,132228,2,0,P|128:116|124:164,2,75
236,56,132954,5,0,0:0:0:0:
320,92,133196,1,0,0:0:0:0:
328,180,133438,1,0,0:0:0:0:
416,200,133680,1,0,0:0:0:0:
460,276,133922,6,0,P|424:342|356:358,1,150
368,264,134648,2,0,P|300:280|264:352,1,150
168,352,135373,1,0,0:0:0:0:
128,280,135615,2,0,P|100:216|116:124,1,150
136,60,136341,5,0,0:0:0:0:
160,60,136825,1,0,0:0:0:0:
184,60,137309,1,0,0:0:0:0:
208,60,137793,2,0,L|380:60,1,150
456,156,138519,2,0,L|306:156,1,150
224,176,139244,5,0,0:0:0:0:
148,212,139486,2,0,P|144:264|240:320,1,150
288,284,140212,2,0,P|300:236|308:184,2,75
348,340,140938,2,0,P|408:344|452:328,2,75
388,268,141664,6,0,P|424:232|444:108,1,150
396,76,142390,2,0,P|336:56|224:68,1,150
188,116,143115,1,0,0:0:0:0:
156,192,143357,2,0,B|180:272|232:248|260:316,1,150
336,304,144083,2,0,B|357:250|409:274|433:194,2,150
296,60,145535,5,0,0:0:0:0:
296,60,146019,1,0,0:0:0:0:
296,60,146261,2,0,P|208:68|132:68,1,150
80,116,146986,1,0,0:0:0:0:
124,184,147228,2,0,B|144:232|216:236|216:236|240:284,1,150
315,269,147954,2,0,B|332:234|332:234|404:230|424:182,1,150
347,150,148680,2,0,P|334:111|309:76,2,75
356,232,149406,5,0,0:0:0:0:
219,324,149890,1,0,0:0:0:0:
219,324,150132,2,0,L|84:208,1,150
69,151,150857,1,0,0:0:0:0:
104,76,151099,1,0,0:0:0:0:
185,62,151341,2,0,P|247:66|309:159,1,150
434,268,152309,2,0,P|372:264|310:171,1,150
210,73,153277,6,0,P|155:78|113:168,1,150,4|0,0:0|0:0,0:0:0:0:
101,236,154003,2,0,P|156:231|198:141,1,150
210,72,154728,1,0,0:0:0:0:
292,77,154970,2,0,P|373:83|387:273,2,300
292,77,157148,5,4,0:0:0:0:
292,77,157632,2,0,L|60:106,1,225.000008583069
105,223,159083,2,0,P|150:210|229:225,1,112.500004291535
165,332,160051,2,0,P|229:340|274:327,1,112.500004291535
373,252,161019,5,0,0:0:0:0:
389,192,161261,1,0,0:0:0:0:
376,131,161503,1,0,0:0:0:0:
332,88,161744,2,0,P|272:80|208:104,1,112.500004291535
160,200,162712,2,0,P|220:208|284:184,1,112.500004291535
378,200,163438,2,0,P|318:208|254:184,1,112.500004291535
256,120,164164,1,0,0:0:0:0:
196,60,164406,1,4,0:0:0:0:
112,52,164648,1,0,0:0:0:0:
48,120,164890,6,0,L|84:280,1,150
188,304,165615,2,0,L|155:157,1,150
464,120,166583,1,0,0:0:0:0:
464,120,166825,2,0,L|428:280,1,150
324,304,167551,2,0,L|356:157,1,150
212,48,168519,5,0,0:0:0:0:
284,248,168761,1,0,0:0:0:0:
60,216,169003,1,0,0:0:0:0:
100,260,169486,1,0,0:0:0:0:
160,260,169970,1,0,0:0:0:0:
256,192,170454,12,0,172632,0:0:0:0:
256,188,173357,1,0,0:0:0:0:
256,188,174567,6,0,P|248:252|148:256,1,150,4|2,0:0|0:0,0:0:0:0:
112,220,175293,1,0,0:0:0:0:
80,144,175535,1,0,0:0:0:0:
116,68,175777,2,0,P|168:52|208:64,1,75,0|2,0:0|0:0,0:0:0:0:
260,92,176261,2,0,P|300:112|408:104,1,150
432,184,176986,2,0,P|432:232|360:316,1,150,2|0,0:0|0:0,0:0:0:0:
292,296,177712,1,0,0:0:0:0:
224,344,177954,1,2,0:0:0:0:
148,316,178196,1,0,0:0:0:0:
104,248,178438,6,0,P|96:192|128:84,1,150,0|2,0:0|0:0,0:0:0:0:
200,104,179164,2,0,P|208:160|186:249,1,150
148,316,179890,1,2,0:0:0:0:
228,332,180132,2,0,P|296:344|384:280,1,150
424,224,180857,2,0,P|356:212|286:248,1,150,2|0,0:0|0:0,0:0:0:0:
236,312,181583,1,0,0:0:0:0:
160,284,181825,1,2,0:0:0:0:
124,208,182067,6,0,P|108:160|180:64,1,150
196,148,182793,2,0,B|244:144|244:144|272:108|336:100|360:136,1,150,2|0,0:0|0:0,0:0:0:0:
312,196,183519,1,0,0:0:0:0:
268,264,183761,1,2,0:0:0:0:
232,340,184003,2,0,P|304:336|352:264,1,150
388,204,184728,2,0,P|400:156|500:124,1,150,2|0,0:0|0:0,0:0:0:0:
476,208,185454,2,0,P|472:252|420:280,2,75,0|2|0,0:0|0:0|0:0,0:0:0:0:
444,128,186180,5,0,0:0:0:0:
296,64,186664,1,2,0:0:0:0:
296,64,186906,2,0,L|132:88,1,150
80,136,187632,1,2,0:0:0:0:
72,220,187873,2,0,P|72:264|184:304,1,150
164,232,188599,2,0,B|208:212|208:212|264:232|304:216|320:192,1,150,2|0,0:0|0:0,0:0:0:0:
252,144,189325,2,0,P|236:104|200:80,2,75,0|2|0,0:0|0:0|0:0,0:0:0:0:
256,228,190051,6,0,P|264:264|396:308,1,168.750006437302,4|0,0:0|0:0,0:0:0:0:
292,192,191019,2,0,P|328:184|372:52,1,168.750006437302
256,156,191986,2,0,P|248:120|116:76,1,168.750006437302
220,192,192954,2,0,P|184:200|140:332,1,168.750006437302
204,364,193922,5,0,0:0:0:0:
220,276,194164,1,0,0:0:0:0:
295,307,194406,1,2,0:0:0:0:
295,307,194648,2,0,P|367:298|411:215,1,150
327,228,195373,1,2,0:0:0:0:
327,228,195615,2,0,P|304:178|225:93,1,150
161,89,196341,2,0,P|116:118|10:148,1,150,2|0,0:0|0:0,0:0:0:0:
29,229,197067,1,0,0:0:0:0:
29,311,197309,1,2,0:0:0:0:
107,337,197551,1,0,0:0:0:0:
172,286,197793,6,0,P|214:250|256:75,1,225
176,92,198761,2,0,P|221:249|263:285,1,225
346,285,199728,2,0,P|388:249|433:92,1,225
350,91,200696,2,0,P|395:248|437:284,1,225
501,344,201664,5,4,0:0:0:0:
335,345,202148,2,0,L|233:345,1,75,2|0,0:0|0:0,0:0:0:0:
134,238,202873,1,0,0:0:0:0:
90,167,203115,1,2,0:0:0:0:
124,91,203357,2,0,P|181:73|271:96,1,150,4|0,0:0|0:0,0:0:0:0:
416,169,204083,2,0,P|359:187|269:164,1,150,2|0,0:0|0:0,0:0:0:0:
272,144,204809,1,4,0:0:0:0:
272,100,205293,5,4,0:0:0:0:
