osu file format v6

[General]
AudioFilename: Strawberry ~Amaku Setsunai Namida~.mp3
AudioLeadIn: 0
PreviewTime: 50391
Countdown: 0
SampleSet: Soft
StackLeniency: 0.2
Mode: 0
LetterboxInBreaks: 1

[Editor]
Bookmarks: 8132,14663,21193,27724,34255,37520,44050,50377,56908,63438,69969,76499,79969,86499
DistanceSpacing: 0.800000011920929
BeatDivisor: 4
GridSize: 32

[Metadata]
Title:Strawberry ~Amaku Setsunai Namida~
Artist:Imai Asami
Creator:DJPop
Version:Insane
Source:Nyan Koi!
Tags:nyankoi neko cat

[Difficulty]
HPDrainRate:6
CircleSize:5
OverallDifficulty:8
SliderMultiplier:1.9
SliderTickRate:1

[Events]
//Background and Video events
Video,410,"Strawberry ~Amaku Setsunai Namida~.avi"
0,0,"Strawberry ~Amaku Setsunai Namida~.png"
//Break Periods
//Storyboard Layer 0 (Background)
//Storyboard Layer 1 (Fail)
//Storyboard Layer 2 (Pass)
//Storyboard Layer 3 (Foreground)
//Storyboard Sound Samples
//Background Colour Transformations
3,100,0,0,0

[TimingPoints]
1602,408.163265306122,4,2,1,80,1,0
11091,-100,4,2,2,80,0,0
11295,-100,4,2,1,80,0,0
14357,-100,4,2,2,80,0,0
14867,-100,4,2,1,80,0,0
17622,-100,4,2,2,80,0,0
18132,-100,4,2,1,80,0,0
20683,-100,4,1,1,80,0,0
21091,-100,4,2,1,80,0,0
24153,-100,4,2,2,80,0,0
24357,-100,4,2,1,80,0,0
27418,-100,4,2,2,80,0,0
27928,-100,4,2,1,80,0,0
30683,-100,4,2,2,80,0,0
31091,-100,4,2,1,80,0,0
33948,-100,4,2,2,80,0,0
34153,-100,4,2,1,80,0,0
38846,-100,4,2,2,80,0,0
39153,-100,4,2,1,80,0,0
42112,-100,4,2,2,80,0,0
42418,-100,4,2,1,80,0,0
44561,-100,4,2,2,80,0,0
44765,-100,4,2,1,80,0,0
45377,-100,4,2,2,80,0,0
45683,-100,4,1,1,80,0,0
46193,-100,4,2,2,80,0,0
46704,-100,4,2,1,80,0,0
47418,-100,4,1,1,80,0,0
47826,-100,4,2,1,80,0,0
48642,-100,4,2,2,80,0,0
48948,-100,4,2,1,80,0,0
50377,-100,4,2,1,80,0,1
51908,-100,4,2,2,80,0,1
52214,-100,4,2,1,80,0,1
56806,-100,4,2,2,80,0,1
57112,-100,4,2,1,80,0,1
58438,-100,4,2,2,80,0,1
58744,-100,4,2,1,80,0,1
60071,-100,4,2,2,80,0,1
60377,-100,4,2,1,80,0,1
60887,-100,4,2,2,80,0,1
61193,-100,4,2,1,80,0,1
61704,-100,4,2,2,80,0,1
62010,-100,4,2,1,80,0,1
62724,-100,4,2,2,80,0,1
63132,-100,4,2,1,80,0,1
64969,-100,4,2,2,80,0,1
65275,-100,4,2,1,80,0,1
69867,-100,4,2,2,80,0,1
70173,-100,4,2,1,80,0,1
71499,-100,4,2,2,80,0,1
71806,-100,4,2,1,80,0,1
73132,-100,4,2,2,80,0,1
73438,-100,4,2,1,80,0,1
74765,-100,4,2,2,80,0,1
75071,-100,4,2,1,80,0,1
75785,-100,4,2,2,80,0,1
76193,-100,4,2,1,80,0,1
77214,-100,4,2,2,80,0,1
77520,-100,4,2,1,80,0,1
78030,-100,4,2,2,80,0,1
78336,-100,4,2,1,80,0,1
82928,-100,4,2,2,80,0,1
83132,-100,4,2,1,80,0,1
84561,-100,4,2,2,80,0,1
84765,-100,4,2,1,80,0,1
86193,-100,4,2,2,80,0,1
86397,-100,4,2,1,80,0,1
86601,-100,4,2,1,0,0,1

[Colours]
Combo1 : 230,0,90
Combo2 : 255,210,0

[HitObjects]
256,192,8132,5,4
416,192,8540,1,8
448,128,8744,1,0
464,160,8846,1,2
480,192,8948,1,0
464,224,9050,1,2
448,256,9153,1,0
376,256,9357,1,8
352,320,9561,6,0,L|160:320,1,190
96,320,10173,2,0,L|96:224,1,95,8|0
32,192,10581,1,0
32,192,10683,1,2
32,192,10785,1,0
96,160,10989,2,0,L|96:64,1,95,8|4
160,32,11397,6,0,L|352:32,1,190,0|8
416,32,12010,1,0
448,48,12112,1,2
448,112,12316,1,2
416,128,12418,1,0
352,128,12622,1,8
288,128,12826,6,0,B|232:128|213:192|232:256|289:256,1,190
352,256,13438,2,0,L|448:256,1,95,8|0
480,320,13846,1,0
448,336,13948,1,2
416,352,14050,1,0
352,320,14255,1,8
288,352,14459,1,0
272,320,14561,1,4
256,288,14663,1,0
256,128,15071,5,8
320,96,15275,1,0
288,80,15377,1,2
256,64,15479,1,0
224,80,15581,1,2
192,96,15683,1,0
192,160,15887,1,8
128,128,16091,6,0,B|144:64|80:40|16:64|32:130,1,190
32,192,16704,1,8
96,224,16908,1,0
64,288,17112,1,0
96,304,17214,1,2
128,320,17316,1,0
192,352,17520,1,8
224,288,17724,1,0
224,288,17826,1,4
224,288,17928,6,0,B|320:256|288:384|384:352,1,190,0|8
416,288,18540,1,0
448,272,18642,1,2
464,240,18744,1,0
448,208,18846,1,2
416,192,18948,1,0
352,160,19153,1,8
288,128,19357,6,0,B|192:96|224:224|128:192,1,190
64,192,19969,2,0,B|32:200|4:160|32:128,1,95,8|0
64,64,20377,1,0
96,48,20479,1,2
128,32,20581,1,0
160,96,20785,1,12
192,32,20989,1,0
256,32,21193,1,4
256,192,21601,5,8
256,256,21806,1,0
224,272,21908,1,2
208,304,22010,1,0
224,336,22112,1,2
256,352,22214,1,0
304,304,22418,1,8
352,352,22622,6,0,B|480:374|480:256,1,190
480,224,23132,1,0
480,192,23234,2,0,L|480:96,1,95,8|0
448,32,23642,1,0
448,32,23744,1,2
448,32,23846,1,0
416,96,24050,2,0,L|416:192,1,95,8|4
352,224,24459,5,0
320,160,24663,1,0
256,192,24867,1,8
224,128,25071,1,0
192,112,25173,1,2
160,96,25275,1,0
128,80,25377,1,2
96,64,25479,2,0,B|59:55|32:72|32:112,1,95,0|8
32,176,25887,6,0,B|32:306|128:320,1,190
192,320,26499,2,0,L|288:320,1,95,8|0
352,320,26908,1,0
384,336,27010,1,2
416,352,27112,1,0
480,352,27316,2,0,L|480:256,1,95,8|0
480,224,27622,1,4
480,192,27724,1,0
320,192,28132,5,8
288,256,28336,1,0
272,224,28438,1,2
256,192,28540,1,0
272,160,28642,1,2
288,128,28744,2,0,L|288:32,1,95,0|8
224,32,29153,6,0,L|32:32,1,190
32,96,29765,1,8
96,96,29969,1,0
160,96,30173,1,0
176,128,30275,1,2
160,160,30377,1,0
96,160,30581,2,0,B|59:151|32:168|32:208,1,95,8|0
32,240,30887,1,4
32,272,30989,6,0,B|20:351|96:384|160:352,1,190,0|8
224,320,31602,1,0
256,304,31704,1,2
272,272,31806,1,0
256,240,31908,1,2
224,224,32010,1,0
224,160,32214,1,8
224,96,32418,6,0,B|224:7|320:0|352:64,1,190
384,128,33030,1,8
448,96,33234,1,0
480,160,33438,1,0
480,192,33540,1,2
480,224,33642,1,0
448,288,33846,1,8
384,256,34050,6,0,B|330:271|320:320,1,95,4|0
256,352,34459,1,0
224,336,34561,1,0
192,320,34663,1,8
128,288,34867,1,0
96,272,34969,1,2
80,240,35071,1,0
96,208,35173,1,2
128,192,35275,1,0
192,160,35479,2,0,B|240:152|256:96,1,95,8|0
256,32,35887,5,0
320,32,36091,2,0,L|416:32,1,95,0|8
448,96,36499,2,0,L|352:96,1,95
336,128,36806,1,2
320,160,36908,1,0
256,192,37112,1,8
256,352,37520,5,4
320,352,37724,1,0
384,352,37928,1,8
448,352,38132,1,0
480,336,38234,1,2
496,304,38336,1,0
480,272,38438,1,2
448,256,38540,1,0
384,256,38744,1,8
320,256,38948,1,4
160,256,39357,5,0
96,256,39561,1,8
32,288,39765,1,0
64,352,39969,1,0
96,352,40071,1,2
128,352,40173,1,0
192,352,40377,1,8
256,352,40581,6,0,L|256:160,1,190
256,96,41193,1,8
192,64,41397,1,0
224,48,41499,1,2
256,32,41602,1,0
288,48,41704,1,2
320,64,41806,1,0
288,128,42010,1,8
224,128,42214,1,4
64,128,42622,5,0
32,192,42826,1,8
64,256,43030,1,0
96,192,43234,1,0
128,192,43336,1,2
160,192,43438,1,0
224,192,43642,2,0,L|416:192,1,190,8|4
480,160,44255,5,0
480,96,44459,1,8
480,32,44663,1,4
480,224,45071,5,0
480,288,45275,1,8
480,352,45479,1,4
320,352,45887,5,0
320,352,45989,1,0
320,352,46091,1,12
320,288,46295,1,0
256,256,46499,1,4
256,256,46601,1,8
192,288,46806,1,0
192,288,46908,1,8
192,352,47112,1,0
32,352,47520,5,0
32,320,47622,1,0
32,288,47724,1,12
32,224,47928,1,0
32,192,48030,1,2
32,160,48132,1,0
32,128,48234,1,2
32,96,48336,1,0
32,64,48438,1,0
32,32,48540,1,8
96,32,48744,6,0,B|192:0|160:128|256:96,1,190,4|0
320,64,49357,1,8
384,32,49561,1,0
400,64,49663,1,2
416,96,49765,1,8
480,64,49969,1,8
480,224,50377,6,0,B|502:352|384:352,1,190,4|0
320,352,50989,1,8
288,288,51193,1,0
256,304,51295,1,2
224,320,51397,1,0
192,336,51499,1,2
160,352,51601,1,0
96,352,51806,1,8
32,352,52010,6,0,B|10:224|128:224,1,190,4|0
192,224,52622,1,8
256,224,52826,1,0
320,192,53030,1,0
352,176,53132,1,2
384,160,53234,1,0
416,224,53438,2,0,B|468:211|480:160,1,95,8|0
480,96,53846,5,0
448,32,54050,1,0
384,32,54255,1,8
352,96,54459,1,0
320,96,54561,1,2
288,32,54765,1,2
256,32,54867,1,0
224,96,55071,1,8
192,32,55275,6,0,B|96:0|128:128|32:96,1,190
32,160,55887,2,0,L|32:256,1,95,8|0
64,320,56295,1,0
64,320,56397,1,2
64,320,56499,1,0
96,256,56704,1,8
96,192,56908,6,0,L|288:192,1,190,4|0
352,192,57520,1,8
416,192,57724,1,0
448,208,57826,1,2
464,240,57928,1,0
448,272,58030,1,2
416,288,58132,1,0
352,288,58336,1,8
288,288,58540,6,0,L|96:288,1,190,4|0
32,320,59153,1,8
96,352,59357,1,0
160,352,59561,1,0
192,352,59663,1,2
224,352,59765,1,0
288,352,59969,1,8
352,352,60173,6,0,B|480:374|480:256,1,190,4|0
480,192,60785,1,8
416,160,60989,1,4
416,128,61091,1,8
480,96,61295,1,2
480,64,61397,1,0
416,32,61601,1,8
352,32,61806,6,0,L|160:32,1,190,4|0
96,32,62418,1,8
32,64,62622,1,0
32,128,62826,1,2
64,144,62928,1,8
96,160,63030,1,2
96,224,63234,1,8
32,256,63438,1,4
160,352,63846,5,0
184,288,64050,1,8
208,224,64255,1,0
224,192,64357,1,2
256,176,64459,1,0
288,192,64561,1,2
304,224,64663,1,0
328,288,64867,1,8
352,352,65071,1,4
480,256,65479,5,0
448,192,65683,1,8
416,128,65887,1,0
384,64,66091,1,0
416,48,66193,1,2
448,32,66295,1,0
480,96,66499,1,8
320,96,66908,5,0
256,64,67112,1,0
224,128,67316,1,8
160,96,67520,1,0
128,80,67622,1,2
96,144,67826,1,2
64,128,67928,1,0
32,192,68132,1,8
32,256,68336,1,0
192,256,68744,5,0
256,256,68948,2,0,L|256:352,1,95,8|0
320,352,69357,1,0
320,352,69459,1,2
320,352,69561,1,0
384,352,69765,1,8
448,352,69969,1,4
448,192,70377,5,0
416,128,70581,1,8
480,96,70785,1,0
464,64,70887,1,2
448,32,70989,1,0
416,32,71091,1,2
384,32,71193,1,0
352,96,71397,1,8
288,64,71602,1,4
128,64,72010,5,0
64,32,72214,1,8
32,96,72418,1,0
96,128,72622,1,0
112,160,72724,1,2
128,192,72826,1,0
64,224,73030,1,8
32,160,73234,1,4
32,320,73642,5,0
96,352,73846,1,8
128,288,74050,1,0
128,288,74153,1,2
192,320,74357,1,2
192,320,74459,1,0
224,256,74663,1,8
288,288,74867,1,4
384,160,75275,5,0
384,96,75479,2,0,B|396:44|448:32,1,95,8|0
480,96,75887,1,2
464,128,75989,1,8
448,160,76091,1,2
416,224,76295,1,8
480,224,76499,1,0
352,320,76908,5,0
320,256,77112,1,8
288,192,77316,1,4
272,160,77418,1,8
240,96,77622,1,2
224,64,77724,1,0
160,32,77928,1,8
96,64,78132,1,4
96,224,78540,5,0
32,256,78744,1,8
32,320,78948,1,0
96,352,79153,2,0,B|192:352,1,95,2|0
224,352,79459,2,0,L|320:352,1,95,2|0
352,352,79765,1,8
416,352,79969,1,4
416,192,80377,5,8
352,160,80581,1,0
320,176,80683,1,2
304,208,80785,1,0
288,240,80887,1,2
256,256,80989,1,0
192,224,81193,1,8
128,192,81397,6,0,B|10:192|32:64,1,190
96,32,82010,1,8
160,32,82214,1,0
192,48,82316,1,0
208,80,82418,1,0
224,112,82520,1,2
256,128,82622,1,0
320,96,82826,1,8
352,32,83030,1,4
416,32,83234,6,0,B|472:64|472:135|440:160|384:160,1,190,0|8
320,192,83846,1,0
320,192,83948,1,2
384,224,84153,1,2
384,224,84255,1,0
320,256,84459,1,8
384,288,84663,1,4
320,320,84867,5,0
320,320,84969,1,0
320,320,85071,1,0
256,352,85275,1,8
256,352,85377,1,0
256,352,85479,1,0
192,320,85683,1,0
192,320,85785,1,2
192,320,85887,1,0
128,288,86091,1,8
192,256,86295,1,4
256,224,86499,5,4
256,192,86550,12,4,89765
