osu file format v13

[General]
AudioFilename: Shangri-la.mp3
AudioLeadIn: 1500
PreviewTime: 48303
Countdown: 0
SampleSet: Normal
StackLeniency: 0.7
Mode: 1
LetterboxInBreaks: 0
WidescreenStoryboard: 0

[Editor]
DistanceSpacing: 0.6
BeatDivisor: 4
GridSize: 32
TimelineZoom: 1

[Metadata]
Title:Shangri-la (Short Ver.)
TitleUnicode:Shangri-la (Short Ver.)
Artist:Imai Asami
ArtistUnicode:今井麻美
Creator:Betsuto
Version:Muzukashii
Source:Corpse Party:Repeated Fear
Tags:PSP Horror game kantokun Kanto
BeatmapID:232791
BeatmapSetID:84516

[Difficulty]
HPDrainRate:4
CircleSize:4
OverallDifficulty:4
ApproachRate:5
SliderMultiplier:1.4
SliderTickRate:1

[Events]
//Background and Video events
Video,0,"Video.avi"
0,0,"BG.jpg",0,0
//Break Periods
//Storyboard Layer 0 (Background)
//Storyboard Layer 1 (Fail)
//Storyboard Layer 2 (Pass)
//Storyboard Layer 3 (Foreground)
//Storyboard Sound Samples
//Background Colour Transformations
3,100,163,162,255

[TimingPoints]
8222,504.201680672269,4,1,0,60,1,0
48558,-100,4,1,0,60,0,1
80827,-100,4,1,0,60,0,0
82843,-100,4,1,0,5,0,0

[Colours]
Combo1 : 179,89,0
Combo2 : 0,128,128
Combo3 : 0,128,64
Combo4 : 185,0,0

[HitObjects]
352,192,8219,5,4,0:0:0:0:
160,192,8474,1,0,0:0:0:0:
256,192,8726,1,8,0:0:0:0:
160,192,9230,1,0,0:0:0:0:
160,192,9482,1,0,0:0:0:0:
256,192,9734,1,8,0:0:0:0:
160,192,10238,1,0,0:0:0:0:
160,192,10364,1,0,0:0:0:0:
160,192,10490,1,0,0:0:0:0:
256,192,10743,1,8,0:0:0:0:
160,192,11247,1,0,0:0:0:0:
160,192,11499,1,0,0:0:0:0:
256,192,11751,1,8,0:0:0:0:
256,192,12003,1,8,0:0:0:0:
160,192,12255,1,0,0:0:0:0:
160,192,12507,1,0,0:0:0:0:
256,192,12759,1,8,0:0:0:0:
160,192,13264,1,0,0:0:0:0:
160,192,13516,1,0,0:0:0:0:
256,192,13768,1,8,0:0:0:0:
256,192,14020,1,8,0:0:0:0:
352,192,14272,1,4,0:0:0:0:
352,192,14650,1,4,0:0:0:0:
352,192,15028,1,4,0:0:0:0:
256,192,15785,1,8,0:0:0:0:
160,192,16289,5,0,0:0:0:0:
256,192,16541,1,8,0:0:0:0:
256,192,16793,1,8,0:0:0:0:
160,192,17045,1,0,0:0:0:0:
256,192,17801,1,8,0:0:0:0:
160,192,18306,1,0,0:0:0:0:
256,192,18558,1,8,0:0:0:0:
160,192,18810,1,0,0:0:0:0:
160,192,19062,1,0,0:0:0:0:
256,192,19314,1,8,0:0:0:0:
256,192,20070,1,8,0:0:0:0:
160,192,20322,1,0,0:0:0:0:
256,192,20827,1,8,0:0:0:0:
160,192,21079,1,0,0:0:0:0:
256,192,21583,1,8,0:0:0:0:
160,192,21835,1,0,0:0:0:0:
160,192,22087,1,0,0:0:0:0:
256,192,22339,1,8,0:0:0:0:
256,192,23348,1,8,0:0:0:0:
160,192,24356,1,0,0:0:0:0:
256,192,24608,1,8,0:0:0:0:
256,192,24860,1,8,0:0:0:0:
160,192,25112,1,0,0:0:0:0:
160,192,25616,1,0,0:0:0:0:
256,192,25869,1,8,0:0:0:0:
160,192,26373,1,0,0:0:0:0:
256,192,26625,1,8,0:0:0:0:
160,192,26877,1,0,0:0:0:0:
160,192,27129,1,0,0:0:0:0:
256,192,27381,1,8,0:0:0:0:
160,192,28137,1,0,0:0:0:0:
160,192,28390,1,0,0:0:0:0:
256,192,28894,1,8,0:0:0:0:
160,192,29146,1,0,0:0:0:0:
256,192,29650,1,8,0:0:0:0:
160,192,29902,1,0,0:0:0:0:
160,192,30154,1,0,0:0:0:0:
256,192,30406,12,0,32171,0:0:0:0:
160,192,32423,5,0,0:0:0:0:
256,192,32927,1,8,0:0:0:0:
160,192,33432,1,0,0:0:0:0:
160,192,33684,1,0,0:0:0:0:
256,192,33936,1,8,0:0:0:0:
160,192,34440,1,0,0:0:0:0:
256,192,34944,1,8,0:0:0:0:
160,192,35196,1,0,0:0:0:0:
160,192,35448,1,0,0:0:0:0:
160,192,35700,1,0,0:0:0:0:
256,192,35953,1,8,0:0:0:0:
160,192,36457,1,0,0:0:0:0:
256,192,36961,1,8,0:0:0:0:
160,192,37465,1,0,0:0:0:0:
160,192,37717,1,0,0:0:0:0:
256,192,37969,1,8,0:0:0:0:
256,192,38222,1,8,0:0:0:0:
160,192,38474,1,0,0:0:0:0:
256,192,38978,1,8,0:0:0:0:
160,192,39230,1,0,0:0:0:0:
160,192,39734,1,0,0:0:0:0:
256,192,39986,1,8,0:0:0:0:
160,192,40238,1,0,0:0:0:0:
160,192,40490,1,0,0:0:0:0:
256,192,40995,1,8,0:0:0:0:
160,192,41499,1,0,0:0:0:0:
160,192,41751,1,0,0:0:0:0:
256,192,42003,1,8,0:0:0:0:
256,192,42255,1,8,0:0:0:0:
160,192,42507,1,0,0:0:0:0:
256,192,43011,1,8,0:0:0:0:
160,192,43264,1,0,0:0:0:0:
160,192,43516,1,0,0:0:0:0:
256,192,43768,1,8,0:0:0:0:
256,192,44020,1,8,0:0:0:0:
160,192,44272,1,0,0:0:0:0:
160,192,44524,1,0,0:0:0:0:
256,192,45028,1,8,0:0:0:0:
160,192,45532,1,0,0:0:0:0:
160,192,45785,1,0,0:0:0:0:
256,192,46037,1,8,0:0:0:0:
160,192,46289,1,0,0:0:0:0:
256,192,46541,1,8,0:0:0:0:
160,192,46793,1,0,0:0:0:0:
160,192,47045,1,0,0:0:0:0:
256,192,47297,1,8,0:0:0:0:
256,192,48053,1,8,0:0:0:0:
352,96,48558,5,6,0:0:0:0:
160,192,48810,1,0,0:0:0:0:
160,192,48936,1,0,0:0:0:0:
160,192,49062,1,0,0:0:0:0:
256,192,49314,1,8,0:0:0:0:
160,192,49566,1,0,0:0:0:0:
256,192,50070,1,8,0:0:0:0:
160,192,50322,1,0,0:0:0:0:
160,192,50574,1,0,0:0:0:0:
256,192,50827,1,8,0:0:0:0:
256,192,50953,1,8,0:0:0:0:
256,192,51079,1,8,0:0:0:0:
160,192,51331,1,0,0:0:0:0:
256,192,51583,1,8,0:0:0:0:
256,192,52087,1,8,0:0:0:0:
256,192,52339,1,8,0:0:0:0:
160,192,52591,1,0,0:0:0:0:
256,192,52843,1,8,0:0:0:0:
256,192,52969,1,8,0:0:0:0:
256,192,53095,1,8,0:0:0:0:
160,192,53348,1,0,0:0:0:0:
160,192,53600,1,0,0:0:0:0:
256,192,53852,1,8,0:0:0:0:
256,192,54104,1,8,0:0:0:0:
160,192,54356,1,0,0:0:0:0:
256,192,54608,1,8,0:0:0:0:
160,192,54860,1,0,0:0:0:0:
256,192,55112,1,8,0:0:0:0:
256,192,55616,1,8,0:0:0:0:
160,192,55869,1,0,0:0:0:0:
256,192,56121,1,8,0:0:0:0:
352,192,56625,1,4,0:0:0:0:
256,192,56877,1,8,0:0:0:0:
256,192,57003,1,8,0:0:0:0:
256,192,57129,1,8,0:0:0:0:
256,192,57381,1,8,0:0:0:0:
160,192,57633,1,0,0:0:0:0:
160,192,57885,1,0,0:0:0:0:
256,192,58137,1,8,0:0:0:0:
160,192,58390,1,0,0:0:0:0:
256,192,58642,1,8,0:0:0:0:
256,192,58894,1,8,0:0:0:0:
256,192,59020,1,8,0:0:0:0:
256,192,59146,1,8,0:0:0:0:
256,192,59398,1,8,0:0:0:0:
160,192,59650,1,0,0:0:0:0:
160,192,59902,1,0,0:0:0:0:
256,192,60154,1,8,0:0:0:0:
352,192,60658,1,4,0:0:0:0:
256,192,61163,1,8,0:0:0:0:
160,192,61415,1,0,0:0:0:0:
160,192,61541,1,0,0:0:0:0:
160,192,61667,1,0,0:0:0:0:
160,192,61919,1,0,0:0:0:0:
256,192,62171,1,8,0:0:0:0:
256,192,62423,1,8,0:0:0:0:
352,192,62675,1,4,0:0:0:0:
352,96,63179,1,6,0:0:0:0:
352,192,63684,1,4,0:0:0:0:
352,96,64188,1,6,0:0:0:0:
352,96,64692,5,6,0:0:0:0:
256,192,64944,1,8,0:0:0:0:
256,192,65070,1,8,0:0:0:0:
256,192,65196,1,8,0:0:0:0:
160,192,65448,1,0,0:0:0:0:
256,192,65700,1,8,0:0:0:0:
256,192,65953,1,8,0:0:0:0:
160,192,66205,1,0,0:0:0:0:
256,192,66457,1,8,0:0:0:0:
160,192,66709,1,0,0:0:0:0:
256,192,66961,1,8,0:0:0:0:
256,192,67087,1,8,0:0:0:0:
256,192,67213,1,8,0:0:0:0:
160,192,67465,1,0,0:0:0:0:
256,192,67717,1,8,0:0:0:0:
256,192,68222,1,8,0:0:0:0:
256,192,68474,1,8,0:0:0:0:
352,192,68726,1,4,0:0:0:0:
256,192,68978,1,8,0:0:0:0:
256,192,69104,1,8,0:0:0:0:
256,192,69230,1,8,0:0:0:0:
160,192,69482,1,0,0:0:0:0:
256,192,69734,1,8,0:0:0:0:
160,192,69986,1,0,0:0:0:0:
256,192,70238,1,8,0:0:0:0:
256,192,70490,1,8,0:0:0:0:
160,192,70743,1,0,0:0:0:0:
256,192,71247,1,8,0:0:0:0:
160,192,71499,1,0,0:0:0:0:
160,192,71751,1,0,0:0:0:0:
256,192,72255,1,8,0:0:0:0:
160,192,72759,1,0,0:0:0:0:
160,192,73011,1,0,0:0:0:0:
256,192,73264,1,8,0:0:0:0:
256,192,73768,1,8,0:0:0:0:
160,192,74020,1,0,0:0:0:0:
256,192,74272,1,8,0:0:0:0:
160,192,74524,1,0,0:0:0:0:
160,192,74650,1,0,0:0:0:0:
160,192,74776,1,0,0:0:0:0:
256,192,75280,1,8,0:0:0:0:
160,192,75532,1,0,0:0:0:0:
256,192,75785,1,8,0:0:0:0:
256,192,76289,1,8,0:0:0:0:
160,192,76541,1,0,0:0:0:0:
352,192,76793,1,4,0:0:0:0:
256,192,77045,1,8,0:0:0:0:
256,192,77171,1,8,0:0:0:0:
256,192,77297,1,8,0:0:0:0:
160,192,77549,1,0,0:0:0:0:
256,192,77801,1,8,0:0:0:0:
256,192,78053,1,8,0:0:0:0:
160,192,78306,1,0,0:0:0:0:
160,192,78558,1,0,0:0:0:0:
352,96,78810,1,6,0:0:0:0:
352,192,79314,1,4,0:0:0:0:
352,96,79818,1,6,0:0:0:0:
352,192,80322,1,4,0:0:0:0:
256,192,80827,1,8,0:0:0:0:
160,192,81205,1,0,0:0:0:0:
352,192,81583,1,4,0:0:0:0:
256,192,82843,12,0,86877,0:0:0:0:
