osu file format v13

[General]
AudioFilename: Shangri-la.mp3
AudioLeadIn: 1500
PreviewTime: 48303
Countdown: 0
SampleSet: Soft
StackLeniency: 0.7
Mode: 0
LetterboxInBreaks: 0
WidescreenStoryboard: 0

[Editor]
DistanceSpacing: 0.6
BeatDivisor: 4
GridSize: 4
TimelineZoom: 1

[Metadata]
Title:Shangri-la (Short Ver.)
TitleUnicode:Shangri-la (Short Ver.)
Artist:Imai Asami
ArtistUnicode:今井麻美
Creator:Betsuto
Version:Insane
Source:Corpse Party:Repeated Fear
Tags:PSP Horror game kantokun
BeatmapID:232788
BeatmapSetID:84516

[Difficulty]
HPDrainRate:7
CircleSize:4
OverallDifficulty:7
ApproachRate:8
SliderMultiplier:2.2
SliderTickRate:1

[Events]
//Background and Video events
Video,0,"Video.avi"
0,0,"BG.jpg",0,0
//Break Periods
//Storyboard Layer 0 (Background)
//Storyboard Layer 1 (Fail)
//Storyboard Layer 2 (Pass)
//Storyboard Layer 3 (Foreground)
//Storyboard Sound Samples
//Background Colour Transformations
3,100,163,162,255

[TimingPoints]
8222,504.201680672269,4,2,1,60,1,0
14524,-100,4,2,1,10,0,0
14650,-100,4,2,1,60,0,0
14902,-100,4,2,1,10,0,0
15028,-100,4,2,1,60,0,0
16289,-133.333333333333,4,2,1,50,0,0
16541,-133.333333333333,4,2,1,50,0,0
17045,-133.333333333333,4,2,1,40,0,0
17801,-133.333333333333,4,2,1,30,0,0
18306,-133.333333333333,4,2,1,20,0,0
18810,-133.333333333333,4,2,1,10,0,0
19314,-200,4,2,4,50,0,0
19818,-200,4,2,1,5,0,0
20070,-200,4,2,1,10,0,0
20322,-133.333333333333,4,2,1,50,0,0
21079,-133.333333333333,4,2,1,40,0,0
21835,-133.333333333333,4,2,1,30,0,0
22339,-133.333333333333,4,2,1,20,0,0
22843,-133.333333333333,4,2,1,10,0,0
23348,-200,4,2,4,50,0,0
23852,-200,4,2,4,5,0,0
24104,-200,4,2,1,10,0,0
24356,-133.333333333333,4,2,1,50,0,0
25112,-133.333333333333,4,2,1,40,0,0
25869,-133.333333333333,4,2,1,30,0,0
26373,-133.333333333333,4,2,0,20,0,0
26499,-133.333333333333,4,2,1,20,0,0
26877,-133.333333333333,4,2,1,10,0,0
27381,-200,4,2,4,50,0,0
27885,-200,4,2,4,5,0,0
28137,-200,4,2,2,10,0,0
28390,-133.333333333333,4,2,1,50,0,0
29146,-133.333333333333,4,2,1,40,0,0
29902,-133.333333333333,4,2,1,30,0,0
30154,-133.333333333333,4,2,1,20,0,0
30406,-133.333333333333,4,2,1,20,0,0
30911,-133.333333333333,4,2,1,10,0,0
31415,-133.333333333333,4,2,1,25,0,0
31919,-133.333333333333,4,2,1,35,0,0
32171,-133.333333333333,4,2,1,10,0,0
32423,-133.333333333333,4,2,1,50,0,0
34440,-133.333333333333,4,2,2,50,0,0
34566,-133.333333333333,4,2,1,50,0,0
36457,-133.333333333333,4,2,2,50,0,0
36583,-133.333333333333,4,2,1,50,0,0
37465,-133.333333333333,4,2,2,50,0,0
37591,-133.333333333333,4,2,1,50,0,0
38474,-133.333333333333,4,2,2,50,0,0
38600,-133.333333333333,4,2,1,50,0,0
39482,-133.333333333333,4,2,2,50,0,0
39608,-133.333333333333,4,2,1,50,0,0
40490,-133.333333333333,4,2,2,50,0,0
40616,-133.333333333333,4,2,1,50,0,0
42507,-133.333333333333,4,2,2,50,0,0
42633,-133.333333333333,4,2,1,50,0,0
44524,-133.333333333333,4,2,2,50,0,0
44650,-133.333333333333,4,2,1,50,0,0
46541,-133.333333333333,4,2,2,30,0,0
48053,-133.333333333333,4,2,1,50,0,0
48306,-100,4,2,2,60,0,0
48558,-100,4,2,2,60,0,1
62675,-66.6666666666667,4,2,2,60,0,1
64692,-100,4,2,2,60,0,1
78810,-66.6666666666667,4,2,2,60,0,1
80827,-66.6666666666667,4,2,1,60,0,0
81079,-66.6666666666667,4,2,1,10,0,0
81205,-66.6666666666667,4,2,1,60,0,0
81457,-66.6666666666667,4,2,1,10,0,0
81583,-200,4,2,1,60,0,0
81709,-200,4,2,1,10,0,0
82843,-66.6666666666667,4,2,1,30,0,0
83095,-66.6666666666667,4,2,2,10,0,0
87885,-66.6666666666667,4,2,2,5,0,0

[Colours]
Combo1 : 179,89,0
Combo2 : 0,128,128
Combo3 : 0,128,64
Combo4 : 185,0,0

[HitObjects]
256,64,8222,6,0,P|204:88|188:136,1,110,2|0,0:0|0:0,0:0:0:0:
192,160,8600,1,0,0:0:0:0:
196,180,8726,1,8,0:0:0:0:
160,292,8978,5,0,0:0:0:0:
180,280,9104,1,0,0:0:0:0:
200,268,9230,1,2,0:0:0:0:
220,256,9356,1,8,0:0:0:0:
240,244,9482,2,0,P|272:200|264:144,2,110,2|8|0,0:0|0:0|0:0,0:0:0:0:
424,324,10238,5,2,0:0:0:0:
416,304,10364,1,8,0:0:0:0:
408,284,10490,1,0,0:0:0:0:
376,200,10743,1,8,0:0:0:0:
340,112,10995,5,0,0:0:0:0:
316,92,11121,1,8,0:0:0:0:
288,84,11247,1,2,0:0:0:0:
256,92,11373,1,8,0:0:0:0:
224,84,11499,1,2,0:0:0:0:
196,92,11625,1,0,0:0:0:0:
172,112,11751,1,8,0:0:0:0:
228,160,12003,5,8,0:0:0:0:
256,168,12129,1,8,0:0:0:0:
284,160,12255,2,0,P|308:180|344:188,2,55,2|8|2,0:0|0:0|0:0,0:0:0:0:
256,16,12759,1,8,0:0:0:0:
340,112,13011,6,0,L|392:144,1,55,8|8,0:0|0:0,0:0:0:0:
468,192,13264,2,0,L|414:221,1,55,2|8,0:0|0:0,0:0:0:0:
336,260,13516,2,0,P|288:240|256:192,1,110,2|8,0:0|0:0,0:0:0:0:
256,92,14020,5,8,0:0:0:0:
256,92,14146,1,8,0:0:0:0:
256,92,14272,2,0,P|212:52|160:48,1,110,2|0,0:0|0:0,0:0:0:0:
104,172,14650,2,0,P|148:212|196:216,1,110,2|0,0:0|0:0,0:0:0:0:
180,132,15028,1,6,0:0:0:0:
256,192,15154,12,2,16289,0:0:0:0:
256,104,16541,6,0,L|256:192,1,82.5000031471254
184,212,17045,1,0,0:0:0:0:
184,212,17297,2,0,P|212:252|256:264,2,82.5000031471254
256,188,18053,1,0,0:0:0:0:
328,212,18306,1,0,0:0:0:0:
404,216,18558,2,0,P|392:168|360:140,2,82.5000031471254
252,308,19314,6,0,B|240:276|268:236|268:236|240:244|240:244|256:224|256:188,1,165,2|0,0:0|0:0,0:0:0:0:
328,288,20322,6,0,P|348:244|336:200,2,82.5000031471254,2|0|0,0:0|0:0|0:0,0:0:0:0:
408,312,21079,1,0,0:0:0:0:
468,256,21331,1,0,0:0:0:0:
472,180,21583,1,0,0:0:0:0:
452,104,21835,2,0,P|412:128|396:164,1,82.5000031471254
472,180,22339,1,0,0:0:0:0:
468,256,22591,1,0,0:0:0:0:
408,312,22843,1,0,0:0:0:0:
328,324,23095,1,0,0:0:0:0:
204,272,23348,6,0,B|240:268|260:248|260:248|268:280|268:280|292:248|340:248,1,165,2|0,0:0|0:0,0:0:0:0:
208,196,24356,6,0,P|240:176|296:184,1,82.5000031471254,2|0,0:0|0:0,0:0:0:0:
328,248,24860,1,0,0:0:0:0:
328,324,25112,2,0,P|372:312|400:276,2,82.5000031471254
256,352,25869,1,0,0:0:0:0:
180,340,26121,1,0,0:0:0:0:
120,288,26373,2,0,P|96:248|92:200,2,82.5000031471254,2|0|0,0:0|0:0|0:0,0:0:0:0:
180,340,27129,1,0,0:0:0:0:
256,352,27381,6,0,B|252:312|272:288|272:288|244:296|244:296|264:264|256:216,1,165,2|0,0:0|0:0,0:0:0:0:
184,248,28390,6,0,P|188:200|216:168,2,82.5000031471254,2|0|0,0:0|0:0|0:0,0:0:0:0:
256,232,29146,1,0,0:0:0:0:
328,248,29398,1,0,0:0:0:0:
400,232,29650,1,0,0:0:0:0:
460,284,29902,2,0,P|476:244|472:204,1,82.5000031471254
256,192,30406,12,0,32171,0:0:0:0:
256,284,32423,6,0,P|300:296|348:292,2,82.5000031471254,2|0|8,0:0|0:0|0:0,0:0:0:0:
308,204,33179,1,0,0:0:0:0:
308,204,33306,1,0,0:0:0:0:
308,204,33432,2,0,P|264:192|216:196,1,82.5000031471254,0|2,0:0|0:0,0:0:0:0:
120,232,33936,5,8,0:0:0:0:
128,212,34062,1,0,0:0:0:0:
136,192,34188,1,0,0:0:0:0:
144,172,34314,1,0,0:0:0:0:
152,152,34440,2,0,P|200:96|288:96,1,165.000006294251,2|8,0:0|0:0,0:0:0:0:
244,176,35196,6,0,P|284:188|328:176,2,82.5000031471254,0|0|2,0:0|0:0|0:0,0:0:0:0:
288,96,35953,2,0,P|320:80|372:80,1,82.5000031471254,8|0,0:0|0:0,0:0:0:0:
344,168,36457,6,0,P|360:212|360:248,1,82.5000031471254,2|0,0:0|0:0,0:0:0:0:
264,228,36961,1,8,0:0:0:0:
392,80,37213,2,0,P|424:108|440:152,1,82.5000031471254,0|2,0:0|0:0,0:0:0:0:
416,284,37717,1,2,0:0:0:0:
296,308,37969,2,0,P|256:300|208:308,1,82.5000031471254,8|0,0:0|0:0,0:0:0:0:
112,348,38474,6,0,P|84:320|72:280,1,82.5000031471254,2|0,0:0|0:0,0:0:0:0:
128,184,38978,1,8,0:0:0:0:
232,188,39230,2,0,P|228:140|204:104,2,82.5000031471254,0|2|2,0:0|0:0|0:0,0:0:0:0:
256,288,39986,1,8,0:0:0:0:
272,272,40112,1,0,0:0:0:0:
288,256,40238,1,0,0:0:0:0:
304,240,40364,1,0,0:0:0:0:
320,224,40490,6,0,P|352:176|336:72,1,165.000006294251,2|8,0:0|0:0,0:0:0:0:
240,36,41247,1,0,0:0:0:0:
196,116,41499,2,0,L|228:168,2,55.0000020980836,2|0|0,0:0|0:0|0:0,0:0:0:0:
108,144,42003,2,0,L|140:196,2,55.0000020980836,8|0|0,0:0|0:0|0:0,0:0:0:0:
60,56,42507,6,0,P|16:112|32:204,1,165.000006294251,2|8,0:0|0:0,0:0:0:0:
88,264,43264,1,0,0:0:0:0:
108,144,43516,2,0,P|152:176|164:208,1,82.5000031471254,0|2,0:0|0:0,0:0:0:0:
88,264,44020,1,8,0:0:0:0:
108,144,44272,5,0,0:0:0:0:
108,144,44398,1,0,0:0:0:0:
108,144,44524,2,0,B|172:160|156:216|176:248|236:260,1,165.000006294251,2|8,0:0|0:0,0:0:0:0:
248,172,45280,1,0,0:0:0:0:
252,56,45532,6,0,L|296:76,3,41.2500015735627,0|0|2|0,0:0|0:0|0:0|0:0,0:0:0:0:
308,84,46037,1,8,0:0:0:0:
324,92,46163,1,0,0:0:0:0:
340,100,46289,1,0,0:0:0:0:
356,108,46415,1,0,0:0:0:0:
372,116,46541,5,2,0:0:0:0:
396,136,46667,1,0,0:0:0:0:
404,168,46793,1,0,0:0:0:0:
400,200,46919,1,0,0:0:0:0:
376,220,47045,1,0,0:0:0:0:
344,224,47171,1,0,0:0:0:0:
312,216,47297,1,0,0:0:0:0:
280,204,47423,1,2,0:0:0:0:
244,200,47549,6,0,L|200:200,2,41.2500015735627,0|0|2,0:0|0:0|0:0,0:0:0:0:
216,124,47927,2,0,L|264:124,1,41.2500015735627,2|8,0:0|0:0,0:0:0:0:
344,224,48306,5,0,3:0:0:0:
344,224,48432,1,0,0:0:0:0:
344,224,48558,2,0,P|376:180|376:120,1,110,4|2,0:0|0:0,0:0:0:0:
368,96,48936,1,0,0:0:0:0:
352,68,49062,1,8,0:0:0:0:
128,64,49314,6,0,L|83:95,1,55,2|0,0:0|0:0,0:0:0:0:
174,122,49566,2,0,L|220:92,1,55
112,164,49818,2,0,P|80:220|88:264,1,110,2|12,0:0|0:0,0:0:0:0:
216,200,50322,5,2,0:0:0:0:
216,200,50448,1,0,0:0:0:0:
216,200,50574,2,0,P|256:248|256:296,1,110,4|2,0:0|0:0,0:0:0:0:
248,324,50953,1,0,0:0:0:0:
232,352,51079,1,8,0:0:0:0:
368,316,51331,6,0,L|352:260,1,55,2|0,0:0|0:0,0:0:0:0:
408,180,51583,2,0,L|424:236,1,55,4|0,0:0|0:0,0:0:0:0:
496,336,51835,2,0,B|480:280|480:280|500:256|496:220,1,110,2|8,0:0|0:0,0:0:0:0:
392,96,52339,5,2,0:0:0:0:
364,112,52465,1,0,0:0:0:0:
332,120,52591,2,0,P|272:128|228:108,1,110,4|2,0:0|0:0,0:0:0:0:
200,88,52969,2,0,P|176:72|144:68,1,55,0|8,0:0|0:0,0:0:0:0:
136,272,53348,5,2,0:0:0:0:
152,244,53474,1,0,0:0:0:0:
160,212,53600,1,0,0:0:0:0:
160,180,53726,1,0,0:0:0:0:
152,152,53852,1,2,0:0:0:0:
52,204,54104,2,0,P|28:256|32:320,1,110,12|2,0:0|0:0,0:0:0:0:
160,212,54608,6,0,P|152:152|112:116,1,110,4|2,0:0|0:0,0:0:0:0:
200,280,55112,2,0,P|233:234|236:176,1,110,12|2,0:0|0:0,0:0:0:0:
180,356,55616,2,4,P|235:348|276:308,1,110,4|2,0:0|0:0,0:0:0:0:
288,284,55995,1,0,0:0:0:0:
300,256,56121,2,0,P|340:200|436:196,1,165,12|2,0:0|0:0,0:0:0:0:
468,224,56625,6,0,P|428:192|408:132,1,110,4|2,0:0|0:0,0:0:0:0:
408,108,57003,1,0,0:0:0:0:
416,76,57129,1,8,0:0:0:0:
292,104,57381,1,2,0:0:0:0:
256,88,57507,1,0,0:0:0:0:
220,72,57633,2,0,L|168:44,2,55,4|0|2,0:0|0:0|0:0,0:0:0:0:
408,108,58137,2,0,P|392:164|352:200,1,110,12|2,0:0|0:0,0:0:0:0:
256,192,58642,6,0,P|196:188|152:216,1,110,4|2,0:0|0:0,0:0:0:0:
124,236,59020,2,0,P|100:252|72:256,1,55,0|8,0:0|0:0,0:0:0:0:
128,56,59398,2,0,P|152:40|180:36,1,55,2|0,0:0|0:0,0:0:0:0:
176,112,59650,2,0,P|152:128|124:132,1,55,4|0,0:0|0:0,0:0:0:0:
60,96,59902,1,2,0:0:0:0:
176,112,60154,2,0,P|232:96|288:112,1,110,8|2,0:0|0:0,0:0:0:0:
384,84,60658,6,0,P|376:156|304:212,1,165,4|2,0:0|0:0,0:0:0:0:
264,212,61163,2,0,P|320:216|364:244,1,110,8|2,0:0|0:0,0:0:0:0:
384,272,61541,1,0,0:0:0:0:
396,304,61667,1,4,0:0:0:0:
192,224,61919,2,0,P|204:168|256:136,2,110,2|12|2,0:0|0:0|0:0,0:0:0:0:
200,248,62549,1,0,0:0:0:0:
208,276,62675,6,0,B|256:348|256:348|336:268|264:196,1,247.500009441376,4|0,0:0|0:0,0:0:0:0:
240,176,63179,2,0,B|177:113|257:33|257:33|305:105,1,247.500009441376,4|0,0:0|0:0,0:0:0:0:
308,128,63684,5,4,0:0:0:0:
300,152,63810,1,2,0:0:0:0:
280,176,63936,1,2,0:0:0:0:
256,192,64062,1,0,0:0:0:0:
232,208,64188,1,12,0:0:0:0:
212,232,64314,1,2,0:0:0:0:
204,256,64440,1,2,0:0:0:0:
336,228,64692,6,0,P|372:188|384:132,1,110,4|2,0:0|0:0,0:0:0:0:
384,104,65070,1,0,0:0:0:0:
376,72,65196,1,8,0:0:0:0:
336,228,65448,2,0,L|372:272,1,55,2|0,0:0|0:0,0:0:0:0:
484,304,65700,2,0,L|448:260,1,55,4|0,0:0|0:0,0:0:0:0:
384,104,65953,2,0,B|424:160|424:160|460:152|492:176,1,110,2|12,0:0|0:0,0:0:0:0:
452,64,66457,5,2,0:0:0:0:
452,64,66583,1,0,0:0:0:0:
452,64,66709,2,0,P|400:24|352:28,1,110,4|2,0:0|0:0,0:0:0:0:
324,36,67087,2,0,P|296:44|260:44,1,55,0|8,0:0|0:0,0:0:0:0:
336,228,67465,2,0,L|288:264,1,55,2|0,0:0|0:0,0:0:0:0:
176,264,67717,2,0,L|224:228,1,55,4|0,0:0|0:0,0:0:0:0:
312,128,67969,2,0,B|264:164|264:164|236:144|200:152,1,110,2|12,0:0|0:0,0:0:0:0:
52,276,68474,6,0,P|84:284|112:280,1,55,2|0,0:0|0:0,0:0:0:0:
176,264,68726,2,0,P|240:248|292:260,1,110,4|2,0:0|0:0,0:0:0:0:
312,260,69104,1,0,0:0:0:0:
348,252,69230,1,8,0:0:0:0:
312,128,69482,6,0,P|308:172|324:208,1,55,2|0,0:0|0:0,0:0:0:0:
348,252,69734,2,0,P|376:304|376:364,2,110,4|2|12,0:0|0:0|0:0,0:0:0:0:
240,208,70490,1,2,0:0:0:0:
240,208,70616,1,0,0:0:0:0:
240,208,70743,2,0,P|224:152|244:96,1,110,4|2,0:0|0:0,0:0:0:0:
260,68,71121,2,0,P|272:44|276:12,1,55,0|8,0:0|0:0,0:0:0:0:
240,208,71499,5,2,0:0:0:0:
204,196,71625,1,0,0:0:0:0:
176,180,71751,2,0,P|136:140|120:84,1,110,4|2,0:0|0:0,0:0:0:0:
212,276,72255,2,0,P|155:276|104:247,1,110,12|2,0:0|0:0,0:0:0:0:
304,320,72759,6,2,P|344:280|360:224,1,110,6|2,0:0|0:0,0:0:0:0:
360,196,73137,1,0,0:0:0:0:
356,160,73264,2,0,P|360:108|392:56,1,110,12|2,0:0|0:0,0:0:0:0:
260,192,73768,2,0,P|226:152|211:93,1,110,4|2,0:0|0:0,0:0:0:0:
212,276,74272,2,0,P|159:272|108:240,1,110,12|2,0:0|0:0,0:0:0:0:
24,136,74776,5,4,0:0:0:0:
168,44,75028,1,2,0:0:0:0:
168,44,75154,1,0,0:0:0:0:
168,44,75280,2,0,P|220:100|220:140,1,110,8|2,0:0|0:0,0:0:0:0:
96,212,75785,2,0,P|118:138|153:118,1,110,4|2,0:0|0:0,0:0:0:0:
276,192,76289,2,0,P|201:209|166:189,2,110,8|2|4,0:0|0:0|0:0,0:0:0:0:
352,108,77045,5,2,0:0:0:0:
352,108,77171,1,0,0:0:0:0:
352,108,77297,2,0,P|380:156|384:212,1,110,8|2,0:0|0:0,0:0:0:0:
376,240,77675,1,0,0:0:0:0:
364,276,77801,2,0,P|356:332|372:384,2,110,4|2|8,0:0|0:0|0:0,0:0:0:0:
472,320,78558,1,2,0:0:0:0:
496,188,78810,6,0,P|436:88|376:160,1,247.500009441376,4|0,0:0|0:0,0:0:0:0:
420,240,79314,2,0,P|359:310|299:210,1,247.500009441376,4|0,0:0|0:0,0:0:0:0:
288,132,79818,5,4,0:0:0:0:
248,136,79944,1,2,0:0:0:0:
208,128,80070,1,2,0:0:0:0:
176,104,80196,1,0,0:0:0:0:
152,72,80322,1,2,0:0:0:0:
124,40,80448,1,2,0:0:0:0:
84,24,80574,1,2,0:0:0:0:
40,28,80700,1,0,0:0:0:0:
8,52,80827,6,0,P|8:140|60:200,1,165.000006294251,2|0,0:0|0:0,0:0:0:0:
88,180,81205,2,0,P|134:236|134:324,1,165.000006294251,2|0,0:0|0:0,0:0:0:0:
100,352,81583,6,0,B|144:256|248:376|300:264,1,220,6|0,0:0|0:0,0:0:0:0:
256,192,82843,12,0,87885,0:0:0:0:
