osu file format v12

[General]
AudioFilename: Shangri-la.mp3
AudioLeadIn: 1500
PreviewTime: 48303
Countdown: 0
SampleSet: Soft
StackLeniency: 0.7
Mode: 0
LetterboxInBreaks: 0
WidescreenStoryboard: 0

[Editor]
DistanceSpacing: 0.6
BeatDivisor: 4
GridSize: 4

[Metadata]
Title:Shangri-la (Short Ver.)
TitleUnicode:Shangri-la (Short Ver.)
Artist:Imai Asami
ArtistUnicode:今井麻美
Creator:Betsuto
Version:Hard
Source:Corpse Party:Repeated Fear
Tags:PSP Horror game kantokun Kanto
BeatmapID:232787
BeatmapSetID:84516

[Difficulty]
HPDrainRate:5
CircleSize:4
OverallDifficulty:6
ApproachRate:7
SliderMultiplier:1.8
SliderTickRate:1

[Events]
//Background and Video events
Video,0,"Video.avi"
0,0,"BG.jpg",0,0
//Break Periods
//Storyboard Layer 0 (Background)
//Storyboard Layer 1 (Fail)
//Storyboard Layer 2 (Pass)
//Storyboard Layer 3 (Foreground)
//Storyboard Sound Samples
//Background Colour Transformations
3,100,163,162,255

[TimingPoints]
8222,504.201680672269,4,2,1,60,1,0
16289,-133.333333333333,4,2,1,50,0,0
17045,-133.333333333333,4,2,1,40,0,0
17801,-133.333333333333,4,2,1,30,0,0
18306,-133.333333333333,4,2,1,20,0,0
18810,-133.333333333333,4,2,1,10,0,0
19314,-200,4,2,4,50,0,0
20322,-133.333333333333,4,2,1,50,0,0
21079,-133.333333333333,4,2,1,40,0,0
21835,-133.333333333333,4,2,1,30,0,0
22339,-200,4,2,1,20,0,0
22843,-133.333333333333,4,2,1,5,0,0
23348,-200,4,2,4,50,0,0
24356,-133.333333333333,4,2,1,50,0,0
25112,-133.333333333333,4,2,1,40,0,0
25869,-133.333333333333,4,2,1,30,0,0
26373,-133.333333333333,4,2,0,20,0,0
26499,-133.333333333333,4,2,1,20,0,0
26877,-133.333333333333,4,2,1,10,0,0
27381,-200,4,2,4,50,0,0
27507,-200,4,2,2,10,0,0
28390,-133.333333333333,4,2,1,50,0,0
29146,-133.333333333333,4,2,1,40,0,0
29902,-133.333333333333,4,2,1,30,0,0
30406,-133.333333333333,4,2,1,20,0,0
30911,-133.333333333333,4,2,1,10,0,0
31415,-133.333333333333,4,2,1,25,0,0
31919,-133.333333333333,4,2,1,35,0,0
32171,-133.333333333333,4,2,1,10,0,0
32423,-133.333333333333,4,2,1,50,0,0
34440,-133.333333333333,4,2,2,50,0,0
34566,-133.333333333333,4,2,1,50,0,0
36457,-133.333333333333,4,2,2,50,0,0
36583,-133.333333333333,4,2,1,50,0,0
38474,-133.333333333333,4,2,2,50,0,0
38600,-133.333333333333,4,2,1,50,0,0
39482,-133.333333333333,4,2,2,50,0,0
39608,-133.333333333333,4,2,1,50,0,0
39986,-133.333333333333,4,2,1,40,0,0
40490,-133.333333333333,4,2,2,50,0,0
40616,-133.333333333333,4,2,1,50,0,0
42507,-133.333333333333,4,2,2,50,0,0
42633,-133.333333333333,4,2,1,50,0,0
44524,-133.333333333333,4,2,2,50,0,0
44650,-133.333333333333,4,2,1,50,0,0
46541,-133.333333333333,4,2,2,50,0,0
46667,-133.333333333333,4,2,1,50,0,0
47801,-133.333333333333,4,2,1,5,0,0
48053,-133.333333333333,4,2,1,50,0,0
48306,-100,4,2,2,60,0,0
48558,-100,4,2,2,60,0,1
49062,-100,4,2,3,60,0,1
49188,-100,4,2,2,60,0,1
51079,-100,4,2,3,60,0,1
51205,-100,4,2,2,60,0,1
57129,-100,4,2,3,60,0,1
57255,-100,4,2,2,60,0,1
59146,-100,4,2,3,60,0,1
59272,-100,4,2,2,60,0,1
64692,-100,4,2,2,60,0,1
65196,-100,4,2,3,60,0,1
65322,-100,4,2,2,60,0,1
67213,-100,4,2,3,60,0,1
67339,-100,4,2,2,60,0,1
78810,-100,4,2,2,60,0,1
80827,-133.333333333333,4,2,1,60,0,0
81709,-133.333333333333,4,2,1,10,0,0
82843,-133.333333333333,4,2,1,30,0,0
83095,-133.333333333333,4,2,2,10,0,0
87885,-133.333333333333,4,2,2,5,0,0

[Colours]
Combo1 : 179,89,0
Combo2 : 0,128,128
Combo3 : 0,128,64
Combo4 : 128,0,0

[HitObjects]
184,160,8222,2,0,P|172:120|120:88,2,90,2|0|8,0:0|0:0|0:0,0:0:0:0:
108,164,8978,1,0,0:0:0:0:
60,232,9230,2,0,L|12:220,2,45,2|8|2,0:0|0:0|0:0,0:0:0:0:
140,244,9734,2,0,L|232:264,1,90,8|0,0:0|0:0,0:0:0:0:
292,304,10238,6,0,P|304:260|284:212,1,90,2|0,0:0|0:0,0:0:0:0:
348,164,10743,1,8,0:0:0:0:
428,200,10995,2,0,L|436:244,2,45,0|8|2,0:0|0:0|0:0,0:0:0:0:
420,112,11499,1,2,0:0:0:0:
420,112,11751,2,0,P|380:80|328:80,1,90,8|0,0:0|0:0,0:0:0:0:
264,108,12255,6,0,P|252:156|268:200,1,90,2|0,0:0|0:0,0:0:0:0:
328,152,12759,2,0,L|140:152,1,180,8|2,0:0|0:0,0:0:0:0:
72,152,13516,1,2,0:0:0:0:
28,216,13768,1,8,0:0:0:0:
68,288,14020,6,0,P|88:272|100:248,1,45,8|8,0:0|0:0,0:0:0:0:
108,220,14272,2,0,P|172:244|196:308,2,135,2|2|6,0:0|0:0|0:0,0:0:0:0:
256,68,16289,5,2,0:0:0:0:
220,132,16541,1,0,0:0:0:0:
292,132,16793,1,0,0:0:0:0:
256,196,17045,2,0,P|320:216|388:196,2,135.000005149842
220,132,18306,1,0,0:0:0:0:
164,80,18558,2,0,P|128:68|88:76,2,67.5000025749208
124,148,19314,5,2,0:0:0:0:
256,324,20322,6,0,P|256:256|320:216,1,135.000005149842,2|0,0:0|0:0,0:0:0:0:
324,292,21079,1,0,0:0:0:0:
376,240,21331,2,0,P|380:204|368:176,1,67.5000025749208
324,116,21835,2,0,P|320:80|332:52,1,67.5000025749208
396,96,22339,6,0,B|336:60|272:136|224:96,1,180,0|2,0:0|0:0,0:0:0:0:
116,192,24356,5,2,0:0:0:0:
176,236,24608,2,0,P|148:260|112:264,2,67.5000025749208
184,160,25364,2,0,P|220:112|304:100,1,135.000005149842
372,200,26373,2,0,P|380:240|372:268,1,67.5000025749208,2|0,0:0|0:0,0:0:0:0:
304,232,26877,2,0,P|296:192|304:164,1,67.5000025749208,0|0,0:0|0:0,0:0:0:0:
448,192,27381,5,2,0:0:0:0:
328,48,28390,6,0,P|304:80|328:168,1,135.000005149842,2|0,0:0|0:0,0:0:0:0:
376,108,29146,2,0,L|236:104,1,135.000005149842
176,68,29902,2,0,P|164:104|172:136,1,67.5000025749208
256,192,30406,12,2,32423,0:0:0:0:
256,304,32927,5,8,0:0:0:0:
124,236,33432,2,0,L|188:200,1,67.5000025749208,0|2,0:0|0:0,0:0:0:0:
248,164,33936,1,8,0:0:0:0:
248,164,34440,6,0,P|312:136|376:156,1,135.000005149842,2|8,0:0|0:0,0:0:0:0:
348,224,35196,2,0,P|388:228|420:212,2,67.5000025749208,0|0|2,0:0|0:0|0:0,0:0:0:0:
272,236,35953,2,0,P|264:296|316:352,1,135.000005149842,8|2,0:0|0:0,0:0:0:0:
388,344,36709,5,0,0:0:0:0:
452,304,36961,1,8,0:0:0:0:
384,264,37213,2,0,B|336:272|316:312|316:312|268:304,1,135.000005149842,0|2,0:0|0:0,0:0:0:0:
196,324,37969,2,0,P|196:288|212:256,1,67.5000025749208,8|0,0:0|0:0,0:0:0:0:
204,184,38474,6,0,B|236:180|260:204|260:204|312:152,1,135.000005149842,2|8,0:0|0:0,0:0:0:0:
248,108,39230,2,0,L|296:60,2,67.5000025749208,0|2|2,0:0|0:0|0:0,0:0:0:0:
176,104,39986,2,0,L|152:128,3,33.7500012874604,8|0|0|0,0:0|0:0|0:0|0:0,0:0:0:0:
128,152,40490,6,0,P|84:220|88:272,1,135.000005149842,2|8,0:0|0:0,0:0:0:0:
232,276,41499,2,0,P|208:248|176:236,2,67.5000025749208,0|2|8,0:0|0:0|0:0,0:0:0:0:
284,328,42255,2,0,L|324:320,1,33.7500012874604
352,308,42507,6,0,P|372:252|332:176,1,135.000005149842,2|8,0:0|0:0,0:0:0:0:
340,108,43264,2,0,P|376:116|400:136,2,67.5000025749208,0|0|2,0:0|0:0|0:0,0:0:0:0:
268,84,44020,2,0,L|232:76,2,33.7500012874604,8|0|0,0:0|0:0|0:0,0:0:0:0:
280,156,44524,6,0,B|232:204|232:204|164:196,1,135.000005149842,2|8,0:0|0:0,0:0:0:0:
152,116,45280,2,0,P|100:152|92:220,1,135.000005149842,0|2,0:0|0:0,0:0:0:0:
156,268,46037,2,0,L|224:276,1,67.5000025749208,8|0,0:0|0:0,0:0:0:0:
284,328,46541,6,0,P|320:324|356:296,1,67.5000025749208,2|0,0:0|0:0,0:0:0:0:
392,248,47045,1,0,0:0:0:0:
412,176,47297,2,0,B|384:160|384:112|400:84|400:84|348:108|288:68,1,202.500007724762,0|8,0:0|0:0,0:0:0:0:
224,192,48558,6,0,P|184:136|212:64,2,135,4|2|2,0:0|0:0|0:0,0:0:0:0:
224,272,49566,2,0,L|140:236,1,90,0|2,0:0|0:0,0:0:0:0:
68,288,50070,2,0,L|152:324,1,90,12|2,0:0|0:0,0:0:0:0:
224,272,50574,6,0,P|264:240|344:240,2,135,4|2|2,0:0|0:0|0:0,0:0:0:0:
304,320,51583,2,0,P|348:328|400:312,1,90,4|2,0:0|0:0,0:0:0:0:
472,344,52087,2,0,P|476:300|452:256,1,90,8|2,0:0|0:0,0:0:0:0:
384,192,52591,6,0,P|360:148|440:56,1,180,4|8,0:0|0:0,0:0:0:0:
436,136,53348,2,0,L|268:72,1,180,2|2,0:0|0:0,0:0:0:0:
192,60,54104,2,0,P|200:116|228:140,1,90,12|2,0:0|0:0,0:0:0:0:
276,208,54608,6,0,B|232:232|184:216|184:216|148:256|104:248,2,180,4|12|4,0:0|0:0|0:0,0:0:0:0:
340,264,55869,2,0,P|360:220|356:180,1,90,2|12,0:0|0:0,0:0:0:0:
116,164,56625,6,0,P|140:100|192:60,2,135,4|2|2,0:0|0:0|0:0,0:0:0:0:
40,148,57633,2,0,P|44:196|80:236,1,90,4|2,0:0|0:0,0:0:0:0:
24,296,58137,2,0,P|72:308|112:296,1,90,12|2,0:0|0:0,0:0:0:0:
192,264,58642,6,0,P|168:200|196:136,2,135,4|2|2,0:0|0:0|0:0,0:0:0:0:
252,204,59650,2,0,L|344:204,1,90,4|2,0:0|0:0,0:0:0:0:
388,276,60154,6,0,P|428:204|376:120,1,180,12|4,0:0|0:0,0:0:0:0:
316,92,60911,2,0,P|348:56|396:48,1,90,2|8,0:0|0:0,0:0:0:0:
384,124,61415,2,0,P|332:168|244:116,1,180,6|2,0:0|0:0,0:0:0:0:
220,48,62171,2,0,P|180:80|172:116,1,90,12|2,0:0|0:0,0:0:0:0:
92,96,62675,6,0,B|84:168|152:196|152:196|116:240,2,180,4|4|4,0:0|0:0|0:0,0:0:0:0:
124,16,63936,1,2,0:0:0:0:
200,56,64188,2,0,L|220:100,2,45,12|2|2,0:0|0:0|0:0,0:0:0:0:
284,68,64692,6,0,P|336:104|404:88,2,135,4|2|2,0:0|0:0|0:0,0:0:0:0:
352,24,65700,2,0,P|400:8|444:20,1,90,4|2,0:0|0:0,0:0:0:0:
476,92,66205,2,0,P|464:136|428:160,1,90,12|2,0:0|0:0,0:0:0:0:
348,192,66709,6,0,P|328:240|372:312,2,135,4|2|2,0:0|0:0|0:0,0:0:0:0:
408,244,67717,2,0,P|436:276|436:336,1,90,4|2,0:0|0:0,0:0:0:0:
365,308,68222,6,0,P|289:332|197:292,1,180,12|4,0:0|0:0,0:0:0:0:
136,240,68978,1,0,0:0:0:0:
100,168,69230,2,0,L|60:148,2,45,8|0|2,0:0|0:0|0:0,0:0:0:0:
180,168,69734,2,0,P|168:120|136:92,1,90,4|2,0:0|0:0,0:0:0:0:
80,40,70238,2,0,L|32:44,2,45,12|0|2,0:0|0:0|0:0,0:0:0:0:
180,32,70743,6,0,P|232:88|252:192,1,180,4|8,0:0|0:0,0:0:0:0:
220,260,71499,1,2,0:0:0:0:
220,260,71751,2,0,P|264:268|308:248,1,90,4|2,0:0|0:0,0:0:0:0:
376,284,72255,2,0,P|384:240|364:196,1,90,12|2,0:0|0:0,0:0:0:0:
328,120,72759,6,0,P|368:136|420:120,1,90,6|2,0:0|0:0,0:0:0:0:
372,52,73264,2,0,P|280:56|248:136,2,180,12|4|12,0:0|0:0|0:0,0:0:0:0:
452,52,74524,1,2,0:0:0:0:
488,124,74776,6,0,P|500:192|452:288,1,180,4|8,0:0|0:0,0:0:0:0:
384,248,75532,2,0,P|372:296|388:336,1,90,2|4,0:0|0:0,0:0:0:0:
460,364,76037,1,2,0:0:0:0:
452,288,76289,2,0,P|452:200|376:168,1,180,8|4,0:0|0:0,0:0:0:0:
324,112,77045,6,0,L|316:64,2,45,2|0|8,0:0|0:0|0:0,0:0:0:0:
256,148,77549,2,0,L|256:240,1,90,2|4,0:0|0:0,0:0:0:0:
188,272,78053,2,0,L|196:320,2,45,2|0|12,0:0|0:0|0:0,0:0:0:0:
135,216,78558,1,2,0:0:0:0:
48,216,78810,6,0,P|72:156|180:136,2,180,4|4|6,0:0|0:0|0:0,0:0:0:0:
60,296,80070,1,2,0:0:0:0:
124,344,80322,2,0,L|100:384,2,45,8|2|2,0:0|0:0|0:0,0:0:0:0:
208,352,80827,6,0,P|256:364|308:348,1,101.250003862381,2|2,0:0|0:0,0:0:0:0:
256,264,81583,2,0,B|220:208|256:152|256:152|304:84|256:8,1,270.000010299683,6|0,0:0|0:0,0:0:0:0:
256,192,82843,12,0,87885,0:0:0:0:
