osu file format v14

[General]
AudioFilename: Imai Asami - Asayake no Starmine ED.mp3
AudioLeadIn: 1000
PreviewTime: 44702
Countdown: 0
SampleSet: Soft
StackLeniency: 0.7
Mode: 0
LetterboxInBreaks: 0
WidescreenStoryboard: 0

[Editor]
Bookmarks: 15943
DistanceSpacing: 1
BeatDivisor: 4
GridSize: 4
TimelineZoom: 1

[Metadata]
Title:Asayake no Starmine (Anime Ver.)
TitleUnicode:朝焼けのスターマイン(アニメVer.)
Artist:Imai Asami
ArtistUnicode:今井麻美
Creator:SoGa
Version:Normal
Source:プラスティック・メモリーズ
Tags:Plastic Memories plamemo ending xxdeathx
BeatmapID:710970
BeatmapSetID:319424

[Difficulty]
HPDrainRate:4
CircleSize:3
OverallDifficulty:4
ApproachRate:4
SliderMultiplier:1.2
SliderTickRate:1

[Events]
//Background and Video events
Video,28,"PM Ed.avi"
0,0,"SoGa.jpg",0,0
//Break Periods
//Storyboard Layer 0 (Background)
//Storyboard Layer 1 (Fail)
//Storyboard Layer 2 (Pass)
//Storyboard Layer 3 (Foreground)
//Storyboard Sound Samples

[TimingPoints]
-644,461.538461538462,4,2,69,50,1,0
41817,-100,4,2,69,50,0,0
45509,-100,4,2,69,50,0,1
75048,-100,4,2,69,50,0,0
82432,-100,4,2,69,30,0,0

[Colours]
Combo1 : 255,179,102
Combo2 : 156,156,156
Combo3 : 174,190,255
Combo4 : 244,226,102
Combo5 : 111,136,236

[HitObjects]
60,44,1202,6,0,L|64:164,1,120,4|2,0:0|0:0,0:0:0:0:
176,124,2125,2,0,L|172:248,1,120,2|2,0:0|0:0,0:0:0:0:
280,300,3048,2,0,P|340:292|404:308,2,120,2|2|2,0:0|0:0|0:0,0:0:0:0:
172,356,4432,1,2,0:0:0:0:
56,328,4894,6,0,L|56:196,1,120,2|2,0:0|0:0,0:0:0:0:
176,216,5817,2,0,L|176:84,1,120,2|2,0:0|0:0,0:0:0:0:
296,80,6740,2,0,P|356:92|416:76,2,120,2|2|8,0:0|0:0|0:0,0:0:0:0:
176,96,8124,1,8,0:0:0:0:
268,176,8586,6,0,L|296:292,1,120,4|8,0:0|0:0,0:0:0:0:
408,340,9509,2,0,L|420:220,1,120,2|8,0:0|0:0,0:0:0:0:
368,112,10432,2,0,P|428:104|492:124,2,120,2|8|2,0:0|0:0|0:0,0:0:0:0:
268,176,11816,1,8,0:0:0:0:
180,256,12278,6,0,P|132:268|60:256,1,120,2|8,0:0|0:0,0:0:0:0:
36,140,13201,2,0,L|172:128,1,120,2|8,0:0|0:0,0:0:0:0:
268,176,14125,2,0,P|328:188|388:168,2,120,8|8|8,0:0|0:0|0:0,0:0:0:0:
320,68,15508,1,8,0:0:0:0:
444,80,15971,5,4,0:0:0:0:
476,196,16432,2,0,B|484:280|484:280|468:328,1,120,0|2,0:0|0:0,0:0:0:0:
352,304,17355,2,0,P|316:300|288:304,1,60,0|0,0:0|0:0,0:0:0:0:
244,340,17817,2,0,P|180:352|120:336,1,120,2|0,0:0|0:0,0:0:0:0:
40,260,18740,1,2,0:0:0:0:
104,160,19202,1,0,0:0:0:0:
208,116,19663,6,0,P|268:104|328:120,1,120,2|0,0:0|0:0,0:0:0:0:
404,208,20586,1,2,0:0:0:0:
440,320,21048,2,0,P|412:324|360:316,1,60,0|0,0:0|0:0,0:0:0:0:
324,308,21509,2,0,P|260:296|200:308,1,120,2|2,0:0|0:0,0:0:0:0:
96,352,22432,1,0,0:0:0:0:
12,268,22894,1,2,0:0:0:0:
116,208,23355,5,2,0:0:0:0:
20,136,23817,2,0,B|8:92|8:92|24:16,1,120,0|2,0:0|0:0,0:0:0:0:
124,92,24740,2,0,P|152:96|184:92,1,60,0|0,0:0|0:0,0:0:0:0:
232,56,25201,2,0,B|248:88|248:88|236:176,1,120,2|0,0:0|0:0,0:0:0:0:
116,208,26124,1,0,0:0:0:0:
52,308,26586,1,0,0:0:0:0:
172,308,27048,5,0,0:0:0:0:
292,328,27509,1,0,0:0:0:0:
348,308,27740,2,0,P|376:292|472:276,2,120
292,328,28894,2,0,P|276:316|260:216,1,120,2|0,0:0|0:0,0:0:0:0:
168,136,29817,2,0,L|168:72,2,60,2|0|8,0:0|0:0|0:0,0:0:0:0:
120,172,30509,1,8,0:3:0:0:
80,216,30740,6,0,P|64:280|80:340,1,120,4|8,0:0|0:0,0:0:0:0:
188,372,31663,1,2,0:0:0:0:
300,336,32125,2,0,L|300:268,1,60,8|2,0:0|0:0,0:0:0:0:
296,244,32586,2,0,P|352:232|416:252,2,120,0|8|0,0:0|0:0|0:0,0:0:0:0:
180,268,33971,2,0,P|148:276|120:268,1,60,8|0,0:0|0:0,0:0:0:0:
76,232,34432,6,0,L|76:92,1,120,2|8,0:0|0:0,0:0:0:0:
184,60,35356,1,2,0:0:0:0:
276,136,35817,1,0,0:0:0:0:
276,136,36048,1,0,0:0:0:0:
276,136,36278,2,0,P|332:124|392:140,2,120,2|8|0,0:0|0:0|0:0,0:0:0:0:
212,236,37663,2,0,L|224:296,1,60,8|0,0:0|0:0,0:0:0:0:
264,340,38125,6,0,P|324:352|384:336,2,120,2|8|2,0:0|0:0|0:0,0:0:0:0:
212,236,39509,2,0,P|176:232|152:236,1,60,8|0,0:0|0:0,0:0:0:0:
92,236,39971,2,0,P|72:156|52:112,1,120,2|8,0:0|0:0,0:0:0:0:
36,4,40894,1,2,0:0:0:0:
144,56,41356,1,0,0:0:0:0:
264,68,41817,6,0,B|309:50|340:48|368:48|428:68|428:68|448:120|452:184|448:232|432:272|412:296|368:308,1,420,12|12,0:0|0:0,0:0:0:0:
284,352,43894,2,0,B|216:328|148:348|148:348|40:204|188:92,1,420,2|4,0:3|0:0,0:0:0:0:
284,44,45971,6,0,P|348:48|412:72,1,120,8|2,0:0|0:0,0:0:0:0:
440,180,46894,2,0,P|444:220|444:252,1,60,8|0,0:0|0:0,0:0:0:0:
416,292,47355,2,0,P|360:300|292:288,2,120,2|8|2,0:0|0:0|0:0,0:0:0:0:
440,180,48740,2,0,P|408:172|372:172,1,60,8|0,0:0|0:0,0:0:0:0:
324,192,49201,6,0,P|256:200|204:188,1,120,2|8,0:0|0:0,0:0:0:0:
120,108,50125,2,0,P|100:140|92:168,1,60,2|0,0:0|0:0,0:0:0:0:
72,216,50586,2,8,P|84:252|84:280,1,60,8|0,0:0|0:0,0:0:0:0:
72,332,51048,2,0,B|108:344|108:344|212:340,1,120,2|8,0:0|0:0,0:0:0:0:
312,340,51971,2,0,B|393:343|393:343|429:331,1,120,2|8,0:0|0:0,0:0:0:0:
472,288,52663,1,0,0:0:0:0:
496,232,52894,6,0,B|504:184|504:184|496:108,1,120,2|8,0:0|0:0,0:0:0:0:
440,88,53586,1,2,0:0:0:0:
384,72,53817,2,0,B|340:60|340:60|256:68,1,120,0|8,0:0|0:0,0:0:0:0:
204,168,54740,2,0,P|144:176|86:164,1,120,2|8,0:0|0:0,0:0:0:0:
40,124,55432,2,0,L|40:248,2,120,2|0|0,0:0|0:0|0:0,0:0:0:0:
44,64,56586,5,2,0:0:0:0:
164,64,57048,1,8,0:0:0:0:
164,64,57279,2,0,L|304:64,1,120,2|0,0:0|0:0,0:0:0:0:
344,68,57971,2,0,P|348:92|348:132,1,60,8|2,0:0|0:0,0:0:0:0:
300,168,58432,1,4,0:0:0:0:
252,204,58663,2,0,P|188:216|128:200,1,120,8|8,0:0|0:0,0:0:0:0:
84,172,59355,2,0,L|88:304,1,120,2|8,0:0|0:0,0:0:0:0:
92,352,60048,1,0,0:0:0:0:
152,348,60278,6,0,P|212:336|272:348,1,120,4|8,0:0|0:0,0:0:0:0:
388,356,61202,1,0,0:0:0:0:
452,256,61663,2,0,B|456:224|456:224|448:192,1,60,8|0,0:0|0:0,0:0:0:0:
412,152,62125,2,0,P|360:132|284:132,1,120,2|8,0:0|0:0,0:0:0:0:
192,192,63048,1,2,0:0:0:0:
192,312,63509,2,0,L|108:312,1,60,8|0,0:0|0:0,0:0:0:0:
84,348,63971,6,0,P|100:300|84:232,1,120,2|8,0:0|0:0,0:0:0:0:
16,136,64894,2,0,P|0:88|16:20,1,120,0|8,0:0|0:0,0:0:0:0:
120,80,65817,2,0,B|240:116|284:76|284:76|336:116|472:92,1,360,2|8,0:0|0:0,0:0:0:0:
456,212,67663,6,0,P|400:200|328:212,1,120,2|8,0:0|0:0,0:0:0:0:
272,308,68586,2,0,P|208:320|152:304,1,120,0|8,0:0|0:0,0:0:0:0:
68,224,69509,2,0,P|56:164|72:104,1,120,2|8,0:0|0:0,0:0:0:0:
108,60,70202,1,2,0:0:0:0:
288,60,70894,2,0,P|297:97|296:132,1,60,8|2,0:0|0:0,0:0:0:0:
248,156,71355,6,0,P|236:224|244:284,1,120,4|8,0:0|0:0,0:0:0:0:
340,344,72278,1,0,0:0:0:0:
448,292,72740,2,0,L|444:224,1,60,12|0,0:0|0:0,0:0:0:0:
392,216,73202,2,0,P|400:152|392:96,1,120,4|8,0:0|0:0,0:0:0:0:
336,80,73894,1,0,0:0:0:0:
284,108,74125,2,0,P|224:116|164:108,1,120,2|8,0:0|0:0,0:0:0:0:
112,76,74817,1,8,0:3:0:0:
60,44,75048,6,0,L|64:164,1,120,4|8,0:0|0:0,0:0:0:0:
180,136,75971,2,0,L|176:260,1,120,2|8,0:0|0:0,0:0:0:0:
288,296,76894,2,0,P|348:288|412:304,2,120,2|8|2,0:0|0:0|0:0,0:0:0:0:
180,348,78278,1,8,0:0:0:0:
64,324,78740,6,0,L|64:192,1,120,2|8,0:0|0:0,0:0:0:0:
184,208,79663,2,0,L|184:76,1,120,2|8,0:0|0:0,0:0:0:0:
304,80,80586,2,0,P|364:92|424:76,2,120,8|8|8,0:0|0:0|0:0,0:0:0:0:
184,88,81970,1,8,0:0:0:0:
268,176,82432,6,0,L|296:292,1,120,2|0,0:0|0:0,0:0:0:0:
408,340,83355,2,0,L|420:220,1,120,0|0,0:0|0:0,0:0:0:0:
368,112,84278,2,0,P|428:104|492:124,2,120,2|0|2,0:0|0:0|0:0,0:0:0:0:
268,176,85662,1,0,0:0:0:0:
180,256,86124,6,0,P|132:268|60:256,1,120,2|0,0:0|0:0,0:0:0:0:
36,140,87047,2,0,L|172:128,1,120,2|0,0:0|0:0,0:0:0:0:
268,176,87971,1,2,0:0:0:0:
