osu file format v14

[General]
AudioFilename: Imai Asami - Asayake no Starmine ED.mp3
AudioLeadIn: 1000
PreviewTime: 44702
Countdown: 0
SampleSet: Soft
StackLeniency: 0.7
Mode: 0
LetterboxInBreaks: 0
WidescreenStoryboard: 0

[Editor]
Bookmarks: 15943
DistanceSpacing: 1.5
BeatDivisor: 2
GridSize: 4
TimelineZoom: 1

[Metadata]
Title:Asayake no Starmine (Anime Ver.)
TitleUnicode:朝焼けのスターマイン(アニメVer.)
Artist:Imai Asami
ArtistUnicode:今井麻美
Creator:SoGa
Version:Hard
Source:プラスティック・メモリーズ
Tags:Plastic Memories plamemo ending xxdeathx
BeatmapID:710998
BeatmapSetID:319424

[Difficulty]
HPDrainRate:5
CircleSize:4
OverallDifficulty:6
ApproachRate:7
SliderMultiplier:1.3
SliderTickRate:1

[Events]
//Background and Video events
Video,28,"PM Ed.avi"
0,0,"SoGa.jpg",0,0
//Break Periods
//Storyboard Layer 0 (Background)
//Storyboard Layer 1 (Fail)
//Storyboard Layer 2 (Pass)
//Storyboard Layer 3 (Foreground)
//Storyboard Sound Samples

[TimingPoints]
-644,461.538461538462,4,2,69,50,1,0
15971,-100,4,2,69,30,0,0
19202,-100,4,2,69,30,0,0
19663,-100,4,2,69,30,0,0
20125,-100,4,2,69,30,0,0
22894,-100,4,2,69,30,0,0
23817,-100,4,2,69,30,0,0
24740,-100,4,2,69,30,0,0
25663,-100,4,2,69,30,0,0
26586,-100,4,2,69,30,0,0
27048,-100,4,2,69,30,0,0
28663,-100,4,2,69,30,0,0
28894,-100,4,2,69,30,0,0
30740,-100,4,2,69,50,0,0
31432,-100,4,2,69,50,0,0
32125,-100,4,2,69,50,0,0
33971,-100,4,2,69,50,0,0
34432,-100,4,2,69,50,0,0
35125,-100,4,2,69,50,0,0
35355,-100,4,2,69,50,0,0
35586,-100,4,2,69,50,0,0
35817,-100,4,2,69,50,0,0
37202,-100,4,2,69,50,0,0
38125,-100,4,2,69,50,0,0
39509,-100,4,2,69,50,0,0
40432,-100,4,2,69,50,0,0
40663,-100,4,2,69,50,0,0
41355,-100,4,2,69,50,0,0
41817,-100,4,2,69,50,0,0
42509,-100,4,2,69,50,0,0
42740,-100,4,2,69,50,0,0
43894,-100,4,2,69,50,0,0
44125,-100,4,2,69,50,0,0
45509,-100,4,2,69,50,0,1
47817,-100,4,2,69,50,0,1
48278,-100,4,2,69,50,0,1
55663,-100,4,2,69,50,0,1
55894,-100,4,2,69,50,0,1
58663,-100,4,2,69,50,0,1
58778,-100,4,2,69,50,0,1
59125,-100,4,2,69,50,0,1
59240,-100,4,2,69,50,0,1
59586,-100,4,2,69,50,0,1
59702,-100,4,2,69,50,0,1
60278,-100,4,2,69,50,0,1
60971,-100,4,2,69,50,0,1
61663,-100,4,2,69,50,0,1
63048,-100,4,2,69,50,0,1
63509,-100,4,2,69,50,0,1
75048,-100,4,2,69,50,0,0
82432,-100,4,2,69,30,0,0
84278,-100,4,2,69,30,0,0
84740,-100,4,2,69,30,0,0
85202,-100,4,2,69,30,0,0
85663,-100,4,2,69,30,0,0
87971,-100,4,2,69,30,0,0

[Colours]
Combo1 : 255,179,102
Combo2 : 156,156,156
Combo3 : 174,190,255
Combo4 : 244,226,102
Combo5 : 111,136,236

[HitObjects]
104,120,1203,6,0,P|168:108|236:124,1,130,4|2,0:0|0:0,0:0:0:0:
288,200,1895,1,0,0:0:0:0:
232,280,2126,2,0,P|164:292|104:280,1,130,2|2,0:0|0:0,0:0:0:0:
48,200,2818,1,0,0:0:0:0:
104,120,3049,6,0,P|136:124|180:108,1,65,2|0,0:0|0:0,0:0:0:0:
264,100,3510,2,0,L|268:32,1,65,2|0,0:0|0:0,0:0:0:0:
360,72,3972,2,0,P|391:63|423:67,1,65,2|0,0:0|0:0,0:0:0:0:
448,156,4433,2,0,L|444:224,1,65,2|0,0:0|0:0,0:0:0:0:
364,320,4895,6,0,P|352:260|348:190,1,130,2|2,0:0|0:0,0:0:0:0:
304,104,5587,1,0,0:0:0:0:
252,184,5818,2,0,P|160:192|116:188,1,130,2|2,0:0|0:0,0:0:0:0:
68,108,6510,1,0,0:0:0:0:
28,196,6741,6,0,P|40:236|60:256,1,65,2|0,0:0|0:0,0:0:0:0:
168,224,7202,2,0,L|176:160,1,65,2|0,0:0|0:0,0:0:0:0:
292,160,7664,2,0,L|304:236,1,65,8|0,0:0|0:0,0:0:0:0:
416,248,8126,2,0,P|436:222|443:191,1,65,8|8,0:0|0:3,0:0:0:0:
284,68,8587,6,0,P|224:96|200:152,1,130,4|8,0:0|0:0,0:0:0:0:
180,272,9279,1,0,0:0:0:0:
280,204,9510,2,0,P|340:192|408:208,1,130,2|8,0:0|0:0,0:0:0:0:
488,280,10202,1,0,0:0:0:0:
412,360,10433,6,0,L|347:356,1,65,2|0,0:0|0:0,0:0:0:0:
220,288,10894,2,0,L|285:288,1,65,8|0,0:0|0:0,0:0:0:0:
168,360,11356,2,0,L|103:357,1,65,2|0,0:0|0:0,0:0:0:0:
32,260,11817,2,0,L|96:263,1,65,8|0,0:0|0:0,0:0:0:0:
220,158,12279,6,0,P|223:222|219:287,1,130,2|8,0:0|0:0,0:0:0:0:
352,276,12971,1,0,0:0:0:0:
436,176,13203,6,0,P|431:111|435:46,1,130,2|8,0:0|0:0,0:0:0:0:
324,28,13894,1,0,0:0:0:0:
212,56,14125,6,0,P|220:88|240:112,1,65,8|0,0:0|0:0,0:0:0:0:
324,184,14586,2,0,L|268:224,1,65,8|0,0:0|0:0,0:0:0:0:
156,316,15048,2,0,P|184:312|224:316,1,65,8|0,0:0|0:0,0:0:0:0:
368,372,15509,2,0,L|296:372,1,65,8|0,0:0|0:0,0:0:0:0:
360,268,15972,6,0,P|420:260|500:272,1,130,4|0,0:0|0:0,0:0:0:0:
424,368,16664,1,0,0:0:0:0:
288,304,16895,2,0,P|280:272|288:236,1,65,2|0,0:0|0:0,0:0:0:0:
224,172,17356,2,0,P|231:140|226:108,1,65,0|0,0:0|0:0,0:0:0:0:
96,44,17818,6,0,B|77:111|77:111|76:184,1,130,2|0,0:0|0:0,0:0:0:0:
20,252,18510,1,0,0:0:0:0:
92,316,18741,1,2,0:0:0:0:
160,244,18972,1,0,0:0:0:0:
228,316,19203,2,0,L|293:316,1,65,0|0,0:0|0:0,0:0:0:0:
380,352,19664,6,0,B|393:311|372:264|372:264|380:200,1,130,2|0,0:0|0:0,0:0:0:0:
464,184,20356,1,0,0:0:0:0:
400,112,20587,2,0,L|308:112,1,65,2|0,0:0|0:0,0:0:0:0:
224,184,21049,2,0,L|304:180,1,65,0|0,0:0|0:0,0:0:0:0:
135,120,21510,6,0,P|120:182|133:245,1,130,2|2,0:0|0:0,0:0:0:0:
312,340,22433,1,0,0:0:0:0:
312,340,22664,2,0,L|312:272,2,65,0|2|0,0:0|0:0|0:0,0:0:0:0:
404,264,23356,6,0,P|404:164|408:124,1,130,2|0,0:0|0:0,0:0:0:0:
340,64,24049,1,0,0:0:0:0:
292,148,24279,2,0,L|224:144,1,65,2|0,0:0|0:0,0:0:0:0:
160,76,24741,1,0,0:0:0:0:
88,140,24972,1,0,0:0:0:0:
84,236,25203,5,2,0:0:0:0:
172,280,25433,1,0,0:0:0:0:
268,224,25664,2,0,L|340:224,1,65,0|0,0:0|0:0,0:0:0:0:
436,316,26126,2,0,L|300:320,1,130,0|0,0:0|0:0,0:0:0:0:
220,364,26818,1,0,0:0:0:0:
144,304,27049,6,0,P|152:248|144:160,1,130,2|0,0:0|0:0,0:0:0:0:
92,96,27741,1,2,0:0:0:0:
188,84,27972,2,0,P|240:92|324:80,1,130,0|0,0:0|0:0,0:0:0:0:
408,44,28664,1,2,0:0:0:0:
408,44,28779,1,0,0:0:0:0:
408,44,28895,6,0,L|404:112,1,65,2|0,0:0|0:0,0:0:0:0:
340,224,29356,2,0,L|336:148,1,65,0|0,0:0|0:0,0:0:0:0:
420,260,29818,2,0,L|416:328,1,65,2|0,0:0|0:0,0:0:0:0:
300,348,30279,2,0,L|300:380,2,32.5,8|8|8,0:0|0:0|0:3,0:0:0:0:
224,272,30741,6,0,P|172:268|144:272,1,65,4|0,0:0|0:0,0:0:0:0:
92,340,31203,1,8,0:0:0:0:
32,264,31433,2,0,P|36:200|28:132,1,130,2|0,0:0|0:0,0:0:0:0:
116,88,32126,2,0,P|150:93|192:84,1,65,8|2,0:0|0:0,0:0:0:0:
268,44,32587,6,0,P|260:88|264:176,1,130,0|8,0:0|0:0,0:0:0:0:
336,240,33279,1,2,0:0:0:0:
408,176,33510,2,0,P|438:171|484:176,1,65,0|0,0:0|0:0,0:0:0:0:
444,264,33972,2,0,P|404:268|376:260,1,65,8|0,0:0|0:0,0:0:0:0:
308,196,34433,5,2,0:0:0:0:
232,256,34664,1,0,0:0:0:0:
304,320,34895,1,8,0:0:0:0:
212,352,35126,2,0,L|144:348,1,65,2|0,0:0|0:0,0:0:0:0:
48,264,35587,2,0,L|116:260,1,65,0|8,0:0|0:0,0:0:0:0:
172,184,36049,1,0,0:0:0:0:
260,148,36279,6,0,L|260:80,1,65,2|0,0:0|0:0,0:0:0:0:
352,144,36741,2,0,P|388:140|436:144,1,65,8|0,0:0|0:0,0:0:0:0:
452,224,37203,1,0,0:0:0:0:
452,224,37433,1,2,0:0:0:0:
452,224,37664,2,0,L|452:288,1,65,8|0,0:0|0:0,0:0:0:0:
336,274,38126,6,0,L|336:138,1,130,2|8,0:0|0:0,0:0:0:0:
83,108,39049,1,2,0:0:0:0:
112,201,39279,1,0,0:0:0:0:
208,204,39510,1,8,0:0:0:0:
248,116,39741,1,0,0:0:0:0:
164,52,39972,6,0,L|160:181,1,130,2|8,0:0|0:0,0:0:0:0:
100,264,40664,2,0,P|160:284|224:260,1,130,2|0,0:0|0:0,0:0:0:0:
264,172,41356,2,0,P|296:168|344:172,1,65,8|0,0:0|0:0,0:0:0:0:
332,268,41818,6,0,L|344:348,1,65,12|0,0:0|0:0,0:0:0:0:
436,356,42279,1,0,0:0:0:0:
464,196,42510,2,0,L|452:260,1,65,8|0,0:0|0:0,0:0:0:0:
368,152,42972,1,4,0:3:0:0:
496,100,43203,2,0,L|436:76,1,65,8|12,0:0|0:0,0:0:0:0:
264,172,43895,5,2,0:3:0:0:
264,172,44010,1,8,0:3:0:0:
264,172,44126,2,0,P|228:184|204:204,1,65,8|0,0:0|0:0,0:0:0:0:
276,264,44587,2,0,P|279:296|272:327,1,65,8|2,0:0|0:0,0:0:0:0:
176,288,45049,2,0,P|146:275|122:252,1,65,8|0,0:0|0:0,0:0:0:0:
80,164,45510,6,0,P|116:124|128:48,1,130,4|8,0:0|0:0,0:0:0:0:
40,80,46203,1,0,0:0:0:0:
196,108,46433,2,0,P|228:104|276:108,1,65,2|0,0:0|0:0,0:0:0:0:
316,200,46895,2,0,P|284:204|252:200,1,65,8|0,0:0|0:0,0:0:0:0:
392,140,47356,6,0,P|410:202|392:264,2,130,2|8|2,0:0|0:0|0:0,0:0:0:0:
316,84,48510,1,0,0:0:0:0:
316,84,48741,2,0,L|236:80,1,65,8|0,0:0|0:0,0:0:0:0:
152,92,49203,6,0,B|108:120|108:120|108:212,1,130,2|8,0:0|0:0,0:0:0:0:
208,216,49895,1,0,0:0:0:0:
304,245,50126,2,0,L|304:180,1,65,2|0,0:0|0:0,0:0:0:0:
396,216,50587,1,8,0:0:0:0:
464,284,50818,1,0,0:0:0:0:
364,320,51049,6,0,P|304:340|236:312,1,130,2|8,0:0|0:0,0:0:0:0:
87,214,51972,2,0,P|147:194|215:222,1,130,2|8,0:0|0:0,0:0:0:0:
304,245,52664,1,0,0:0:0:0:
384,192,52895,6,0,P|380:164|384:128,1,65,2|0,0:0|0:0,0:0:0:0:
444,48,53356,1,8,0:0:0:0:
444,48,53587,2,0,P|376:32|316:56,1,130,2|0,0:0|0:0,0:0:0:0:
260,136,54279,2,0,P|228:140|196:136,1,65,8|0,0:0|0:0,0:0:0:0:
112,172,54741,6,0,P|108:108|148:56,2,130,2|8|0,0:0|0:0|0:0,0:0:0:0:
192,224,55895,2,0,P|224:220|260:224,2,65,0|8|0,0:0|0:0|0:0,0:0:0:0:
160,316,56587,6,0,P|191:322|224:316,1,65,2|0,0:0|0:0,0:0:0:0:
312,272,57049,1,8,0:0:0:0:
400,316,57279,2,0,L|408:388,1,65,2|0,0:0|0:0,0:0:0:0:
464,260,57741,1,0,0:0:0:0:
464,260,57972,2,0,L|468:196,1,65,8|2,0:0|0:0,0:0:0:0:
396,128,58433,5,4,0:0:0:0:
304,156,58664,2,0,P|282:144|264:140,2,32.5,8|0|8,0:0|0:0|0:3,0:0:0:0:
232,220,59126,2,0,L|184:208,2,32.5,8|0|2,0:0|0:0|0:0,0:0:0:0:
188,308,59587,2,0,P|164:304|140:304,2,32.5,0|0|8,0:0|0:0|0:0,0:0:0:0:
296,384,60049,1,0,0:0:0:0:
296,384,60164,1,0,0:0:0:0:
296,384,60279,6,0,B|320:376|344:384|344:384|360:336|352:296,1,130,4|8,0:0|0:0,0:0:0:0:
280,236,60972,1,0,0:0:0:0:
384,212,61203,1,2,0:0:0:0:
384,212,61433,1,0,0:0:0:0:
384,212,61664,2,0,P|388:168|380:128,1,65,8|0,0:0|0:0,0:0:0:0:
296,176,62126,6,0,P|232:188|168:172,2,130,2|8|2,0:0|0:0|0:0,0:0:0:0:
436,48,63510,1,8,0:0:0:0:
436,48,63972,6,0,L|436:200,1,130,2|8,0:0|0:0,0:0:0:0:
404,300,64664,1,2,0:0:0:0:
295,305,64895,2,0,L|295:175,1,130,0|8,0:0|0:0,0:0:0:0:
244,72,65587,1,0,0:0:0:0:
140,64,65818,6,0,L|140:204,1,130,2|8,0:0|0:0,0:0:0:0:
80,268,66510,2,0,P|140:288|204:268,1,130,2|0,0:0|0:0,0:0:0:0:
268,196,67203,2,0,P|300:188|332:188,1,65,8|0,0:0|0:0,0:0:0:0:
404,256,67664,6,0,P|392:212|396:104,1,130,2|8,0:0|0:0,0:0:0:0:
460,56,68356,2,0,P|406:66|308:56,1,130,2|0,0:0|0:0,0:0:0:0:
248,16,69049,2,0,P|236:52|236:92,1,65,8|0,0:0|0:0,0:0:0:0:
288,160,69510,6,0,P|285:192|274:222,1,65,2|0,0:0|0:0,0:0:0:0:
176,236,69972,1,8,0:0:0:0:
84,312,70203,2,0,P|61:251|69:188,1,130,2|0,0:0|0:0,0:0:0:0:
144,100,70895,2,0,L|196:152,1,65,8|2,0:0|0:0,0:0:0:0:
252,244,71356,6,0,P|312:263|376:244,1,130,4|8,0:0|0:0,0:0:0:0:
432,160,72049,1,2,0:0:0:0:
360,92,72279,2,0,L|352:36,2,32.5,0|0|8,0:0|0:0|0:3,0:0:0:0:
312,172,72741,2,0,L|236:168,1,65,12|0,0:0|0:0,0:0:0:0:
172,104,73203,6,0,L|92:100,1,65,4|2,0:0|0:0,0:0:0:0:
152,188,73664,2,0,L|156:252,1,65,8|0,0:0|0:0,0:0:0:0:
72,304,74126,1,2,0:0:0:0:
120,384,74356,1,0,0:0:0:0:
216,372,74586,1,8,0:0:0:0:
252,280,74818,1,8,0:3:0:0:
312,200,75049,6,0,P|380:184|440:200,1,130,4|8,0:0|0:0,0:0:0:0:
376,304,75741,1,0,0:0:0:0:
248,348,75972,2,0,P|184:356|120:348,1,130,2|8,0:0|0:0,0:0:0:0:
40,236,76664,1,0,0:0:0:0:
104,120,76895,6,0,P|136:124|180:108,1,65,2|0,0:0|0:0,0:0:0:0:
264,100,77356,2,0,L|268:32,1,65,8|0,0:0|0:0,0:0:0:0:
360,72,77818,2,0,P|391:63|423:67,1,65,2|0,0:0|0:0,0:0:0:0:
448,156,78279,2,0,L|444:224,1,65,8|0,0:0|0:0,0:0:0:0:
364,320,78741,6,0,P|352:260|348:190,1,130,2|8,0:0|0:0,0:0:0:0:
304,104,79433,1,0,0:0:0:0:
252,184,79664,2,0,P|160:192|116:188,1,130,2|8,0:0|0:0,0:0:0:0:
68,108,80356,1,0,0:0:0:0:
28,196,80587,6,0,P|40:236|60:256,1,65,8|0,0:0|0:0,0:0:0:0:
168,224,81048,2,0,L|176:160,1,65,8|0,0:0|0:0,0:0:0:0:
292,160,81510,2,0,L|304:236,1,65,8|0,0:0|0:0,0:0:0:0:
416,248,81972,2,0,P|436:222|443:191,1,65,8|0,0:0|0:0,0:0:0:0:
284,68,82432,6,0,P|224:96|200:152,1,130,2|0,0:0|0:0,0:0:0:0:
236,288,83356,2,0,P|298:265|354:288,1,130,2|0,0:0|0:0,0:0:0:0:
180,224,84279,6,0,P|144:228|116:224,1,65,2|0,0:0|0:0,0:0:0:0:
44,156,84741,2,0,P|40:116|44:88,1,65,0|0,0:0|0:0,0:0:0:0:
128,44,85202,2,0,P|166:41|193:47,1,65,2|0,0:0|0:0,0:0:0:0:
260,120,85663,2,0,P|262:160|260:192,1,65,0|0,0:0|0:0,0:0:0:0:
236,288,86125,6,0,P|298:265|354:288,1,130,2|0,0:0|0:0,0:0:0:0:
464,168,87048,2,0,P|441:108|463:49,1,130,2|0,0:0|0:0,0:0:0:0:
272,48,87972,5,2,0:0:0:0:
