osu file format v14

[General]
AudioFilename: Isami Imai - Asayake no Starmine.mp3
AudioLeadIn: 0
PreviewTime: 44932
Countdown: 1
SampleSet: None
StackLeniency: 0.2
Mode: 0
LetterboxInBreaks: 1
WidescreenStoryboard: 1

[Editor]
DistanceSpacing: 1
BeatDivisor: 4
GridSize: 4
TimelineZoom: 1

[Metadata]
Title:Asayake no Starmine [TV Size]
TitleUnicode:Asayake no Starmine [TV Size]
Artist:Imai Asami
ArtistUnicode:Imai Asami
Creator:aldo20
Version:Lost in Memories
Source:Plastic Memories
Tags:plastic memories plamemo ending ed プラスティック・メモリーズ
BeatmapID:713622
BeatmapSetID:316581

[Difficulty]
HPDrainRate:6
CircleSize:4
OverallDifficulty:8
ApproachRate:9
SliderMultiplier:1.5
SliderTickRate:2

[Events]
//Background and Video events
0,0,"Plastic Memories.jpg",0,0
Video,0,"Isami Imai - Asayake no Starmine.avi"
//Break Periods
//Storyboard Layer 0 (Background)
//Storyboard Layer 1 (Fail)
//Storyboard Layer 2 (Pass)
//Storyboard Layer 3 (Foreground)
//Storyboard Sound Samples

[TimingPoints]
1133,459.025279744235,4,2,0,70,1,0
6602,-100,4,2,0,70,0,0
7651,-100,4,3,0,70,0,0
7958,-100,4,3,0,70,0,0
8501,461.319528196015,4,2,0,70,1,0
8951,-100,4,3,0,70,0,0
9176,-100,4,2,0,70,0,0
9877,-100,4,3,0,70,0,0
10082,-100,4,2,0,70,0,0
10802,-100,4,3,0,70,0,0
11027,-100,4,2,0,70,0,0
11722,-100,4,3,0,70,0,0
11927,-100,4,2,0,70,0,0
12623,-100,4,3,0,70,0,0
13072,-100,4,2,0,70,0,0
13510,-100,4,3,0,70,0,0
13794,-100,4,3,0,70,0,0
15917,458.100183360073,4,2,0,70,1,0
19674,-100,4,2,0,70,0,0
23270,461.389181357162,4,2,0,70,1,0
30307,-100,4,3,0,70,0,0
30646,-100,4,2,0,70,0,0
34086,-100,4,3,0,70,0,0
34089,-100,4,2,0,70,0,0
34336,-100,4,2,0,70,0,0
34781,-100,4,3,0,70,0,0
35012,-100,4,2,0,70,0,0
35016,-100,4,2,0,70,0,0
35713,-100,4,3,0,70,0,0
35938,-100,4,2,0,70,0,0
36638,-100,4,3,0,70,0,0
36868,-100,4,2,0,70,0,0
37535,-100,4,2,0,70,0,0
37543,-100,4,3,0,70,0,0
37801,-100,4,2,0,70,0,0
38471,-100,4,3,0,70,0,0
38681,-100,4,2,0,70,0,0
39395,-100,4,3,0,70,0,0
39635,-100,4,2,0,70,0,0
40335,-100,4,3,0,70,0,0
40571,-100,4,2,0,70,0,0
41455,-100,4,3,0,70,0,0
42180,-100,4,3,0,70,0,0
42396,-100,4,2,0,70,0,0
42851,-100,4,3,0,70,0,0
43106,-100,4,2,0,70,0,0
43763,-100,4,3,0,70,0,0
45098,-100,4,2,0,70,0,1
45859,-100,4,3,0,70,0,1
46044,-100,4,2,0,70,0,1
46300,-100,4,3,0,70,0,1
46535,-100,4,2,0,70,0,1
46787,-100,4,3,0,70,0,1
46987,-100,4,2,0,70,0,1
47261,-100,4,3,0,70,0,1
47436,-100,4,2,0,70,0,1
47701,-100,4,3,0,70,0,1
47896,-100,4,2,0,70,0,1
48164,-100,4,3,0,70,0,1
48414,-100,4,2,0,70,0,1
48626,-100,4,3,0,70,0,1
48841,-100,4,2,0,70,0,1
49100,-100,4,3,0,70,0,1
49336,-100,4,2,0,70,0,1
49530,-100,4,3,0,70,0,1
49770,-100,4,2,0,70,0,1
50020,-100,4,3,0,70,0,1
50205,-100,4,2,0,70,0,1
50486,-100,4,3,0,70,0,1
50717,-100,4,2,0,70,0,1
51374,-100,4,3,0,70,0,1
51622,-100,4,2,0,70,0,1
52334,-100,4,3,0,70,0,1
52528,-100,4,2,0,70,0,1
53248,-100,4,3,0,70,0,1
53649,-100,4,2,0,70,0,1
54174,-100,4,3,0,70,0,1
54594,-100,4,2,0,70,0,1
55084,-100,4,3,0,70,0,1
56476,-100,4,2,0,70,0,1
56946,-100,4,3,0,70,0,1
57146,-100,4,2,0,70,0,1
57621,-100,4,3,0,70,0,1
57846,-100,4,2,0,70,0,1
58495,-100,4,3,0,70,0,1
60219,461.089181357162,4,2,0,70,1,0
60529,-100,4,2,0,70,0,1
60677,-100,4,3,0,70,0,1
60857,-100,4,2,0,70,0,1
61570,-100,4,3,0,70,0,1
61795,-100,4,2,0,70,0,1
66188,-100,4,3,0,70,0,1
66394,-100,4,2,0,70,0,1
67076,-100,4,3,0,70,0,1
67321,-100,4,2,0,70,0,1
68037,-100,4,3,0,70,0,1
68184,-100,4,3,0,70,0,1
68253,-100,4,2,0,70,0,1
68930,-100,4,3,0,70,0,1
69139,-100,4,2,0,70,0,1
69832,-100,4,3,0,70,0,1
70007,-100,4,2,0,70,0,1
70785,-100,4,3,0,70,0,1
70995,-100,4,2,0,70,0,1
71626,-100,4,3,0,70,0,1
73483,-100,4,2,0,70,0,1
74480,-100,4,3,0,70,0,1
75198,-100,4,2,0,70,0,1
77433,-100,4,3,0,70,0,1
77702,-100,4,2,0,70,0,1
78126,-100,4,3,0,70,0,1
79070,-100,4,2,0,70,0,1
80006,-100,4,3,0,70,0,1
80446,-100,4,2,0,70,0,1
81362,-100,4,3,0,70,0,1
82238,-100,4,2,0,70,0,0

[Colours]
Combo1 : 173,131,197
Combo2 : 0,202,0
Combo3 : 18,124,255
Combo4 : 242,24,57
Combo5 : 255,255,0
Combo6 : 45,11,60

[HitObjects]
100,76,1133,5,0,0:0:0:0:
416,312,1362,1,0,0:0:0:0:
112,312,1592,1,0,0:0:0:0:
424,84,1821,1,0,0:0:0:0:
260,316,2051,1,0,0:0:0:0:
256,60,2280,1,0,0:0:0:0:
260,192,2510,2,2,L|340:228,1,75
60,64,2969,5,0,0:0:0:0:
260,192,3198,1,0,0:0:0:0:
452,336,3428,1,0,0:0:0:0:
448,64,3657,1,0,0:0:0:0:
184,213,3887,6,0,L|280:185,1,75
448,332,4346,1,2,0:0:0:0:
256,192,4575,1,2,0:0:0:0:
372,184,4805,6,2,B|416:192|440:192|432:192,4,37.5
256,184,5493,1,0,0:0:0:0:
280,280,5723,6,2,B|218:257|232:296|240:288,4,37.5
216,164,6411,1,0,0:0:0:0:
100,140,6641,6,0,B|155:92|188:96|184:96,5,75
263,199,8018,1,8,0:0:0:0:
263,199,8133,1,8,0:0:0:0:
263,199,8247,1,8,0:0:0:0:
440,72,8501,6,0,L|412:24,2,37.5
256,40,8962,1,4,0:0:0:0:
256,260,9077,1,0,0:0:0:0:
256,160,9192,1,0,0:0:0:0:
96,328,9423,2,0,L|60:272,2,37.5
260,316,9884,1,4,0:0:0:0:
260,36,10000,1,4,0:0:0:0:
256,192,10115,1,0,0:0:0:0:
80,60,10346,6,0,L|116:120,2,37.5
472,192,10807,1,4,0:0:0:0:
48,192,10922,1,0,0:0:0:0:
256,192,11038,1,0,0:0:0:0:
480,356,11268,2,0,L|416:352,2,37.5
480,192,11730,1,4,0:0:0:0:
36,192,11845,1,0,0:0:0:0:
256,192,11960,1,0,0:0:0:0:
352,104,12191,6,0,B|370:93|308:161|324:112,4,37.5
260,192,12883,1,0,0:0:0:0:
124,300,13114,6,0,B|142:289|152:244|128:256,4,37.5
256,192,13806,1,4,0:0:0:0:
112,64,14036,5,8,0:0:0:0:
224,144,14267,2,8,L|156:148,2,37.5
320,236,14844,1,8,0:0:0:0:
452,328,15190,1,8,0:0:0:0:
260,200,15420,1,8,0:0:0:0:
260,200,15536,1,8,0:0:0:0:
260,200,15651,1,8,0:0:0:0:
384,80,15882,6,0,L|488:84,1,75
376,180,16375,1,0,0:0:0:0:
252,188,16604,1,0,0:0:0:0:
128,280,16833,1,0,0:0:0:0:
24,276,17062,1,0,0:0:0:0:
156,216,17291,1,0,0:0:0:0:
324,208,17520,1,0,0:0:0:0:
464,92,17749,2,2,L|372:108,1,75
256,192,18207,1,0,0:0:0:0:
256,32,18436,1,0,0:0:0:0:
56,112,18665,2,2,L|134:116,1,75
256,188,19123,1,0,0:0:0:0:
256,356,19352,1,0,0:0:0:0:
252,208,19581,6,2,L|284:124,1,75
132,336,20039,1,0,0:0:0:0:
384,344,20268,1,0,0:0:0:0:
224,188,20498,2,2,L|305:189,1,75
136,52,20956,1,0,0:0:0:0:
380,52,21185,1,0,0:0:0:0:
260,188,21414,6,2,B|312:172|300:228|312:208,4,37.5
256,36,22101,1,0,0:0:0:0:
400,184,22330,6,2,B|375:161|339:220|352:184,4,37.5
256,192,23017,5,0,0:0:0:0:
92,184,23246,2,0,L|104:104,1,75
260,24,23731,1,0,0:0:0:0:
260,192,23962,1,0,0:0:0:0:
440,304,24077,2,0,L|448:360,1,37.5
256,344,24423,1,0,0:0:0:0:
256,192,24654,1,0,0:0:0:0:
64,52,24884,5,0,0:0:0:0:
148,84,25115,2,2,L|240:80,1,75
296,88,25576,1,0,0:0:0:0:
364,88,25807,1,0,0:0:0:0:
384,188,26027,6,2,B|416:204|483:235|456:235,2,75
256,84,26730,1,0,0:0:0:0:
260,264,26845,1,0,0:0:0:0:
464,340,26946,2,0,L|420:304,2,37.5
356,276,27422,5,0,0:0:0:0:
160,200,27653,1,0,0:0:0:0:
236,192,27883,2,0,L|350:190,1,75
372,256,28345,1,0,0:0:0:0:
436,320,28575,1,0,0:0:0:0:
256,324,28806,1,0,0:0:0:0:
256,128,29037,1,0,0:0:0:0:
48,124,29268,1,0,0:0:0:0:
48,304,29475,1,0,0:0:0:0:
136,296,29729,6,2,B|144:308|140:300|200:280,3,37.5
256,256,30306,1,12,0:0:0:0:
256,256,30421,1,12,0:0:0:0:
256,256,30536,1,12,0:0:0:0:
136,272,30652,6,2,B|110:244|108:184,1,75
144,120,31113,1,4,0:0:0:0:
256,192,31344,1,4,0:0:0:0:
368,264,31575,6,0,L|425:337,3,75
256,188,32497,1,0,0:0:0:0:
76,320,32613,1,0,0:0:0:0:
256,188,32728,1,0,0:0:0:0:
248,192,32959,2,2,B|181:205|188:112,1,75
136,236,33420,6,2,B|137:233|148:268|48:220,2,75
216,248,34112,1,0,0:0:0:0:
320,248,34343,1,0,0:0:0:0:
108,328,34574,6,0,B|5:312|20:328,1,75
260,184,35035,1,0,0:0:0:0:
396,40,35266,2,0,B|544:130|510:106,1,75
440,188,35727,5,4,0:0:0:0:
256,192,35958,1,0,0:0:0:0:
120,276,36188,2,2,B|71:305|24:218,1,75
96,184,36650,1,4,0:0:0:0:
260,188,36880,1,0,0:0:0:0:
368,320,37111,6,2,B|457:364|449:262,1,75
476,196,37573,1,4,0:0:0:0:
476,32,37803,1,0,0:0:0:0:
376,72,38039,6,0,B|296:100|304:80,1,75
472,148,38495,1,4,0:0:0:0:
256,188,38726,1,0,0:0:0:0:
248,344,38957,2,2,L|300:280,1,75
388,184,39418,1,4,0:0:0:0:
260,184,39649,1,0,0:0:0:0:
104,352,39880,6,0,B|-14:331|2:327,2,75
252,192,40572,1,0,0:0:0:0:
412,56,40798,2,0,B|452:105|356:88,3,75
256,192,41725,2,0,B|284:224|344:232,1,75
256,192,42186,1,4,0:0:0:0:
424,40,42417,2,2,B|433:88|537:83,1,75
260,184,42879,1,4,0:0:0:0:
128,328,43109,2,0,B|52:286|34:349,1,75
96,188,43801,6,8,B|18:169|30:171,1,37.5
184,136,44032,1,8,0:0:0:0:
296,224,44263,6,8,B|240:220|244:220,1,37.5
360,316,44494,1,8,0:0:0:0:
224,336,44724,6,8,B|212:324|272:320,1,37.5
152,248,44955,1,8,0:0:0:0:
256,188,45185,1,0,0:0:0:0:
376,220,45416,1,0,0:0:0:0:
484,220,45647,6,0,B|484:196|444:164,1,37.5
456,92,45878,1,4,0:0:0:0:
268,120,46108,6,0,B|236:132|232:148,1,37.5
112,200,46339,1,0,0:0:0:0:
276,288,46570,6,0,B|264:324|216:316,1,37.5
400,328,46800,1,4,0:0:0:0:
416,200,47031,6,0,B|400:184|360:200,1,37.5
252,176,47261,1,0,0:0:0:0:
96,188,47492,6,0,B|92:216|136:204,1,37.5
196,88,47723,1,4,0:0:0:0:
172,192,47954,1,0,0:0:0:0:
80,260,48070,1,2,0:0:0:0:
172,336,48185,1,0,0:0:0:0:
256,356,48415,6,0,B|268:321|252:292,1,37.5
256,232,48646,1,4,0:0:0:0:
272,32,48877,2,2,B|236:72|240:76,1,37.5
256,180,49108,1,0,0:0:0:0:
108,80,49338,1,0,0:0:0:0:
256,180,49453,1,0,0:0:0:0:
132,288,49568,1,4,0:0:0:0:
372,84,49799,1,0,0:0:0:0:
256,196,49914,1,0,0:0:0:0:
392,296,50030,1,0,0:0:0:0:
272,152,50261,5,0,0:0:0:0:
388,88,50376,2,0,B|326:62|328:80,1,37.5,0|4,0:0|0:0,0:0:0:0:
300,120,50722,5,0,0:0:0:0:
360,148,50838,1,0,0:0:0:0:
420,176,50953,1,0,0:0:0:0:
320,272,51184,6,0,B|328:208|352:220,1,37.5
216,296,51414,1,8,0:0:0:0:
212,212,51645,5,2,0:0:0:0:
260,172,51760,1,2,0:0:0:0:
304,120,51876,1,0,0:0:0:0:
400,200,52106,6,0,B|333:197|328:192,1,37.5
312,204,52337,1,8,0:0:0:0:
312,204,52568,5,0,0:0:0:0:
256,308,52683,1,0,0:0:0:0:
168,200,52798,1,0,0:0:0:0:
112,284,53029,6,0,B|76:252|72:228,1,37.5
76,184,53260,1,8,0:0:0:0:
120,100,53490,5,0,0:0:0:0:
192,72,53606,1,0,0:0:0:0:
272,52,53721,1,0,0:0:0:0:
292,88,53952,2,0,B|298:93|364:76,1,37.5
384,168,54183,1,8,0:0:0:0:
344,248,54413,5,0,0:0:0:0:
276,312,54529,1,0,0:0:0:0:
220,208,54644,1,0,0:0:0:0:
152,320,54875,6,0,B|200:304|168:268,1,37.5
80,248,55105,1,8,0:0:0:0:
84,148,55336,6,0,B|100:97|68:88,1,37.5
192,88,55567,1,0,0:0:0:0:
324,112,55797,5,0,0:0:0:0:
256,192,55913,1,0,0:0:0:0:
176,168,56028,1,8,0:0:0:0:
176,168,56259,1,8,0:0:0:0:
128,240,56490,6,2,B|140:284|174:306,1,75
240,300,56951,1,4,0:0:0:0:
328,164,57182,2,2,B|376:136|376:88,1,75
272,192,57643,1,4,0:0:0:0:
304,248,57874,2,4,B|296:188|248:192,1,75,4|2,0:0|0:0,0:0:0:0:
140,96,58566,5,8,0:0:0:0:
256,96,58681,1,8,0:0:0:0:
368,96,58796,1,8,0:0:0:0:
256,100,59027,1,8,0:0:0:0:
256,192,59143,1,8,0:0:0:0:
256,272,59258,1,8,0:0:0:0:
256,352,59373,1,8,0:0:0:0:
132,76,59719,1,8,0:0:0:0:
256,192,59835,1,8,0:0:0:0:
364,76,59950,1,8,0:0:0:0:
376,200,60065,1,8,0:0:0:0:
132,200,60181,1,8,0:0:0:0:
100,316,60449,5,0,0:0:0:0:
104,244,60680,1,4,0:0:0:0:
112,176,60910,2,2,B|136:168|164:124,1,75,0|2,0:0|0:0,0:0:0:0:
260,156,61371,1,0,0:0:0:0:
340,192,61602,1,4,0:0:0:0:
320,288,61832,2,2,B|296:312|244:256,1,75,0|2,0:0|0:0,0:0:0:0:
92,96,62293,1,0,0:0:0:0:
408,96,62524,1,4,0:0:0:0:
108,320,62754,1,0,0:0:0:0:
448,328,62985,1,4,0:0:0:0:
256,192,63216,1,0,0:0:0:0:
124,248,63445,6,6,B|168:184|264:192,1,150,4|6,0:0|0:0,0:0:0:0:
256,340,64138,1,0,0:0:0:0:
255,191,64364,2,2,B|267:219|247:247|201:248,2,75
256,84,65060,1,0,0:0:0:0:
255,191,65290,2,2,B|243:168|174:177|219:115,2,75
252,248,65982,1,0,0:0:0:0:
256,324,66213,1,0,0:0:0:0:
76,324,66443,5,0,0:0:0:0:
84,224,66664,2,0,B|72:176|80:144,1,75
92,292,67135,1,4,0:0:0:0:
164,352,67365,1,0,0:0:0:0:
208,240,67596,2,0,B|117:212|112:224,2,75
200,332,68288,1,0,0:0:0:0:
72,256,68503,6,0,B|100:320|140:352|128:328,2,75
108,192,69210,1,0,0:0:0:0:
252,192,69440,1,0,0:0:0:0:
388,192,69671,1,0,0:0:0:0:
380,192,69901,1,4,0:0:0:0:
256,196,70017,2,0,B|280:192|276:244,1,37.5
84,192,70362,1,0,0:0:0:0:
192,216,70593,1,0,0:0:0:0:
260,256,70802,1,4,0:0:0:0:
316,304,71054,1,0,0:0:0:0:
380,324,71262,1,0,0:0:0:0:
256,328,71746,5,8,0:0:0:0:
256,268,71976,1,8,0:0:0:0:
256,208,72207,1,8,0:0:0:0:
256,148,72322,1,8,0:0:0:0:
256,116,72437,1,8,0:0:0:0:
256,88,72668,1,8,0:0:0:0:
256,60,72898,1,8,0:0:0:0:
256,296,73129,1,8,0:0:0:0:
256,196,73590,1,2,0:0:0:0:
256,196,74051,6,0,B|200:208|164:204,1,75
181,204,74512,1,4,0:0:0:0:
196,136,74628,1,4,0:0:0:0:
260,140,74743,1,4,0:0:0:0:
256,196,74973,1,0,0:0:0:0:
256,188,75204,5,0,0:0:0:0:
336,192,75434,2,2,B|390:161|432:192,1,75
256,196,75896,1,0,0:0:0:0:
168,196,76126,1,0,0:0:0:0:
88,192,76357,1,2,0:0:0:0:
160,236,76587,6,0,B|152:272|88:284,1,75
92,236,77048,1,0,0:0:0:0:
260,280,77279,5,0,0:0:0:0:
256,184,77509,1,4,0:0:0:0:
256,80,77740,1,0,0:0:0:0:
256,192,77970,6,0,B|346:164|366:228,1,75
256,292,78432,1,4,0:0:0:0:
256,192,78662,1,4,0:0:0:0:
256,104,79123,2,0,L|160:88,1,75
256,192,79584,1,0,0:0:0:0:
256,344,79815,1,0,0:0:0:0:
256,192,80045,1,12,0:0:0:0:
64,68,80506,5,0,0:0:0:0:
256,72,80737,1,0,0:0:0:0:
392,80,80968,2,0,L|428:160,1,75
252,192,81429,1,12,0:0:0:0:
64,192,81659,1,12,0:0:0:0:
464,192,81890,1,12,0:0:0:0:
256,192,82120,1,12,0:0:0:0:
256,68,82353,5,0,0:0:0:0:
256,316,82814,1,0,0:0:0:0:
440,192,83275,1,2,0:0:0:0:
92,188,83735,1,2,0:0:0:0:
88,304,84197,1,0,0:0:0:0:
384,96,84658,1,0,0:0:0:0:
388,316,85119,1,0,0:0:0:0:
104,84,85580,1,0,0:0:0:0:
256,192,86041,5,0,0:0:0:0:
256,312,86503,1,0,0:0:0:0:
256,96,86964,1,0,0:0:0:0:
256,192,87425,1,0,0:0:0:0:
256,192,87886,1,0,0:0:0:0:
