osu file format v14

[General]
AudioFilename: Asami - Asayake no Starmine .mp3
AudioLeadIn: 0
PreviewTime: 44851
Countdown: 1
SampleSet: Soft
StackLeniency: 0.7
Mode: 0
LetterboxInBreaks: 1
WidescreenStoryboard: 0

[Editor]
DistanceSpacing: 1.1
BeatDivisor: 4
GridSize: 4
TimelineZoom: 1.2

[Metadata]
Title:Asayake no Starmine (Anime Ver.)
TitleUnicode:朝焼けのスターマイン
Artist:Imai Asami
ArtistUnicode:今井 麻美
Creator:yuuch
Version:Memories
Source:プラスティック・メモリーズ
Tags:plastic memories ending ed
BeatmapID:732406
BeatmapSetID:330479

[Difficulty]
HPDrainRate:6
CircleSize:4
OverallDifficulty:7
ApproachRate:8.5
SliderMultiplier:1.7
SliderTickRate:1

[Events]
//Background and Video events
0,0,"150419-0055050513-1440x810.jpg",0,0
Video,0,"Asayake no Starmine.avi"
//Break Periods
//Storyboard Layer 0 (Background)
//Storyboard Layer 1 (Fail)
//Storyboard Layer 2 (Pass)
//Storyboard Layer 3 (Foreground)
//Storyboard Sound Samples

[TimingPoints]
-610,461.538461538462,4,2,0,40,1,0
16005,-100,4,2,0,40,0,0
17736,-133.333333333333,4,2,0,40,0,0
30890,-117.647058823529,4,2,0,40,0,0
45528,-100,4,2,0,40,0,1
47274,-133.333333333333,4,2,0,40,0,1
48428,-100,4,2,0,40,0,1
50966,-133.333333333333,4,2,0,40,0,1
52120,-100,4,2,0,40,0,1
62043,-133.333333333333,4,2,0,40,0,1
63197,-100,4,2,0,40,0,1
65736,-133.333333333333,4,2,0,40,0,1
66890,-100,4,2,0,40,0,1
74966,-83.3333333333333,4,2,0,40,0,0

[HitObjects]
48,112,774,6,0,P|44:146|41:157,2,42.5
132,48,1236,6,0,P|196:52|233:69,1,85
332,84,1697,1,8,0:0:0:0:
400,164,1928,1,0,0:0:0:0:
352,284,2159,6,0,P|311:293|242:272,1,85
176,288,2620,1,8,0:0:0:0:
64,256,2851,1,0,0:0:0:0:
44,104,3082,6,0,P|93:71|150:59,1,85
260,180,3543,2,0,P|350:170|433:108,1,170,8|0,0:0|0:0,0:0:0:0:
184,64,4236,1,0,0:0:0:0:
184,64,4351,1,0,0:0:0:0:
184,64,4466,2,0,L|120:136,1,85,8|0,0:0|0:0,0:0:0:0:
68,288,4928,2,0,P|124:284|173:260,1,85
368,256,5390,6,0,P|336:196|319:176,1,85,8|0,0:0|0:0,0:0:0:0:
172,94,5851,1,0,0:0:0:0:
172,94,6082,1,0,0:0:0:0:
209,184,6313,2,0,P|253:199|316:177,1,85,8|0,0:0|0:0,0:0:0:0:
252,308,6774,2,0,P|378:323|448:295,2,170,0|8|0,0:0|0:0|0:0,0:0:0:0:
136,284,7928,5,0,0:0:0:0:
112,144,8159,1,8,0:0:0:0:
112,144,8274,1,0,0:0:0:0:
112,144,8390,1,0,0:0:0:0:
288,56,8620,5,0,0:0:0:0:
364,132,8851,1,0,0:0:0:0:
408,224,9082,2,0,P|336:268|304:264,1,85,8|0,0:0|0:0,0:0:0:0:
104,252,9543,6,0,L|92:188,2,42.5
184,312,10005,2,0,P|244:308|288:296,1,85,8|0,0:0|0:0,0:0:0:0:
276,168,10466,2,0,B|340:168|396:152|436:100,2,170,0|8|0,0:0|0:0|0:0,0:0:0:0:
88,72,11620,5,0,0:0:0:0:
88,72,11736,1,0,0:0:0:0:
88,72,11851,2,0,P|96:132|112:168,1,85,4|0,0:0|0:0,0:0:0:0:
248,328,12313,2,0,P|228:288|224:248,1,85
232,80,12774,1,8,0:0:0:0:
168,164,13005,1,0,0:0:0:0:
108,264,13236,2,0,P|76:300|156:316,1,170,0|8,0:0|0:0,0:0:0:0:
288,260,13928,1,0,0:0:0:0:
472,260,14159,6,0,L|388:196,1,85
380,188,14505,1,0,0:0:0:0:
392,140,14620,1,4,0:0:0:0:
380,100,14736,1,0,0:0:0:0:
356,60,14851,1,0,0:0:0:0:
312,60,14966,1,0,0:0:0:0:
272,80,15082,6,0,L|148:96,1,85
148,88,15428,1,0,0:0:0:0:
112,52,15543,1,4,0:0:0:0:
68,52,15659,1,0,0:0:0:0:
32,88,15774,1,0,0:0:0:0:
16,192,16005,5,0,0:0:0:0:
56,280,16236,1,0,0:0:0:0:
136,328,16466,2,0,P|176:340|224:332,1,85
308,300,16928,5,0,0:0:0:0:
264,232,17158,1,0,0:0:0:0:
256,160,17389,1,8,0:0:0:0:
272,88,17620,1,0,0:0:0:0:
380,120,17851,2,0,P|404:180|400:272,2,127.500004863739,0|8|0,0:0|0:0|0:0,0:0:0:0:
104,104,19005,5,8,0:0:0:0:
104,104,19120,1,0,0:0:0:0:
104,104,19236,2,0,L|136:184,1,63.7500024318696,4|0,0:0|0:0,0:0:0:0:
156,240,19697,1,0,0:0:0:0:
284,184,19928,1,0,0:0:0:0:
240,296,20159,5,8,0:0:0:0:
372,344,20390,1,0,0:0:0:0:
424,248,20620,2,0,P|408:208|372:188,1,63.7500024318696
272,112,21082,5,8,0:0:0:0:
164,132,21313,1,0,0:0:0:0:
56,156,21543,2,0,P|8:76|20:24,2,127.500004863739,0|8|0,0:0|0:0|0:0,0:0:0:0:
304,248,22697,5,0,0:0:0:0:
304,248,22813,1,0,0:0:0:0:
304,248,22928,2,0,L|228:256,1,63.7500024318696,4|0,0:0|0:0,0:0:0:0:
112,312,23390,2,0,P|64:236|76:176,1,127.500004863739,0|8,0:0|0:0,0:0:0:0:
104,84,24082,1,0,0:0:0:0:
252,48,24313,6,0,P|296:44|336:48,1,63.7500024318696
368,144,24774,1,8,0:0:0:0:
328,244,25005,1,0,0:0:0:0:
240,304,25236,1,0,0:0:0:0:
124,304,25466,2,0,L|44:336,2,63.7500024318696,0|8|0,0:0|0:0|0:0,0:0:0:0:
208,236,26159,6,0,P|292:232|332:208,1,127.500004863739,0|8,0:0|0:0,0:0:0:0:
404,112,26851,1,0,0:0:0:0:
272,60,27082,2,0,P|232:64|192:88,1,63.7500024318696
120,256,27543,1,8,0:0:0:0:
272,288,27774,2,0,P|268:200|248:160,2,127.500004863739,0|8|0,0:0|0:0|0:0,0:0:0:0:
144,300,28928,5,0,0:0:0:0:
88,172,29159,1,0,0:0:0:0:
316,44,29390,5,8,0:0:0:0:
128,136,29620,1,0,0:0:0:0:
260,256,29851,1,0,0:0:0:0:
420,136,30082,1,0,0:0:0:0:
420,136,30197,1,0,0:0:0:0:
420,136,30313,2,0,P|452:168|460:192,1,63.7500024318696,4|0,0:0|0:0,0:0:0:0:
420,320,30774,5,0,0:0:0:0:
220,304,31005,2,0,P|172:288|156:272,1,72.2500013780594
80,176,31466,1,0,0:0:0:0:
284,40,31697,1,0,0:0:0:0:
264,164,31928,5,0,0:0:0:0:
132,100,32159,2,0,P|80:96|44:112,1,72.2500013780594
44,268,32620,2,0,P|116:292|204:292,2,144.500002756119
148,72,33774,5,0,0:0:0:0:
148,72,33889,1,0,0:0:0:0:
148,72,34005,2,0,L|180:140,1,72.2500013780594,4|0,0:0|0:0,0:0:0:0:
228,276,34466,5,0,0:0:0:0:
88,292,34697,1,0,0:0:0:0:
124,168,34928,2,0,P|140:112|156:88,1,72.2500013780594
304,80,35390,5,0,0:0:0:0:
408,160,35620,1,0,0:0:0:0:
388,280,35851,2,0,P|352:312|308:320,1,72.2500013780594
156,288,36313,2,0,P|88:276|8:236,2,144.500002756119,0|0|8,0:0|0:0|0:0,0:0:0:0:
240,36,37466,5,0,0:0:0:0:
240,36,37581,1,0,0:0:0:0:
240,36,37697,2,0,P|225:76|226:116,1,72.2500013780594
84,296,38159,6,0,P|80:276|84:200,1,72.2500013780594
176,48,38620,1,8,0:0:0:0:
320,172,38851,1,0,0:0:0:0:
388,320,39082,6,0,P|312:296|300:280,1,72.2500013780594
112,280,39543,1,8,0:0:0:0:
56,168,39774,6,0,P|140:76|156:28,1,144.500002756119
292,48,40466,1,8,0:0:0:0:
404,208,40697,2,0,P|372:264|272:312,1,144.500002756119
144,332,41390,5,8,0:0:0:0:
144,332,41620,1,0,0:0:0:0:
128,84,41851,5,0,0:0:0:0:
164,244,42082,2,0,P|176:180|160:156,1,72.2500013780594,4|8,0:0|0:0,0:0:0:0:
312,48,42543,1,0,0:0:0:0:
312,48,42659,1,0,0:0:0:0:
312,48,42774,2,0,P|312:100|288:148,1,72.2500013780594,4|0,0:0|0:0,0:0:0:0:
324,212,43236,5,0,0:0:0:0:
264,308,43466,2,0,P|224:264|216:224,1,72.2500013780594,4|0,0:0|0:0,0:0:0:0:
192,40,43928,5,0,0:0:0:0:
108,80,44159,2,0,P|100:132|112:176,1,72.2500013780594,4|0,0:0|0:0,0:0:0:0:
48,272,44620,5,0,0:0:0:0:
180,316,44851,1,4,0:0:0:0:
208,316,44966,1,0,0:0:0:0:
240,312,45082,2,0,P|296:296|328:276,1,72.2500013780594,8|0,0:0|0:0,0:0:0:0:
120,80,45543,5,0,0:0:0:0:
152,204,45774,1,0,0:0:0:0:
324,88,46005,1,4,0:0:0:0:
304,264,46236,1,0,0:0:0:0:
232,144,46466,5,0,0:0:0:0:
124,336,46697,1,0,0:0:0:0:
96,224,46928,2,0,P|100:168|120:136,1,85,4|0,0:0|0:0,0:0:0:0:
264,128,47390,2,0,P|308:84|332:20,2,127.500004863739,0|4|0,0:0|0:0|0:0,0:0:0:0:
80,88,48543,1,0,0:0:0:0:
80,88,48659,1,0,0:0:0:0:
80,88,48774,2,0,L|192:80,1,85,4|0,0:0|0:0,0:0:0:0:
276,300,49236,6,0,P|276:256|256:208,1,85
208,84,49697,1,4,0:0:0:0:
84,192,49928,1,0,0:0:0:0:
136,304,50159,2,0,P|192:276|216:248,1,85
384,136,50620,5,4,0:0:0:0:
312,308,50851,1,0,0:0:0:0:
168,168,51082,2,0,P|156:108|148:36,2,127.500004863739,0|4|0,0:0|0:0|0:0,0:0:0:0:
384,148,52236,5,4,0:0:0:0:
184,128,52466,1,0,0:0:0:0:
356,176,52697,1,4,0:0:0:0:
212,272,52928,1,0,0:0:0:0:
52,240,53159,1,0,0:0:0:0:
52,240,53274,1,0,0:0:0:0:
52,240,53390,2,0,L|68:148,1,85,4|0,0:0|0:0,0:0:0:0:
184,72,53851,5,0,0:0:0:0:
352,120,54082,1,0,0:0:0:0:
352,120,54197,1,0,0:0:0:0:
352,120,54313,2,0,L|296:212,1,85,4|0,0:0|0:0,0:0:0:0:
228,316,54774,5,0,0:0:0:0:
288,112,55005,1,0,0:0:0:0:
156,208,55236,1,4,0:0:0:0:
316,284,55466,1,0,0:0:0:0:
168,84,55697,1,0,0:0:0:0:
116,312,55928,1,0,0:0:0:0:
116,312,56043,1,0,0:0:0:0:
116,312,56159,2,0,L|204:284,1,85,4|0,0:0|0:0,0:0:0:0:
260,184,56620,6,0,P|332:184|428:132,1,170,0|4,0:0|0:0,0:0:0:0:
308,48,57313,1,0,0:0:0:0:
340,268,57543,1,0,0:0:0:0:
456,164,57774,1,0,0:0:0:0:
292,184,58005,2,0,P|252:212|220:244,1,85,4|0,0:0|0:0,0:0:0:0:
156,348,58466,1,0,0:0:0:0:
0,184,58697,5,0,0:0:0:0:
120,160,58928,1,4,0:0:0:0:
64,284,59159,1,0,0:0:0:0:
124,120,59390,1,4,0:0:0:0:
268,208,59621,5,0,0:0:0:0:
268,208,59736,1,0,0:0:0:0:
268,208,59851,2,0,P|320:192|364:188,1,85,4|0,0:0|0:0,0:0:0:0:
376,280,60313,6,0,P|327:335|279:352,1,85,8|0,0:0|0:0,0:0:0:0:
184,240,60774,1,4,0:0:0:0:
84,48,61005,1,0,0:0:0:0:
224,128,61236,1,0,0:0:0:0:
380,68,61466,5,0,0:0:0:0:
380,68,61581,1,0,0:0:0:0:
380,68,61697,2,0,L|340:144,1,85,4|0,0:0|0:0,0:0:0:0:
172,320,62159,2,0,P|88:300|32:272,2,127.500004863739,0|4|0,0:0|0:0|0:0,0:0:0:0:
388,64,63312,5,0,0:0:0:0:
388,64,63428,1,0,0:0:0:0:
388,64,63543,2,0,P|392:120|376:168,1,85,4|0,0:0|0:0,0:0:0:0:
388,280,64005,2,0,P|341:336|296:352,1,85
216,320,64466,1,4,0:0:0:0:
88,288,64697,1,0,0:0:0:0:
72,164,64928,1,0,0:0:0:0:
200,188,65159,6,0,P|284:160|296:140,1,85,0|4,0:0|0:0,0:0:0:0:
384,128,65620,1,0,0:0:0:0:
148,80,65851,2,0,P|64:60|24:28,2,127.500004863739,0|4|0,0:0|0:0|0:0,0:0:0:0:
196,236,67006,5,0,0:0:0:0:
196,236,67121,1,0,0:0:0:0:
196,236,67236,2,0,P|284:248|304:240,1,85,4|0,0:0|0:0,0:0:0:0:
352,116,67697,2,0,P|396:92|440:52,1,85
280,40,68159,5,4,0:0:0:0:
76,88,68390,5,0,0:0:0:0:
76,88,68505,1,0,0:0:0:0:
76,88,68620,2,0,P|128:76|160:80,1,85,8|0,0:0|0:0,0:0:0:0:
216,196,69082,5,4,0:0:0:0:
260,320,69313,1,0,0:0:0:0:
104,296,69543,2,0,P|60:236|52:132,2,170,0|4|0,0:0|0:0|0:0,0:0:0:0:
256,252,70697,5,0,0:0:0:0:
256,252,70813,1,0,0:0:0:0:
256,252,70928,2,0,L|352:232,1,85,4|0,0:0|0:0,0:0:0:0:
280,136,71390,5,0,0:0:0:0:
88,80,71620,1,0,0:0:0:0:
120,304,71851,1,4,0:0:0:0:
368,224,72082,1,2,0:0:0:0:
136,128,72313,1,4,0:0:0:0:
252,244,72543,5,0,0:0:0:0:
252,244,72659,1,0,0:0:0:0:
252,244,72774,1,0,0:0:0:0:
428,284,73005,1,0,0:0:0:0:
424,140,73236,6,0,P|352:116|312:116,1,85,4|0,0:0|0:0,0:0:0:0:
208,112,73697,2,0,P|144:96|96:96,1,85,4|0,0:0|0:0,0:0:0:0:
48,236,74159,1,0,0:0:0:0:
58,242,74274,1,0,0:0:0:0:
69,247,74389,1,0,0:0:0:0:
81,252,74505,1,0,0:0:0:0:
96,260,74620,2,0,P|156:276|208:276,1,85,4|0,0:0|0:0,0:0:0:0:
372,160,75082,6,0,P|308:120|256:112,1,101.999996887207,4|0,0:0|0:0,0:0:0:0:
152,136,75543,1,4,0:0:0:0:
256,280,75774,1,0,0:0:0:0:
320,120,76005,1,0,0:0:0:0:
144,216,76236,1,0,0:0:0:0:
332,296,76466,1,4,0:0:0:0:
256,136,76697,1,0,0:0:0:0:
192,324,76928,6,0,P|108:288|76:252,1,101.999996887207
172,100,77390,1,4,0:0:0:0:
304,284,77620,1,0,0:0:0:0:
92,200,77851,1,4,0:0:0:0:
328,116,78082,1,0,0:0:0:0:
236,324,78313,1,4,0:0:0:0:
112,88,78543,1,0,0:0:0:0:
124,316,78774,6,0,P|76:272|64:228,1,101.999996887207
272,88,79236,1,4,0:0:0:0:
160,164,79466,1,0,0:0:0:0:
300,292,79697,1,0,0:0:0:0:
396,144,79928,1,0,0:0:0:0:
188,272,80159,1,4,0:0:0:0:
296,88,80390,1,0,0:0:0:0:
36,200,80620,6,0,P|128:220|172:216,1,101.999996887207,4|0,0:0|0:0,0:0:0:0:
372,212,81082,6,0,L|344:256,1,50.9999984436036,4|8,0:0|0:0,0:0:0:0:
320,232,81313,6,0,L|284:284,1,50.9999984436036,0|8,0:0|0:0,0:0:0:0:
232,296,81543,5,4,0:0:0:0:
181,296,81658,1,0,0:0:0:0:
131,287,81773,1,0,0:0:0:0:
83,268,81889,1,0,0:0:0:0:
41,240,82004,1,4,0:0:0:0:
24,200,82120,1,0,0:0:0:0:
57,161,82235,1,0,0:0:0:0:
97,129,82350,1,0,0:0:0:0:
136,112,82466,1,4,0:0:0:0:
384,128,82928,5,0,0:0:0:0:
348,260,83390,1,2,0:0:0:0:
208,232,83851,1,0,0:0:0:0:
244,100,84313,1,2,0:0:0:0:
384,148,84774,5,0,0:0:0:0:
338,277,85236,1,2,0:0:0:0:
201,239,85697,1,0,0:0:0:0:
246,110,86159,1,2,0:0:0:0:
136,84,86390,2,0,P|64:88|32:76,1,85
16,188,86851,5,10,0:0:0:0:
16,188,86966,1,2,0:0:0:0:
16,188,87082,2,0,L|40:276,1,85
144,300,87543,1,8,0:0:0:0:
144,300,88005,1,4,0:0:0:0:
