osu file format v13

[General]
AudioFilename: Warriors 2014 Worlds Anthem _ Riot Games Collaboration with Imagine Dragons.mp3
AudioLeadIn: 0
PreviewTime: 33890
Countdown: 0
SampleSet: Soft
StackLeniency: 0.7
Mode: 0
LetterboxInBreaks: 0
EpilepsyWarning: 1
WidescreenStoryboard: 0

[Editor]
Bookmarks: 9303,45916
DistanceSpacing: 1.2
BeatDivisor: 6
GridSize: 4
TimelineZoom: 1

[Metadata]
Title:Warriors
TitleUnicode:Warriors
Artist:Imagine Dragons
ArtistUnicode:Imagine Dragons
Creator:Tician
Version:Silver
Source:League of Legends
Tags:Riot Games Collaboration LoL DEMACIA 2014 World Championship alternative symphonic hard rock single
BeatmapID:510000
BeatmapSetID:217375

[Difficulty]
HPDrainRate:4
CircleSize:3.5
OverallDifficulty:4
ApproachRate:5
SliderMultiplier:2
SliderTickRate:1

[Events]
//Background and Video events
Video,0,"Championship Video.avi"
0,0,"warriors.jpg",0,0
//Break Periods
2,107936,131151
//Storyboard Layer 0 (Background)
//Storyboard Layer 1 (Fail)
//Storyboard Layer 2 (Pass)
//Storyboard Layer 3 (Foreground)
//Storyboard Sound Samples
//Background Colour Transformations
3,100,163,162,255

[TimingPoints]
3121,769.230769230769,4,2,0,40,1,0
9268,-100,4,2,0,40,0,0
32351,-100,4,3,0,40,0,0
33889,-100,4,3,0,55,0,1
58504,-100,4,2,0,40,0,0
83120,-100,4,3,0,55,0,1
107735,-100,4,2,0,40,0,0
132372,-100,4,2,0,40,0,0
138504,-100,4,2,0,55,0,1
156966,-100,4,1,0,40,0,0

[HitObjects]
420,268,9274,6,0,P|384:236|372:160,1,100,0|0,3:0|0:0,0:0:0:0:
364,64,10043,1,0,0:0:0:0:
288,44,10299,2,0,L|236:52,1,33.3333333333333
140,88,10813,2,0,P|108:116|92:196,1,100,0|0,3:0|0:0,0:0:0:0:
84,288,11582,2,0,P|96:324|128:352,1,66.6666666666667
152,356,11967,1,0,0:0:0:0:
264,312,12351,5,0,3:0:0:0:
220,200,12736,1,0,0:0:0:0:
112,144,13121,2,0,L|116:72,1,66.6666666666667
148,52,13506,2,0,L|208:0,1,66.6666666666667
236,0,13890,2,0,P|304:12|328:44,1,100,0|0,3:0|0:0,0:0:0:0:
408,116,14659,2,0,L|456:184,1,66.6666666666667
464,208,15044,1,0,0:0:0:0:
404,312,15428,6,0,P|368:336|332:336,1,66.6666666666667,0|0,3:0|0:0,0:0:0:0:
308,328,15813,2,0,P|296:288|308:252,1,66.6666666666667
304,224,16198,2,0,P|292:156|260:120,1,100
204,36,16967,2,0,P|168:24|124:32,1,66.6666666666667,0|0,3:0|0:0,0:0:0:0:
100,32,17351,2,0,P|72:60|64:92,1,66.6666666666667
60,124,17736,2,0,P|60:164|28:224,1,100
40,336,18505,5,0,3:0:0:0:
160,316,18890,2,0,L|224:268,1,66.6666666666667
252,288,19274,2,0,L|316:240,1,66.6666666666667
340,232,19659,2,0,P|400:228|444:252,2,100,0|0|0,0:0|3:0|0:0,0:0:0:0:
256,148,20813,2,0,L|208:88,1,66.6666666666667
208,56,21198,1,0,0:0:0:0:
320,8,21582,6,0,P|392:12|416:36,1,100,0|0,3:0|0:0,0:0:0:0:
460,136,22351,2,0,L|488:208,1,66.6666666666667
492,236,22736,1,0,0:0:0:0:
444,344,23121,2,0,P|404:300|344:284,1,100,0|0,3:0|0:0,0:0:0:0:
248,280,23889,1,0,0:0:0:0:
180,324,24145,2,0,L|144:352,1,33.3333333333333
32,344,24659,6,0,P|40:300|60:276,1,66.6666666666667,0|0,3:0|0:0,0:0:0:0:
80,252,25044,1,0,0:0:0:0:
168,168,25428,2,0,P|188:132|188:108,1,66.6666666666667
188,68,25813,1,0,0:0:0:0:
84,8,26198,2,0,B|8:72|112:128|48:192,1,200,0|0,3:0|0:0,0:0:0:0:
12,304,27352,1,0,0:0:0:0:
116,364,27736,6,0,L|176:312,1,66.6666666666667,0|0,3:0|0:0,0:0:0:0:
160,280,28121,2,0,L|220:228,1,66.6666666666667
212,196,28505,2,0,P|216:144|240:100,1,100
328,180,29275,1,0,3:0:0:0:
420,256,29659,2,0,P|442:211|446:162,1,100
404,48,30428,1,0,0:0:0:0:
284,40,30813,6,0,P|220:40|200:48,1,66.6666666666667,0|0,3:0|0:0,0:0:0:0:
184,60,31198,1,0,0:0:0:0:
128,164,31582,2,0,P|124:212|112:228,1,66.6666666666667
84,252,31967,1,0,0:0:0:0:
20,356,32352,2,8,P|52:372|124:368,1,100,8|8,3:0|0:0,0:0:0:0:
232,340,33120,1,4,0:0:0:0:
348,312,33505,1,4,0:0:0:0:
432,232,33890,6,0,P|361:165|404:80,1,200,4|0,1:0|1:0,0:0:0:0:
512,60,35044,1,0,0:0:0:0:
444,152,35429,2,0,P|346:151|319:59,1,200,4|0,1:0|1:0,0:0:0:0:
220,0,36582,1,0,0:0:0:0:
164,104,36967,2,0,B|184:184|88:208|88:208|0:232|24:328|24:328,1,300,4|0,1:0|0:0,0:0:0:0:
132,384,38505,2,0,P|216:372|240:352,1,100,4|0,1:0|0:0,0:0:0:0:
312,292,39274,1,0,0:0:0:0:
408,220,39659,2,0,P|428:184|424:148,1,66.6666666666667,0|0,0:0|0:0,0:0:0:0:
412,120,40044,6,0,P|340:68|232:60,1,200,4|0,1:0|1:0,0:0:0:0:
164,96,41070,1,0,0:0:0:0:
108,152,41326,1,0,0:0:0:0:
176,196,41582,2,0,P|56:216|28:136,1,200,4|0,1:0|0:0,0:0:0:0:
64,48,42736,1,0,0:0:0:0:
184,32,43120,6,0,P|240:28|296:44,1,100,4|0,1:0|0:0,0:0:0:0:
392,88,43890,2,0,P|436:116|464:164,1,100,0|0,1:0|0:0,0:0:0:0:
476,268,44659,2,0,P|460:328|440:364,1,100,4|0,1:0|0:0,0:0:0:0:
344,312,45429,2,0,P|368:280|376:252,2,66.6666666666667,4|0|0,1:0|0:0|0:0,0:0:0:0:
272,336,46197,6,0,P|156:336|140:328,1,133.333333333333,4|0,1:0|0:0,0:0:0:0:
100,264,46967,2,0,L|100:120,1,133.333333333333,0|0,1:0|0:0,0:0:0:0:
16,124,47736,2,0,P|48:64|108:48,1,133.333333333333,4|0,1:0|0:0,0:0:0:0:
188,40,48505,2,0,P|232:84|228:160,1,133.333333333333,0|0,1:0|0:0,0:0:0:0:
152,116,49274,2,0,B|128:192|196:232|196:232|232:256|230:298|230:298|228:332|251:357,1,266.666666666667,4|0,1:0|0:0,0:0:0:0:
324,348,50556,1,0,0:0:0:0:
400,324,50813,2,0,P|444:272|420:212,1,133.333333333333,4|0,1:0|0:0,0:0:0:0:
356,172,51582,2,0,P|296:136|264:72,1,133.333333333333,0|0,1:0|0:0,0:0:0:0:
184,84,52351,6,0,L|92:184,1,133.333333333333,4|0,1:0|0:0,0:0:0:0:
76,260,53121,2,0,L|24:312,2,66.6666666666667,0|0|0,1:0|0:0|0:0,0:0:0:0:
152,232,53890,2,0,L|288:84,1,200,4|0,1:0|1:0,0:0:0:0:
400,48,55044,1,0,0:0:0:0:
452,148,55428,2,0,P|428:224|408:248,1,100,4|0,1:0|0:0,0:0:0:0:
316,304,56197,2,0,P|252:324|212:324,1,100,0|0,1:0|0:0,0:0:0:0:
108,276,56967,2,0,B|72:184|72:184|156:116,1,200,4|0,1:0|1:0,0:0:0:0:
384,72,58505,6,0,P|428:72|496:204,1,200,4|0,3:0|0:0,0:0:0:0:
420,328,59787,1,0,0:0:0:0:
392,252,60044,2,0,P|340:304|348:364,1,133.333333333333,0|0,3:0|0:0,0:0:0:0:
264,352,60813,2,0,P|212:312|144:320,1,133.333333333333
68,316,61582,1,0,3:0:0:0:
164,188,62095,5,0,0:0:0:0:
220,128,62352,2,0,L|352:80,1,133.333333333333
332,0,63121,2,0,P|420:40|412:132,1,200,0|0,3:0|0:0,0:0:0:0:
492,268,64403,1,0,0:0:0:0:
428,316,64659,6,0,P|392:340|296:320,1,133.333333333333,0|0,3:0|0:0,0:0:0:0:
348,260,65428,2,0,P|372:237|382:206,1,66.6666666666667
364,128,65941,1,0,0:0:0:0:
300,76,66198,6,0,P|264:64|168:92,1,133.333333333333,0|0,3:0|0:0,0:0:0:0:
224,152,66967,2,0,P|252:168|272:195,1,66.6666666666667
256,272,67479,1,0,0:0:0:0:
184,312,67736,6,0,L|116:296,1,66.6666666666667,0|0,3:0|0:0,0:0:0:0:
20,172,68505,2,0,L|32:96,1,66.6666666666667
168,24,69274,2,0,P|228:20|256:28,2,66.6666666666667,0|0|0,3:0|0:0|0:0,0:0:0:0:
116,84,70044,2,0,L|108:152,1,66.6666666666667
128,228,70556,1,0,0:0:0:0:
204,248,70813,6,0,P|276:252|300:276,1,100,0|0,3:0|0:0,0:0:0:0:
396,332,71582,2,0,P|412:356|448:364,1,66.6666666666667
480,340,71967,1,0,0:0:0:0:
468,208,72352,2,0,P|428:164|368:148,1,100,0|0,3:0|0:0,0:0:0:0:
272,124,73120,1,0,0:0:0:0:
196,100,73376,2,0,L|156:88,1,33.3333333333333
44,104,73890,6,0,P|26:132|23:165,1,66.6666666666667,0|0,3:0|0:0,0:0:0:0:
36,204,74275,1,0,0:0:0:0:
124,288,74659,2,0,P|144:252|152:228,1,66.6666666666667
164,192,75044,1,0,0:0:0:0:
216,84,75429,2,0,B|252:60|228:31|271:3,1,100,0|0,3:0|0:0,0:0:0:0:
392,12,76198,2,0,L|448:60,1,66.6666666666667
436,96,76583,1,0,0:0:0:0:
388,204,76967,6,0,L|336:264,1,66.6666666666667,0|0,3:0|0:0,0:0:0:0:
304,248,77352,2,0,L|252:308,1,66.6666666666667
220,300,77736,2,0,P|192:344|148:356,1,100
40,304,78506,1,0,3:0:0:0:
44,184,78890,2,0,P|56:128|92:100,1,100
204,76,79659,1,0,0:0:0:0:
320,108,80044,5,0,3:0:0:0:
208,152,80429,1,0,3:0:0:0:
324,184,80813,1,0,3:0:0:0:
212,228,81198,1,0,3:0:0:0:
328,260,81582,2,0,P|360:276|500:208,1,200,0|0,3:0|0:0,0:0:0:0:
312,64,83120,6,0,L|172:64,1,133.333333333333,4|0,1:0|0:0,0:0:0:0:
100,80,83890,2,0,L|28:80,2,66.6666666666667,0|0|0,1:0|0:0|0:0,0:0:0:0:
156,140,84659,2,0,P|148:200|104:256,1,133.333333333333,4|0,1:0|0:0,0:0:0:0:
76,328,85428,2,0,L|16:376,2,66.6666666666667,0|0|0,1:0|0:0|0:0,0:0:0:0:
152,316,86197,2,0,P|220:296|276:320,1,133.333333333333,4|0,1:0|0:0,0:0:0:0:
324,384,86967,2,0,P|354:326|333:265,1,133.333333333333,0|0,1:0|0:0,0:0:0:0:
280,204,87736,2,0,P|341:183|398:213,1,133.333333333333,4|0,1:0|0:0,0:0:0:0:
448,280,88505,2,0,P|478:222|457:161,1,133.333333333333,0|0,1:0|0:0,0:0:0:0:
404,104,89274,6,0,P|296:96|212:136,1,200,4|0,1:0|0:0,0:0:0:0:
172,200,90300,1,0,0:0:0:0:
252,204,90556,1,0,0:0:0:0:
208,272,90813,2,0,P|108:252|104:152,1,200,4|0,1:0|1:0,0:0:0:0:
160,64,91967,1,0,0:0:0:0:
280,68,92351,2,0,L|368:140,1,100,4|0,1:0|0:0,0:0:0:0:
240,152,93120,2,0,L|320:216,1,100,0|0,1:0|0:0,0:0:0:0:
240,308,93890,2,0,L|36:344,1,200,4|0,1:0|1:0,0:0:0:0:
172,120,95428,6,0,P|248:72|360:92,1,200,4|0,1:0|1:0,0:0:0:0:
416,236,96710,1,0,0:0:0:0:
344,196,96967,2,0,P|268:148|220:228,1,200,4|0,1:0|1:0,0:0:0:0:
96,328,98249,1,0,0:0:0:0:
68,252,98505,2,0,L|112:120,1,133.333333333333,4|0,1:0|0:0,0:0:0:0:
176,80,99274,2,0,L|244:56,1,66.6666666666667,0|0,1:0|0:0,0:0:0:0:
320,60,99787,1,0,0:0:0:0:
376,120,100044,2,0,P|408:192|380:248,1,133.333333333333,4|0,1:0|0:0,0:0:0:0:
372,316,100813,2,0,P|332:296|316:256,1,66.6666666666667,0|0,1:0|0:0,0:0:0:0:
292,204,101326,1,0,0:0:0:0:
272,128,101582,6,0,P|216:76|100:88,1,200,4|0,1:0|1:0,0:0:0:0:
56,156,102608,2,0,L|40:232,1,66.6666666666667
40,300,103120,2,0,B|106:345|165:298|165:298|200:271|238:285|238:285|284:300|324:272,1,300,4|0,1:0|1:0,0:0:0:0:
408,180,104659,2,0,L|458:129,2,66.6666666666667,4|0|0,1:0|0:0|0:0,0:0:0:0:
328,202,105428,2,0,L|277:151,2,66.6666666666667,0|0|0,1:0|0:0|0:0,0:0:0:0:
385,259,106197,2,0,L|438:312,2,66.6666666666667,8|8|8,0:0|0:0|0:0,0:0:0:0:
309,278,106967,2,0,L|252:334,2,66.6666666666667,4|4|4,1:0|0:0|0:0,0:0:0:0:
328,200,107736,1,4,1:0:0:0:
136,72,132351,6,0,P|76:120|128:228,1,200,0|0,3:0|0:0,0:0:0:0:
272,236,133633,1,0,0:0:0:0:
312,168,133890,2,0,P|352:244|276:316,1,200,0|0,3:0|0:0,0:0:0:0:
128,252,135172,1,0,0:0:0:0:
164,180,135428,2,0,P|236:56|304:184,1,333.333333333333,0|0,3:0|0:0,0:0:0:0:
236,140,136967,2,0,P|377:115|322:249,1,333.333333333333,0|0,3:0|0:0,0:0:0:0:
260,264,138505,6,0,L|124:228,1,133.333333333333,4|0,1:0|0:0,0:0:0:0:
68,180,139274,1,0,1:0:0:0:
32,108,139531,1,0,0:0:0:0:
112,112,139787,1,0,0:0:0:0:
168,52,140044,2,0,B|208:96|184:148|184:148|288:176,1,200,4|0,1:0|1:0,0:0:0:0:
396,192,141197,1,0,0:0:0:0:
360,308,141582,6,0,L|280:308,1,66.6666666666667,4|0,1:0|0:0,0:0:0:0:
236,252,142095,1,0,0:0:0:0:
192,320,142351,2,0,L|108:320,1,66.6666666666667,0|0,1:0|0:0,0:0:0:0:
72,260,142864,1,0,0:0:0:0:
40,188,143120,2,0,P|64:112|176:100,1,200,4|0,1:0|1:0,0:0:0:0:
304,296,144659,6,0,P|416:284|408:192,1,200,4|0,1:0|1:0,0:0:0:0:
332,84,145941,1,0,0:0:0:0:
276,28,146197,2,0,P|260:120|352:160,1,200,4|0,1:0|1:0,0:0:0:0:
496,208,147479,1,0,0:0:0:0:
452,276,147736,2,0,B|356:352|272:276|272:276|188:200|128:264|128:264,1,333.333333333333,4|0,1:0|0:0,0:0:0:0:
188,320,149274,2,0,P|88:304|92:192,1,200,4|0,1:0|1:0,1:0:0:0:
144,76,150556,1,0,0:0:0:0:
228,68,150813,6,0,P|284:104|236:224,1,200,4|0,1:0|0:0,0:0:0:0:
200,284,151838,1,0,0:0:0:0:
240,356,152095,1,0,0:0:0:0:
320,364,152351,2,0,P|456:312|464:260,1,200,4|0,1:0|1:0,0:0:0:0:
464,196,153377,2,0,L|444:128,1,66.6666666666667
404,60,153890,5,4,1:0:0:0:
284,80,154274,1,0,0:0:0:0:
240,192,154659,1,0,1:0:0:0:
200,304,155044,1,0,0:0:0:0:
96,360,155428,2,0,P|96:248|164:192,1,200,4|0,1:0|1:0,0:0:0:0:
348,48,156967,5,2,3:0:0:0:
440,120,157351,1,0,0:0:0:0:
452,240,157736,1,0,0:0:0:0:
384,336,158120,1,0,0:0:0:0:
264,360,158505,1,2,3:0:0:0:
164,296,158890,1,0,0:0:0:0:
136,180,159274,1,0,0:0:0:0:
192,76,159659,1,0,0:0:0:0:
312,60,160044,6,0,L|408:96,1,100,4|0,2:0|0:0,0:0:0:0:
440,204,160813,2,0,L|344:240,1,100
232,204,161582,2,0,L|138:168,1,100
104,284,162351,2,0,L|197:319,1,100
316,324,163120,6,0,P|356:332|388:324,1,66.6666666666667,8|0,3:0|0:0,0:0:0:0:
456,300,163633,1,0,0:0:0:0:
484,224,163890,2,0,L|480:152,1,66.6666666666667
436,92,164403,1,0,0:0:0:0:
392,160,164659,2,0,L|392:248,1,66.6666666666667,2|0,3:0|0:0,0:0:0:0:
332,280,165172,1,0,0:0:0:0:
280,344,165428,2,0,L|200:344,1,66.6666666666667
160,284,165941,1,0,0:0:0:0:
112,220,166197,5,4,0:0:0:0:
