osu file format v13

[General]
AudioFilename: Warriors 2014 Worlds Anthem _ Riot Games Collaboration with Imagine Dragons.mp3
AudioLeadIn: 0
PreviewTime: 33890
Countdown: 0
SampleSet: Normal
StackLeniency: 0.7
Mode: 0
LetterboxInBreaks: 0
EpilepsyWarning: 1
WidescreenStoryboard: 0

[Editor]
Bookmarks: 9303,26454,29659,45916
DistanceSpacing: 1.2
BeatDivisor: 6
GridSize: 4
TimelineZoom: 1.6

[Metadata]
Title:Warriors
TitleUnicode:Warriors
Artist:Imagine Dragons
ArtistUnicode:Imagine Dragons
Creator:Tician
Version:Diamond
Source:League of Legends
Tags:Riot Games Collaboration LoL DEMACIA 2014 World Championship alternative symphonic hard rock single
BeatmapID:512972
BeatmapSetID:217375

[Difficulty]
HPDrainRate:7
CircleSize:4
OverallDifficulty:8
ApproachRate:9
SliderMultiplier:2.99999990463257
SliderTickRate:1

[Events]
//Background and Video events
Video,0,"Championship Video.avi"
0,0,"warriors.jpg",0,0
//Break Periods
2,107936,131751
//Storyboard Layer 0 (Background)
//Storyboard Layer 1 (Fail)
//Storyboard Layer 2 (Pass)
//Storyboard Layer 3 (Foreground)
//Storyboard Sound Samples
//Background Colour Transformations
3,100,163,162,255

[TimingPoints]
3121,769.230769230769,4,2,0,40,1,0
9268,-100,4,2,0,40,0,0
18633,-100,4,2,0,10,0,0
18762,-100,4,2,0,40,0,0
33120,-100,4,2,0,40,0,0
33889,-100,4,3,0,55,0,1
58504,-100,4,2,0,40,0,0
81582,-133.333333333333,4,2,0,40,0,0
83120,-100,4,3,0,55,0,1
107735,-100,4,2,0,40,0,0
132351,-133.333333333333,4,2,0,40,0,0
137351,-100,4,2,0,40,0,0
138504,-100,4,3,0,55,0,1
156966,-100,4,1,0,40,0,0

[Colours]
Combo1 : 0,128,128
Combo2 : 192,192,192
Combo3 : 128,128,128

[HitObjects]
148,268,9274,6,0,P|208:216|220:140,1,149.999995231629,0|0,3:0|0:0,0:0:0:0:
108,160,9915,1,0,0:0:0:0:
108,160,10044,2,0,L|28:268,1,99.9999968210857
8,164,10428,2,0,L|80:68,1,99.9999968210857
168,28,10813,6,0,P|232:32|296:112,1,149.999995231629,0|0,3:0|0:0,0:0:0:0:
320,316,11454,1,0,0:0:0:0:
320,316,11582,2,0,P|296:308|264:288,1,49.9999984105428
185,243,11838,1,0,0:0:0:0:
305,243,11967,2,0,P|336:244|364:240,1,49.9999984105428
215,295,12223,1,0,0:0:0:0:
276,192,12351,2,0,P|280:128|236:56,1,149.999995231629,0|0,3:0|0:0,0:0:0:0:
176,20,12864,2,0,P|151:16|126:20,1,49.9999984105428
68,60,13120,2,0,P|27:121|28:195,1,149.999995231629,0|0,3:0|0:0,0:0:0:0:
132,268,13762,1,0,0:0:0:0:
132,268,13890,6,0,P|144:332|180:364,1,99.9999968210857,0|0,3:0|0:0,0:0:0:0:
176,200,14274,2,0,P|208:244|204:300,1,99.9999968210857
208,287,14659,1,0,0:0:0:0:
348,280,14915,1,0,0:0:0:0:
348,280,15044,1,0,0:0:0:0:
420,184,15300,1,0,0:0:0:0:
420,183,15428,6,0,P|419:97|352:36,1,149.999995231629,0|0,3:0|0:0,0:0:0:0:
356,280,16069,1,0,0:0:0:0:
356,278,16197,2,0,P|310:221|314:148,1,149.999995231629
208,204,16838,1,0,0:0:0:0:
208,204,16967,6,0,P|224:276|252:316,1,99.9999968210857,0|0,3:0|0:0,0:0:0:0:
208,204,17351,2,0,P|137:181|84:184,1,99.9999968210857
208,204,17736,2,0,P|262:154|284:108,1,99.9999968210857
274,131,18120,1,0,0:0:0:0:
404,116,18377,1,0,0:0:0:0:
404,116,18505,6,0,L|336:152,1,49.9999984105428,0|0,3:0|0:0,0:0:0:0:
436,196,18762,2,0,L|280:280,1,149.999995231629
432,296,19274,2,0,L|376:328,1,49.9999984105428,0|0,0:0|0:0,0:0:0:0:
308,364,19531,2,0,P|232:364|168:308,1,149.999995231629
120,240,20044,6,0,P|96:176|124:124,1,99.9999968210857,0|0,3:0|0:0,0:0:0:0:
168,72,20428,1,0,0:0:0:0:
260,44,20556,1,0,0:0:0:0:
352,72,20685,1,0,0:0:0:0:
416,140,20813,2,0,P|436:184|428:256,1,99.9999968210857
348,304,21197,1,0,0:0:0:0:
336,208,21326,1,0,0:0:0:0:
284,128,21454,1,0,0:0:0:0:
236,44,21582,6,0,P|196:84|192:152,1,99.9999968210857,0|0,3:0|0:0,0:0:0:0:
136,228,21967,2,0,P|89:178|88:124,1,99.9999968210857
212,224,22351,2,0,P|278:208|320:232,1,99.9999968210857
176,292,22736,2,0,P|162:349|116:384,1,99.9999968210857
252,348,23120,6,0,B|256:260|328:240|328:240|384:220|408:160,1,249.999992052714,0|0,3:0|0:0,0:0:0:0:
420,22,23890,2,0,P|371:25|332:55,1,99.9999968210857
308,152,24274,2,0,P|256:120|236:84,1,99.9999968210857
188,0,24659,6,0,P|152:32|136:80,1,99.9999968210857,0|0,3:0|0:0,0:0:0:0:
204,156,25044,2,0,P|208:184|208:212,1,49.9999984105428
176,300,25300,1,0,0:0:0:0:
176,300,25428,2,0,P|120:320|64:300,1,99.9999968210857
120,236,25813,2,0,P|136:208|144:180,1,49.9999984105428
264,188,26069,1,0,0:0:0:0:
264,188,26197,6,0,L|264:296,1,99.9999968210857,0|0,3:0|0:0,0:0:0:0:
284,376,26582,2,0,P|332:352|352:308,1,99.9999968210857
452,316,26967,2,0,P|432:256|388:220,1,99.9999968210857
332,148,27351,2,0,L|288:104,1,49.9999984105428
196,60,27608,1,0,0:0:0:0:
196,60,27736,6,0,P|136:100|104:140,1,99.9999968210857,0|0,3:0|0:0,0:0:0:0:
168,248,28120,2,0,P|184:160|216:140,1,99.9999968210857
256,216,28505,2,0,P|280:276|320:316,1,99.9999968210857
400,332,28890,1,0,0:0:0:0:
484,288,29018,1,0,0:0:0:0:
476,192,29146,1,0,0:0:0:0:
448,100,29274,6,0,P|424:56|360:24,1,99.9999968210857,0|0,3:0|0:0,0:0:0:0:
340,120,29659,2,0,P|351:147|352:176,1,49.9999984105428
272,52,29915,1,0,0:0:0:0:
272,52,30044,2,0,B|223:35|223:35|172:68,1,99.9999968210857
182,61,30428,1,0,0:0:0:0:
56,208,30685,1,0,0:0:0:0:
56,208,30813,5,0,0:0:0:0:
150,254,31069,2,0,P|174:194|254:174,1,149.999995231629
324,232,31582,2,0,P|280:216|248:152,1,99.9999968210857
328,152,31967,1,0,0:0:0:0:
272,280,32223,1,0,0:0:0:0:
272,280,32351,6,0,L|244:400,1,99.9999968210857,0|0,3:0|0:0,0:0:0:0:
116,324,32736,2,0,L|132:264,2,49.9999984105428,0|0|0,0:0|0:0|0:0,0:0:0:0:
240,220,33120,2,8,L|252:164,2,49.9999984105428,8|8|8,3:0|3:0|3:0,3:0:0:0:
356,100,33505,2,4,L|372:40,2,49.9999984105428,4|4|4,3:0|3:0|3:0,3:0:0:0:
284,36,33890,6,0,P|204:24|128:96,1,149.999995231629,4|0,1:0|0:0,0:0:0:0:
227,347,34659,2,0,P|314:358|376:300,1,149.999995231629,0|0,1:0|0:0,0:0:0:0:
356,180,35300,1,0,0:0:0:0:
140,180,35428,2,0,L|256:180,1,99.9999968210857,4|0,1:0|0:0,0:0:0:0:
424,92,35813,2,0,L|304:92,1,99.9999968210857
208,80,36197,2,0,P|120:60|48:112,1,149.999995231629,0|0,1:0|0:0,0:0:0:0:
140,180,36838,1,0,0:0:0:0:
216,240,36967,6,0,B|244:252|244:252|256:280,2,49.9999984105428,4|0|0,1:0|0:0|0:0,0:0:0:0:
280,140,37351,2,0,B|308:128|308:128|320:104,2,49.9999984105428,0|0|0,0:0|0:0|0:0,0:0:0:0:
348,240,37736,2,0,B|376:252|376:252|388:276,2,49.9999984105428,0|0|0,1:0|0:0|0:0,0:0:0:0:
412,140,38120,2,0,B|440:128|440:128|452:104,2,49.9999984105428,0|0|0,0:0|0:0|0:0,0:0:0:0:
364,56,38505,6,0,B|312:4|312:4|192:4,1,149.999995231629,4|0,1:0|0:0,0:0:0:0:
235,4,39018,1,0,0:0:0:0:
100,64,39274,2,0,P|68:96|44:136,1,49.9999984105428,0|0,1:0|0:0,0:0:0:0:
64,192,39531,1,0,0:0:0:0:
184,120,39659,2,0,P|152:152|128:192,1,49.9999984105428
144,248,39916,1,0,0:0:0:0:
172,332,40044,6,0,P|272:328|280:316,1,99.9999968210857,4|0,1:0|0:0,0:0:0:0:
364,344,40428,1,0,0:0:0:0:
332,260,40556,1,0,0:0:0:0:
424,268,40685,1,0,0:0:0:0:
440,176,40813,2,0,B|412:172|384:184|384:184|356:164|324:168,1,99.9999968210857,0|0,1:0|0:0,0:0:0:0:
252,128,41197,2,0,L|192:104,2,49.9999984105428,0|0|0,0:0|0:0|0:0,0:0:0:0:
160,164,41582,2,0,P|80:168|40:136,1,99.9999968210857,4|0,1:0|0:0,0:0:0:0:
116,80,41967,2,0,P|67:48|44:0,1,99.9999968210857
104,216,42351,2,0,P|165:267|176:308,1,99.9999968210857,0|0,1:0|0:0,0:0:0:0:
171,283,42736,1,0,0:0:0:0:
300,284,42992,1,0,0:0:0:0:
300,284,43120,6,0,P|316:208|404:160,1,149.999995231629,4|0,1:0|0:0,0:0:0:0:
212,100,43762,1,0,0:0:0:0:
212,100,43890,2,0,P|196:176|108:224,1,149.999995231629,0|0,1:0|0:0,0:0:0:0:
112,120,44531,1,0,0:0:0:0:
12,116,44659,2,0,P|25:68|64:32,2,99.9999968210857,0|0|0,0:0|0:0|0:0,0:0:0:0:
76,184,45428,2,0,P|48:204|16:208,1,49.9999984105428,0|0,1:0|0:0,0:0:0:0:
112,120,45685,1,0,0:0:0:0:
124,48,45813,2,0,P|132:24|148:4,1,49.9999984105428
204,60,46069,1,0,0:0:0:0:
204,60,46197,6,0,P|280:36|360:96,1,149.999995231629,4|0,1:0|0:0,0:0:0:0:
272,124,46967,2,0,P|288:200|376:264,1,149.999995231629,0|0,1:0|0:0,0:0:0:0:
372,156,47479,2,0,P|364:132|368:104,1,49.9999984105428
442,223,47736,6,0,P|432:304|368:352,1,149.999995231629,4|0,1:0|0:0,0:0:0:0:
236,332,48377,1,0,0:0:0:0:
236,332,48505,2,0,P|212:268|168:256,1,99.9999968210857,0|0,1:0|0:0,0:0:0:0:
104,196,48890,2,0,P|148:164|164:164,1,49.9999984105428
72,92,49146,1,0,0:0:0:0:
72,92,49274,6,0,P|160:64|228:108,1,149.999995231629,4|0,1:0|0:0,0:0:0:0:
140,164,49915,1,0,0:0:0:0:
176,232,50044,2,0,L|200:304,2,49.9999984105428,0|0|0,1:0|0:0|0:0,0:0:0:0:
244,164,50428,1,0,0:0:0:0:
244,164,50556,2,0,L|308:188,1,49.9999984105428
292,284,50813,6,0,B|312:332|312:332|376:332,1,99.9999968210857,4|0,1:0|0:0,0:0:0:0:
452,276,51197,1,0,0:0:0:0:
480,200,51326,1,0,0:0:0:0:
376,244,51454,1,0,0:0:0:0:
404,168,51582,2,0,L|384:92,1,49.9999984105428,0|0,1:0|0:0,0:0:0:0:
364,16,51838,1,0,0:0:0:0:
272,44,51967,2,0,L|288:100,2,49.9999984105428,0|0|0,0:0|0:0|0:0,0:0:0:0:
96,72,52351,6,0,L|48:200,1,99.9999968210857,4|0,1:0|0:0,0:0:0:0:
152,172,52736,2,0,L|192:60,1,99.9999968210857
185,77,53120,1,0,1:0:0:0:
128,240,53377,2,0,P|124:304|156:348,1,99.9999968210857
216,272,53762,1,0,0:0:0:0:
216,272,53890,6,0,P|284:320|376:284,1,149.999995231629,4|0,1:0|0:0,0:0:0:0:
480,72,54659,2,0,P|404:16|368:24,1,99.9999968210857,0|0,1:0|0:0,0:0:0:0:
332,4,55044,1,0,0:0:0:0:
152,72,55300,1,0,0:0:0:0:
152,72,55428,6,0,P|172:152|152:200,1,99.9999968210857,4|0,1:0|0:0,0:0:0:0:
168,166,55813,1,0,0:0:0:0:
404,336,56197,2,0,P|468:284|464:248,1,99.9999968210857,0|0,1:0|0:0,0:0:0:0:
468,273,56582,1,0,0:0:0:0:
268,164,56967,6,8,L|364:72,1,99.9999968210857,8|8,3:0|3:0,0:0:0:0:
444,0,57479,1,8,3:0:0:0:
192,176,57736,2,4,L|100:264,1,99.9999968210857,4|4,3:0|3:0,0:0:0:0:
12,336,58249,1,4,0:0:0:0:
132,344,58505,6,0,P|212:356|256:320,1,99.9999968210857,4|0,2:0|0:0,0:0:0:0:
268,264,59018,1,0,0:0:0:0:
268,264,59146,1,0,0:0:0:0:
268,264,59274,2,0,P|316:344|356:356,1,99.9999968210857
412,304,59659,2,0,P|436:272|440:248,1,49.9999984105428
416,76,59915,1,0,0:0:0:0:
416,76,60044,6,0,P|416:164|396:192,1,99.9999968210857,0|0,3:0|0:0,0:0:0:0:
336,120,60428,2,0,L|304:72,2,49.9999984105428,0|0|0,0:0|0:0|0:0,0:0:0:0:
240,116,60813,2,0,P|188:64|124:72,1,99.9999968210857
164,60,61197,2,0,L|220:40,1,49.9999984105428
68,112,61454,1,0,0:0:0:0:
68,112,61582,6,0,P|36:180|52:240,1,99.9999968210857,0|0,3:0|0:0,0:0:0:0:
68,316,61967,2,0,L|84:368,2,49.9999984105428,0|0|0,0:0|0:0|0:0,0:0:0:0:
44,224,62351,2,0,P|92:164|148:160,1,99.9999968210857
228,156,62736,2,0,L|300:156,2,49.9999984105428,0|0|0,0:0|0:0|0:0,0:0:0:0:
220,252,63120,6,0,B|296:252|296:252|416:252|416:120|416:120|416:52,1,299.999990463257,0|0,3:0|0:0,0:0:0:0:
224,60,64275,1,0,0:0:0:0:
140,108,64403,1,0,0:0:0:0:
100,196,64531,1,0,0:0:0:0:
100,196,64659,6,0,P|196:264|276:196,1,199.999993642171,0|0,3:0|0:0,0:0:0:0:
188,172,65428,2,0,P|176:272|256:324,1,199.999993642171
320,104,66197,6,0,P|260:64|168:96,1,149.999995231629,0|0,3:0|0:0,0:0:0:0:
187,78,66710,1,0,0:0:0:0:
183,340,66967,2,0,P|254:292|244:208,1,149.999995231629
257,233,67479,1,0,0:0:0:0:
176,136,67608,1,0,0:0:0:0:
176,136,67736,6,0,P|112:184|128:236,1,99.9999968210857,0|0,3:0|0:0,0:0:0:0:
480,340,68505,2,0,P|472:256|432:236,1,99.9999968210857
228,56,69146,1,0,0:0:0:0:
228,56,69274,5,0,3:0:0:0:
84,92,69531,1,0,0:0:0:0:
76,168,69659,1,0,0:0:0:0:
148,196,69787,1,0,0:0:0:0:
328,280,70044,1,0,0:0:0:0:
316,132,70300,1,0,0:0:0:0:
388,108,70428,1,0,0:0:0:0:
428,172,70556,1,0,0:0:0:0:
392,320,70813,6,0,P|332:356|256:304,1,149.999995231629,0|0,3:0|0:0,0:0:0:0:
72,304,71582,1,0,0:0:0:0:
52,212,71710,1,0,0:0:0:0:
80,120,71838,1,0,0:0:0:0:
60,24,71967,1,0,0:0:0:0:
344,60,72351,2,0,P|384:12|408:96,1,149.999995231629,0|0,3:0|0:0,0:0:0:0:
356,256,73120,1,0,0:0:0:0:
272,300,73249,1,0,0:0:0:0:
280,208,73377,1,0,0:0:0:0:
356,256,73505,1,0,0:0:0:0:
144,44,73890,6,0,L|88:56,1,49.9999984105428,0|0,3:0|0:0,0:0:0:0:
216,108,74146,2,0,L|384:64,1,149.999995231629
300,36,74659,2,0,L|200:0,1,99.9999968210857
324,128,75044,2,0,L|448:172,1,99.9999968210857
460,260,75428,6,0,B|344:208|288:320|288:320|208:272|208:272|208:272|208:272,1,299.999990463257,0|0,3:0|0:0,0:0:0:0:
28,224,76582,2,0,B|0:268|0:268|41:309,1,99.9999968210857
52,136,76967,6,0,P|64:72|128:72,1,99.9999968210857,0|0,3:0|0:0,0:0:0:0:
90,60,77351,1,0,0:0:0:0:
252,64,77608,1,0,0:0:0:0:
252,64,77736,2,0,P|268:124|208:180,1,149.999995231629
96,240,78377,1,0,0:0:0:0:
96,240,78505,2,0,P|60:292|84:352,1,99.9999968210857,0|0,3:0|0:0,0:0:0:0:
64,325,78890,1,0,0:0:0:0:
32,168,79146,1,0,0:0:0:0:
32,168,79274,2,0,P|114:145|168:176,1,149.999995231629
384,320,80044,6,0,L|428:364,1,49.9999984105428,0|0,3:0|0:0,0:0:0:0:
128,320,80428,2,0,L|84:364,1,49.9999984105428
128,64,80813,2,0,L|84:20,1,49.9999984105428
384,64,81197,2,0,L|428:20,1,49.9999984105428
256,192,81582,2,0,B|240:208|304:236|320:172|292:120|204:116|180:172|180:220|220:256,1,225.000001430512,0|0,3:0|0:0,0:0:0:0:
228,36,83120,6,0,P|308:24|384:96,1,149.999995231629,4|0,1:0|0:0,0:0:0:0:
285,347,83889,2,0,P|198:358|136:300,1,149.999995231629,0|0,1:0|0:0,0:0:0:0:
156,180,84530,1,0,0:0:0:0:
372,180,84658,2,0,L|256:180,1,99.9999968210857,4|0,1:0|0:0,0:0:0:0:
88,92,85043,2,0,L|208:92,1,99.9999968210857
304,80,85428,2,0,P|392:60|452:92,1,149.999995231629,0|0,1:0|0:0,0:0:0:0:
372,180,86068,1,0,0:0:0:0:
296,240,86197,6,0,B|268:252|268:252|256:280,2,49.9999984105428,4|0|0,1:0|0:0|0:0,0:0:0:0:
232,140,86581,2,0,B|204:128|204:128|192:104,2,49.9999984105428,0|0|0,0:0|0:0|0:0,0:0:0:0:
164,240,86966,2,0,B|136:252|136:252|124:276,2,49.9999984105428,0|0|0,1:0|0:0|0:0,0:0:0:0:
100,140,87351,2,0,B|72:128|72:128|60:104,2,49.9999984105428,0|0|0,0:0|0:0|0:0,0:0:0:0:
148,56,87735,6,0,B|200:4|200:4|320:4,1,149.999995231629,4|0,1:0|0:0,0:0:0:0:
277,4,88248,1,0,0:0:0:0:
412,64,88504,2,0,P|444:96|468:136,1,49.9999984105428,0|0,1:0|0:0,0:0:0:0:
448,192,88761,1,0,0:0:0:0:
328,120,88889,2,0,P|360:152|384:192,1,49.9999984105428
368,248,89146,1,0,0:0:0:0:
340,332,89274,6,0,P|240:328|232:316,1,99.9999968210857,4|0,1:0|0:0,0:0:0:0:
148,344,89658,1,0,0:0:0:0:
180,260,89786,1,0,0:0:0:0:
88,268,89915,1,0,0:0:0:0:
72,176,90043,2,0,B|100:172|128:184|128:184|156:164|188:168,1,99.9999968210857,0|0,1:0|0:0,0:0:0:0:
260,128,90428,2,0,L|320:104,2,49.9999984105428,0|0|0,0:0|0:0|0:0,0:0:0:0:
352,164,90812,2,0,P|432:168|472:136,1,99.9999968210857,4|0,1:0|0:0,0:0:0:0:
396,80,91197,2,0,P|445:48|468:0,1,99.9999968210857
408,216,91581,2,0,P|347:267|336:308,1,99.9999968210857,0|0,1:0|0:0,0:0:0:0:
341,283,91966,1,0,0:0:0:0:
212,284,92222,1,0,0:0:0:0:
212,284,92351,6,0,P|196:208|108:160,1,149.999995231629,4|0,1:0|0:0,0:0:0:0:
300,100,92992,1,0,0:0:0:0:
300,100,93120,2,0,P|316:176|404:224,1,149.999995231629,0|0,1:0|0:0,0:0:0:0:
400,120,93761,1,0,0:0:0:0:
500,116,93890,2,0,P|487:68|448:32,2,99.9999968210857,0|0|0,0:0|0:0|0:0,0:0:0:0:
436,184,94658,2,0,P|464:204|496:208,1,49.9999984105428,0|0,1:0|0:0,0:0:0:0:
400,120,94915,1,0,0:0:0:0:
388,48,95043,2,0,P|380:24|364:4,1,49.9999984105428
308,60,95299,1,0,0:0:0:0:
308,60,95428,6,0,P|232:36|152:96,1,149.999995231629,4|0,1:0|0:0,0:0:0:0:
174,249,96197,2,0,P|225:196|240:124,1,149.999995231629,0|0,1:0|0:0,0:0:0:0:
140,156,96709,2,0,P|120:140|88:128,1,49.9999984105428
70,223,96966,6,0,P|80:304|144:352,1,149.999995231629,4|0,1:0|0:0,0:0:0:0:
276,332,97607,1,0,0:0:0:0:
276,332,97735,2,0,P|300:268|344:256,1,99.9999968210857,0|0,1:0|0:0,0:0:0:0:
408,196,98120,2,0,P|364:164|348:164,1,49.9999984105428
440,92,98376,1,0,0:0:0:0:
440,92,98505,6,0,P|352:64|284:108,1,149.999995231629,4|0,1:0|0:0,0:0:0:0:
372,164,99145,1,0,0:0:0:0:
336,232,99274,2,0,L|312:304,2,49.9999984105428,0|0|0,1:0|0:0|0:0,0:0:0:0:
268,164,99658,1,0,0:0:0:0:
268,164,99786,2,0,L|204:188,1,49.9999984105428
220,284,100043,6,0,B|200:332|200:332|136:332,1,99.9999968210857,4|0,1:0|0:0,0:0:0:0:
60,276,100427,1,0,0:0:0:0:
32,200,100556,1,0,0:0:0:0:
136,244,100684,1,0,0:0:0:0:
108,168,100812,2,0,L|128:92,1,49.9999984105428,0|0,1:0|0:0,0:0:0:0:
148,16,101068,1,0,0:0:0:0:
240,44,101197,2,0,L|224:100,2,49.9999984105428,0|0|0,0:0|0:0|0:0,0:0:0:0:
416,72,101581,6,0,L|464:200,1,99.9999968210857,4|0,1:0|0:0,0:0:0:0:
360,172,101966,2,0,L|320:60,1,99.9999968210857
327,77,102350,1,0,1:0:0:0:
384,240,102607,2,0,P|388:304|356:348,1,99.9999968210857
296,272,102992,1,0,0:0:0:0:
296,272,103120,6,0,P|228:320|136:284,1,149.999995231629,4|0,1:0|0:0,0:0:0:0:
32,72,103889,6,0,P|108:16|144:24,1,99.9999968210857,0|0,1:0|0:0,0:0:0:0:
180,4,104274,1,0,0:0:0:0:
360,72,104530,1,0,0:0:0:0:
360,72,104658,6,0,P|340:152|360:200,1,99.9999968210857,4|0,1:0|0:0,0:0:0:0:
344,166,105043,1,0,0:0:0:0:
108,336,105428,2,0,P|44:284|48:248,1,99.9999968210857,0|0,1:0|0:0,0:0:0:0:
44,273,105812,1,0,0:0:0:0:
244,164,106197,6,8,L|148:72,1,99.9999968210857,8|8,3:0|3:0,0:0:0:0:
68,0,106709,1,8,3:0:0:0:
320,80,106967,1,8,3:0:0:0:
357,92,107095,1,8,3:0:0:0:
388,117,107223,1,8,3:0:0:0:
409,151,107351,1,4,3:0:0:0:
417,190,107479,1,4,3:0:0:0:
412,230,107608,1,4,3:0:0:0:
394,265,107736,1,4,1:0:0:0:
152,276,132351,6,0,P|140:184|108:160,1,112.500000715256
359,108,133120,2,0,P|368:194|408:232,1,112.500000715256
164,124,133762,1,0,0:0:0:0:
164,124,133890,2,0,P|76:100|32:124,1,112.500000715256
104,320,134659,1,0,0:0:0:0:
204,368,135044,1,0,0:0:0:0:
196,260,135300,1,0,0:0:0:0:
196,260,135428,2,0,B|260:188|248:112|248:112|236:52|292:16|356:32|368:88,1,337.500002145767
340,320,136967,1,0,0:0:0:0:
240,160,137351,6,0,L|188:128,2,49.9999984105428,0|0|0,3:0|3:0|3:0,0:0:0:0:
316,156,137736,2,0,L|368:120,2,49.9999984105428,8|8|8,3:0|3:0|3:0,0:0:0:0:
280,220,138120,2,0,L|280:280,2,49.9999984105428,4|4|4,3:0|3:0|3:0,0:0:0:0:
340,52,138505,6,0,P|240:56|232:68,1,99.9999968210857,4|0,1:0|0:0,0:0:0:0:
148,40,138889,1,0,0:0:0:0:
180,124,139017,1,0,0:0:0:0:
88,116,139146,1,0,0:0:0:0:
72,208,139274,2,0,B|100:212|128:200|128:200|156:220|188:216,1,99.9999968210857,0|0,1:0|0:0,0:0:0:0:
260,256,139658,2,0,L|260:320,2,49.9999984105428,0|0|0,0:0|0:0|0:0,0:0:0:0:
352,220,140043,2,0,P|432:216|472:248,1,99.9999968210857,4|0,1:0|0:0,0:0:0:0:
396,304,140428,2,0,P|445:336|468:384,1,99.9999968210857
392,132,140812,2,0,P|331:81|320:40,1,99.9999968210857,0|0,1:0|0:0,0:0:0:0:
324,64,141197,1,0,0:0:0:0:
212,100,141453,1,0,0:0:0:0:
212,100,141582,6,0,P|196:176|108:224,1,149.999995231629,4|0,1:0|0:0,0:0:0:0:
300,284,142223,1,0,0:0:0:0:
300,284,142351,2,0,P|316:208|404:160,1,149.999995231629,0|0,1:0|0:0,0:0:0:0:
400,264,142992,1,0,0:0:0:0:
500,268,143120,2,0,P|487:316|448:352,2,99.9999968210857,0|0|0,0:0|0:0|0:0,0:0:0:0:
436,200,143889,2,0,P|464:180|496:176,1,49.9999984105428,0|0,1:0|0:0,0:0:0:0:
400,264,144146,1,0,0:0:0:0:
388,336,144274,2,0,P|380:360|364:380,1,49.9999984105428
308,324,144530,1,0,0:0:0:0:
308,324,144659,6,0,P|232:348|152:288,1,149.999995231629,4|0,1:0|0:0,0:0:0:0:
240,260,145428,2,0,P|224:184|136:120,1,149.999995231629,0|0,1:0|0:0,0:0:0:0:
272,124,145940,2,0,P|312:132|340:148,1,49.9999984105428
70,161,146197,6,0,P|80:80|144:32,1,149.999995231629,4|0,1:0|0:0,0:0:0:0:
276,52,146838,1,0,0:0:0:0:
276,52,146966,2,0,P|300:116|344:128,1,99.9999968210857,0|0,1:0|0:0,0:0:0:0:
408,188,147351,2,0,P|364:220|348:220,1,49.9999984105428
440,292,147607,1,0,0:0:0:0:
440,292,147735,6,0,P|352:320|284:276,1,149.999995231629,4|0,1:0|0:0,0:0:0:0:
372,220,148376,1,0,0:0:0:0:
336,152,148505,2,0,L|312:80,2,49.9999984105428,0|0|0,1:0|0:0|0:0,0:0:0:0:
268,220,148889,1,0,0:0:0:0:
268,220,149017,2,0,L|204:196,1,49.9999984105428
220,100,149274,6,0,B|200:52|200:52|136:52,1,99.9999968210857,4|0,1:0|0:0,0:0:0:0:
60,108,149658,1,0,0:0:0:0:
32,184,149787,1,0,0:0:0:0:
136,140,149915,1,0,0:0:0:0:
108,216,150043,2,0,L|128:292,1,49.9999984105428,0|0,1:0|0:0,0:0:0:0:
148,368,150299,1,0,0:0:0:0:
240,340,150428,2,0,L|224:284,2,49.9999984105428,0|0|0,0:0|0:0|0:0,0:0:0:0:
416,312,150812,6,0,L|464:184,1,99.9999968210857,4|0,1:0|0:0,0:0:0:0:
360,212,151197,2,0,L|320:324,1,99.9999968210857
327,307,151581,1,0,1:0:0:0:
384,144,151838,2,0,P|388:80|356:36,1,99.9999968210857
296,112,152223,1,0,0:0:0:0:
296,112,152351,6,0,P|228:64|136:100,1,149.999995231629,4|0,1:0|0:0,0:0:0:0:
32,312,153120,2,0,P|108:368|144:360,1,99.9999968210857,0|0,1:0|0:0,0:0:0:0:
180,380,153505,1,0,0:0:0:0:
360,312,153761,1,0,0:0:0:0:
360,312,153889,6,0,P|340:232|360:184,1,99.9999968210857,4|0,1:0|0:0,0:0:0:0:
344,218,154274,1,0,0:0:0:0:
108,48,154658,2,0,P|44:100|48:136,1,99.9999968210857,0|0,1:0|0:0,0:0:0:0:
44,111,155043,1,0,0:0:0:0:
244,220,155428,6,8,L|148:312,1,99.9999968210857,8|8,3:0|3:0,0:0:0:0:
68,384,155940,1,8,3:0:0:0:
320,208,156197,2,4,L|412:120,1,99.9999968210857,4|4,3:0|3:0,0:0:0:0:
500,48,156710,1,4,0:0:0:0:
68,56,156967,6,0,L|68:176,1,99.9999968210857,2|0,3:0|0:0,0:0:0:0:
156,356,157351,2,0,L|156:216,1,99.9999968210857,2|0,3:0|0:0,0:0:0:0:
156,140,157736,1,0,0:0:0:0:
224,72,157864,1,0,0:0:0:0:
320,60,157992,1,0,0:0:0:0:
404,104,158120,2,0,P|452:148|472:196,1,99.9999968210857
464,296,158505,6,0,L|336:296,1,99.9999968210857,2|0,3:0|0:0,0:0:0:0:
48,228,158890,2,0,L|176:228,1,99.9999968210857,2|0,3:0|0:0,0:0:0:0:
264,224,159274,1,0,0:0:0:0:
352,184,159403,1,0,0:0:0:0:
376,92,159531,1,0,0:0:0:0:
308,24,159659,2,0,P|244:4|176:28,1,99.9999968210857
120,92,160044,6,0,P|80:156|96:204,1,99.9999968210857,4|0,3:0|0:0,0:0:0:0:
140,252,160428,1,0,0:0:0:0:
204,320,160556,1,0,0:0:0:0:
140,252,160685,1,0,0:0:0:0:
80,176,160813,2,0,P|120:124|152:104,1,99.9999968210857,2|0,3:0|0:0,0:0:0:0:
228,160,161197,1,0,0:0:0:0:
296,228,161326,1,0,0:0:0:0:
360,300,161454,1,0,0:0:0:0:
460,316,161582,6,0,P|452:256|416:216,1,99.9999968210857,2|0,3:0|0:0,0:0:0:0:
360,152,161967,1,0,0:0:0:0:
296,80,162095,1,0,0:0:0:0:
204,52,162223,1,0,0:0:0:0:
116,88,162351,2,0,P|56:148|56:188,1,99.9999968210857,2|0,3:0|0:0,0:0:0:0:
102,293,162736,2,0,L|124:248,2,49.9999984105428,0|0|0,0:0|0:0|0:0,0:0:0:0:
221,251,163121,5,2,3:0:0:0:
221,131,163378,1,0,3:0:0:0:
325,192,163634,1,0,3:0:0:0:
177,237,163890,1,2,3:0:0:0:
256,101,164147,1,0,3:0:0:0:
333,237,164403,1,0,3:0:0:0:
145,191,164660,5,2,3:0:0:0:
311,96,164916,1,0,3:0:0:0:
311,288,165173,1,0,3:0:0:0:
136,122,165429,1,2,3:0:0:0:
376,122,165685,1,0,3:0:0:0:
255,330,165942,1,0,3:0:0:0:
256,24,166197,5,4,1:0:0:0:
