osu file format v13

[General]
AudioFilename: Warriors 2014 Worlds Anthem _ Riot Games Collaboration with Imagine Dragons.mp3
AudioLeadIn: 0
PreviewTime: 33890
Countdown: 0
SampleSet: Soft
StackLeniency: 0.7
Mode: 0
LetterboxInBreaks: 0
WidescreenStoryboard: 0

[Editor]
DistanceSpacing: 1.2
BeatDivisor: 6
GridSize: 4
TimelineZoom: 1

[Metadata]
Title:Warriors
TitleUnicode:Warriors
Artist:Imagine Dragons
ArtistUnicode:Imagine Dragons
Creator:Tician
Version:Bronze
Source:League of Legends
Tags:Riot Games Collaboration LoL DEMACIA 2014 World Championship alternative symphonic hard rock single
BeatmapID:509937
BeatmapSetID:217375

[Difficulty]
HPDrainRate:2
CircleSize:3
OverallDifficulty:3
ApproachRate:3
SliderMultiplier:1.40000000596046
SliderTickRate:1

[Events]
//Background and Video events
Video,0,"Championship Video.avi"
0,0,"warriors.jpg",0,0
//Break Periods
2,108320,130911
//Storyboard Layer 0 (Background)
//Storyboard Layer 1 (Fail)
//Storyboard Layer 2 (Pass)
//Storyboard Layer 3 (Foreground)
//Storyboard Sound Samples
//Background Colour Transformations
3,100,163,162,255

[TimingPoints]
3121,769.230769230769,4,2,0,40,1,0
9274,-100,4,2,0,40,0,0
33889,-100,4,3,0,55,0,1
58504,-100,4,2,0,40,0,0
83120,-100,4,3,0,55,0,1
107735,-100,4,2,0,40,0,0
132372,-100,4,1,0,40,0,0
138504,-100,4,2,0,55,0,1
156966,-100,4,1,0,40,0,0

[HitObjects]
96,256,9274,6,0,P|148:308|228:292,1,140.000001192093,0|0,3:0|0:0,0:0:0:0:
272,252,10428,1,0,0:0:0:0:
340,200,10813,2,0,P|396:200|464:272,1,140.000001192093,0|0,3:0|0:0,0:0:0:0:
444,336,11967,1,0,0:0:0:0:
364,304,12351,6,0,L|288:264,1,70.0000005960464,0|0,0:0|0:0,0:0:0:0:
220,272,13121,2,0,L|144:232,1,70.0000005960464
84,276,13890,2,0,P|84:204|136:160,1,140.000001192093,0|0,3:0|0:0,0:0:0:0:
212,140,15044,1,0,0:0:0:0:
292,132,15428,6,0,B|352:96|360:144|428:100,1,140.000001192093,0|0,3:0|0:0,0:0:0:0:
372,36,16582,1,0,0:0:0:0:
288,36,16967,2,0,L|216:36,1,70.0000005960464,0|0,3:0|0:0,0:0:0:0:
136,52,17736,2,0,P|100:68|76:104,1,70.0000005960464
80,176,18505,6,0,P|88:204|124:232,1,70.0000005960464,0|0,3:0|0:0,0:0:0:0:
136,312,19275,2,0,P|180:288|196:264,1,70.0000005960464
253,333,20044,2,0,P|297:280|296:212,1,140.000001192093,0|0,3:0|0:0,0:0:0:0:
272,44,21582,6,0,P|264:132|224:168,1,140.000001192093,0|0,3:0|0:0,0:0:0:0:
148,184,22736,1,0,0:0:0:0:
204,244,23121,2,0,P|196:332|156:368,1,140.000001192093,0|0,3:0|0:0,0:0:0:0:
80,356,24275,1,0,0:0:0:0:
24,292,24659,6,0,P|5:244|8:220,1,70.0000005960464,0|0,3:0|0:0,0:0:0:0:
72,172,25428,2,0,P|88:204|89:237,1,70.000000298023,0|0,3:0|0:0,0:0:0:0:
148,300,26198,2,0,B|192:244|160:159,1,140.000000596046,0|0,3:0|0:0,0:0:0:0:
112,96,27351,1,0,0:0:0:0:
36,56,27736,6,0,P|72:20|100:12,1,70.0000005960464,0|0,3:0|0:0,0:0:0:0:
172,28,28505,1,0,0:0:0:0:
256,40,28890,1,0,0:0:0:0:
328,80,29275,2,0,P|340:104|332:152,1,70.0000005960464,0|0,3:0|0:0,0:0:0:0:
284,212,30044,1,0,0:0:0:0:
204,180,30428,1,0,0:0:0:0:
176,100,30813,6,0,P|168:68|140:28,1,70.0000005960464,0|0,3:0|0:0,0:0:0:0:
64,40,31582,2,0,P|40:96|40:120,1,70.0000005960464
56,188,32351,2,0,B|100:312|164:192|208:332|208:332,1,210.000000894069,0|0,3:0|0:0,0:0:0:0:
288,324,33890,6,0,P|312:252|368:228,1,140.000001192093,4|0,1:0|1:0,0:0:0:0:
448,196,35043,1,0,0:0:0:0:
408,120,35428,2,0,P|364:72|284:40,1,140.000001192093,4|0,1:0|1:0,0:0:0:0:
212,48,36582,1,0,0:0:0:0:
224,132,36967,6,0,P|320:140|336:248,1,210.000001788139,4|0,1:0|0:0,0:0:0:0:
264,204,38505,2,0,P|345:152|424:228,1,210.000001788139,4|4,1:0|0:0,0:0:0:0:
480,276,40043,6,0,B|440:316|372:288|372:288|276:292,1,210.000001788139,4|0,1:0|0:0,0:0:0:0:
196,288,41582,2,0,B|112:276|112:192|112:192|112:144|76:124,1,210.000001788139,4|0,1:0|0:0,0:0:0:0:
48,60,43120,5,4,1:0:0:0:
208,108,43890,1,0,1:0:0:0:
304,248,44659,2,0,P|348:296|420:304,1,140.000001192093,4|0,1:0|1:0,0:0:0:0:
452,140,46197,6,0,P|412:68|352:48,1,140.000001192093,4|0,1:0|1:0,0:0:0:0:
276,44,47351,1,0,0:0:0:0:
192,48,47736,2,0,P|148:56|116:84,1,70.000000298023,4|0,1:0|0:0,0:0:0:0:
76,136,48505,2,0,L|76:212,1,70.0000005960464,0|0,0:2|0:0,0:0:0:0:
156,228,49274,6,0,P|212:140|312:136,1,210.000001788139,4|0,1:0|0:0,0:0:0:0:
388,168,50813,2,0,P|440:180|464:204,1,70.0000005960464,4|0,1:0|0:0,0:0:0:0:
452,276,51582,1,0,1:0:0:0:
384,324,51966,1,0,0:0:0:0:
304,296,52351,6,0,P|272:224|308:176,1,140.000001192093,4|0,1:0|0:0,0:0:0:0:
320,96,53505,1,0,0:0:0:0:
240,124,53890,2,0,B|180:184|192:260|192:260|200:304|184:328,1,210.000001788139,4|0,1:0|0:0,0:0:0:0:
104,336,55428,5,4,1:0:0:0:
40,180,56197,1,0,1:0:0:0:
168,72,56966,1,4,1:0:0:0:
460,240,58505,6,0,P|472:296|412:344,1,140.000001192093,0|0,3:0|0:0,0:0:0:0:
332,320,59658,1,0,0:0:0:0:
264,268,60044,6,0,P|255:201|310:164,1,140.000001192093,0|0,3:0|0:0,0:0:0:0:
332,80,61197,1,0,0:0:0:0:
248,76,61582,6,0,P|216:92|184:124,1,70.000000298023,0|0,3:0|0:0,0:0:0:0:
108,124,62351,2,0,P|88:164|72:200,1,70.0000005960464
60,264,63120,2,0,P|132:308|188:276,1,140.000001192093,0|0,3:0|0:0,0:0:0:0:
240,232,64274,1,0,0:0:0:0:
284,160,64659,6,0,P|308:136|356:120,1,70.0000005960464,0|0,3:0|0:0,0:0:0:0:
416,164,65428,2,0,P|388:192|340:204,1,70.0000005960464
316,276,66197,2,0,P|296:300|284:340,1,70.0000005960464,0|0,3:0|0:0,0:0:0:0:
368,340,66966,2,0,P|392:304|400:264,1,70.0000005960464
440,204,67735,5,0,3:0:0:0:
404,128,68120,1,0,0:0:0:0:
344,72,68505,1,0,0:0:0:0:
264,44,68889,1,0,0:0:0:0:
180,44,69274,2,0,P|108:72|60:116,1,140.000001192093,0|0,3:0|0:0,0:0:0:0:
128,264,70812,6,0,P|156:192|212:172,1,140.000001192093,0|0,3:0|0:0,0:0:0:0:
212,256,71966,1,0,0:0:0:0:
216,340,72351,2,0,P|278:312|296:244,1,140.000001192093,0|0,3:0|0:0,0:0:0:0:
352,184,73505,1,0,0:0:0:0:
380,264,73889,6,0,P|388:300|420:332,1,70.0000005960464,0|0,3:0|0:0,0:0:0:0:
464,260,74658,1,0,0:0:0:0:
440,180,75043,1,0,0:0:0:0:
404,104,75428,2,0,P|356:60|280:52,1,140.000001192093,0|0,3:0|0:0,0:0:0:0:
204,80,76581,1,0,0:0:0:0:
132,124,76966,6,0,L|76:184,1,70.0000005960464,0|0,3:0|0:0,0:0:0:0:
124,248,77736,2,0,L|68:308,1,70.0000005960464,0|0,3:0|0:0,0:0:0:0:
140,356,78505,2,0,L|187:304,1,70.0000005960464,0|0,3:0|0:0,0:0:0:0:
264,340,79274,2,0,L|311:288,1,70.0000005960464,0|0,3:0|0:0,0:0:0:0:
376,232,80043,5,0,3:0:0:0:
436,176,80428,1,0,3:0:0:0:
356,152,80812,1,0,3:0:0:0:
416,96,81197,1,0,3:0:0:0:
336,72,81581,2,0,L|188:4,1,140.000001192093,0|0,3:0|0:0,0:0:0:0:
264,172,83120,6,0,P|304:236|272:288,1,139.986003161381,4|0,1:0|1:0,0:0:0:0:
212,340,84274,1,0,0:0:0:0:
128,332,84659,2,0,P|64:256|76:208,1,139.986003161381,4|0,1:0|1:0,0:0:0:0:
124,160,85813,1,0,0:0:0:0:
188,108,86197,6,0,P|285:98|304:0,1,209.979004742072,4|0,1:0|0:0,0:0:0:0:
228,37,87736,2,0,P|311:88|388:20,1,209.979004742072,4|4,1:0|0:0,0:0:0:0:
468,52,89274,6,0,L|468:196,1,139.986003161381,4|0,1:0|1:0,0:0:0:0:
380,188,90428,1,0,0:0:0:0:
308,144,90813,2,0,B|247:84|180:134|180:134|142:163|108:148,1,209.979004742072,4|0,1:0|0:0,0:0:0:0:
52,100,92351,5,4,1:0:0:0:
96,264,93121,1,0,1:0:0:0:
248,336,93890,2,0,P|316:364|380:316,1,139.986003161381,4|0,1:0|1:0,0:0:0:0:
424,176,95428,6,0,L|320:68|320:68,1,139.986003161381,4|0,1:0|1:0,0:0:0:0:
248,48,96582,1,0,0:0:0:0:
256,132,96967,2,0,L|364:244,1,139.986003161381,4|0,1:0|1:0,0:0:0:0:
360,316,98121,1,0,0:0:0:0:
276,332,98505,6,0,B|196:344|164:276|164:276|144:236|104:232|104:232|60:228|40:196,1,279.972006322763,4|4,1:0|1:0,0:0:0:0:
148,72,100813,1,0,1:0:0:0:
344,52,101582,6,0,P|276:52|236:116,1,139.986003161381,4|0,1:0|1:0,0:0:0:0:
236,192,102736,1,0,0:0:0:0:
244,276,103121,2,0,B|183:281|149:232|151:184|151:184|154:116,1,210.000000894069,4|0,1:0|0:0,0:0:0:0:
128,44,104659,5,4,1:0:0:0:
72,204,105428,1,0,1:0:0:0:
16,364,106197,1,4,1:0:0:0:
332,252,107736,5,4,1:0:0:0:
80,202,132351,6,0,P|81:270|132:316,1,140.000001192093,0|0,3:0|0:0,0:0:0:0:
156,236,133505,1,0,0:0:0:0:
180,156,133890,2,0,P|228:196|228:276,1,140.000001192093,0|0,3:0|0:0,0:0:0:0:
248,352,135044,1,0,0:0:0:0:
308,296,135428,6,0,P|379:231|472:292,1,210.000001788139,0|0,3:0|0:0,0:0:0:0:
392,316,136967,2,0,P|409:221|512:208,1,210.000001788139,0|4,3:0|0:0,0:0:0:0:
512,124,138505,6,0,P|468:60|396:52,1,140.000001192093,4|0,1:0|1:0,0:0:0:0:
332,76,139659,1,0,0:0:0:0:
260,120,140044,2,0,P|212:152|124:152,1,140.000001192093,4|0,1:0|1:0,0:0:0:0:
52,124,141197,1,0,0:0:0:0:
116,72,141582,5,4,1:0:0:0:
284,72,142351,1,0,1:0:0:0:
372,216,143121,2,0,P|348:276|288:320,1,140.000000596046,4|0,1:0|1:0,0:0:0:0:
124,308,144659,6,0,P|176:236|176:184,1,140.000001192093,4|0,1:0|1:0,0:0:0:0:
128,116,145813,1,0,0:0:0:0:
76,48,146197,2,0,P|148:32|204:76,1,140.000000596046,4|0,1:0|1:0,0:0:0:0:
208,152,147351,1,0,0:0:0:0:
228,232,147736,6,0,P|312:304|380:252,1,210.000001788139,4|0,1:0|0:0,0:0:0:0:
456,216,149274,2,0,B|440:188|412:176|412:176|420:84,1,140.000001192093,4|0,1:0|1:0,0:0:0:0:
260,44,150813,6,0,P|256:108|212:168,1,140.000001192093,4|0,1:0|1:0,0:0:0:0:
164,236,151967,1,0,0:0:0:0:
112,304,152351,2,0,B|72:280|64:220|96:180|96:180|128:140|120:104,1,210.000000894069,4|0,1:0|0:0,0:0:0:0:
96,32,153890,5,4,1:0:0:0:
248,104,154659,1,0,1:0:0:0:
392,188,155428,2,0,L|512:260,1,140.000001192093,4|0,1:0|1:0,0:0:0:0:
388,360,156967,5,2,3:0:0:0:
305,370,157351,1,0,0:0:0:0:
223,354,157736,2,0,P|184:336|160:320,1,70.000000298023
100,260,158505,1,2,3:0:0:0:
64,184,158890,1,0,0:0:0:0:
52,100,159274,2,0,P|60:56|68:24,1,70.000000298023
152,36,160044,6,0,L|196:100,1,70.0000005960464,4|0,2:0|0:0,0:0:0:0:
196,176,160813,2,0,L|240:240,1,70.0000005960464
320,236,161582,2,0,L|364:300,1,70.0000005960464,2|0,3:0|0:0,0:0:0:0:
412,360,162351,2,0,L|484:360,1,70.0000005960464
460,280,163121,6,0,L|412:212,1,70.0000005960464,8|0,3:0|0:0,0:0:0:0:
436,140,163890,2,0,L|484:68,1,70.0000005960464
404,36,164659,2,0,L|364:96,1,70.0000005960464,2|0,3:0|0:0,0:0:0:0:
292,132,165428,2,0,L|253:73,1,70.0000005960464,0|0,0:0|0:0,0:0:0:0:
172,48,166197,5,4,0:0:0:0:
