osu file format v14

[General]
AudioFilename: Warriors.mp3
AudioLeadIn: 0
PreviewTime: 30998
Countdown: 0
SampleSet: Soft
StackLeniency: 0.7
Mode: 0
LetterboxInBreaks: 1
WidescreenStoryboard: 0

[Editor]
DistanceSpacing: 1.1
BeatDivisor: 3
GridSize: 4
TimelineZoom: 1

[Metadata]
Title:Warriors
TitleUnicode:Warriors
Artist:Imagine Dragons
ArtistUnicode:Imagine Dragons
Creator:Simotorre
Version:Normal
Source:League of Legends World Championship 2014
Tags:Riot Moba Games JeZag Amasuro
BeatmapID:503926
BeatmapSetID:214467

[Difficulty]
HPDrainRate:2
CircleSize:3
OverallDifficulty:1
ApproachRate:3
SliderMultiplier:1
SliderTickRate:1

[Events]
//Background and Video events
Video,-240,"warriors.avi"
0,0,"Warriors.jpg",0,0
//Break Periods
2,106025,115711
//Storyboard Layer 0 (Background)
//Storyboard Layer 1 (Fail)
//Storyboard Layer 2 (Pass)
//Storyboard Layer 3 (Foreground)
//Storyboard Sound Samples

[TimingPoints]
229,384.614029238266,4,2,1,40,1,0
18177,-100,4,2,1,45,0,0
30978,-100,4,2,1,60,0,0
55311,-100,4,2,1,45,0,0
80221,-100,4,2,1,60,0,0
116767,-100,4,2,1,55,0,0
129459,-133.333333333333,4,2,1,50,0,0
135613,-100,4,2,1,65,0,1
157151,-100,4,2,1,70,0,0

[Colours]
Combo1 : 0,64,128
Combo2 : 255,255,255
Combo3 : 128,255,255
Combo4 : 0,128,192

[HitObjects]
20,192,5613,5,0,0:0:0:0:
216,92,6382,6,0,B|264:44|360:44|408:108,1,200,2|2,0:0|0:0,0:0:0:0:
452,192,7536,1,0,0:0:0:0:
396,288,7921,2,0,B|348:336|252:336|204:272,1,200,2|2,0:0|0:0,0:0:0:0:
148,196,9075,1,0,0:0:0:0:
172,88,9459,6,0,L|284:88,1,100,2|0,0:0|0:0,0:0:0:0:
256,196,10228,2,0,L|368:196,1,100,2|0,0:0|0:0,0:0:0:0:
460,164,10998,2,0,B|472:256|416:308|332:304,1,200,2|2,0:0|0:0,0:0:0:0:
244,308,12152,1,0,0:0:0:0:
136,304,12536,6,0,L|136:192,1,100,2|0,0:0|0:0,0:0:0:0:
132,92,13305,1,2,0:0:0:0:
228,36,13690,1,0,0:0:0:0:
336,48,14075,6,0,L|336:160,1,100,2|0,0:0|0:0,0:0:0:0:
440,144,14844,2,0,L|440:256,1,100,2|0,0:0|0:0,0:0:0:0:
360,316,15613,1,2,0:0:0:0:
248,312,15998,1,0,0:0:0:0:
140,284,16382,2,0,P|60:220|60:108,2,200,2|2|2,0:0|0:0|0:0,0:0:0:0:
148,176,18305,1,0,0:0:0:0:
156,68,18690,6,0,P|236:132|236:244,1,200,2|2,0:0|0:0,0:0:0:0:
304,316,19844,1,0,0:0:0:0:
356,224,20228,2,0,P|366:127|444:68,1,200,2|2,0:0|0:0,0:0:0:0:
448,180,21382,1,0,0:0:0:0:
492,280,21767,6,0,L|404:348,1,100,2|0,0:0|0:0,0:0:0:0:
304,320,22536,2,0,L|192:320,1,100,2|0,0:0|0:0,0:0:0:0:
100,288,23305,2,0,P|30:219|34:122,1,200,2|2,0:0|0:0,0:0:0:0:
140,100,24459,6,0,B|188:116|188:116|240:84,1,100,2|0,0:0|0:0,0:0:0:0:
336,48,25228,1,0,0:0:0:0:
316,156,25613,1,2,0:0:0:0:
424,132,25998,2,0,B|468:156|468:156|476:216,1,100,2|0,0:0|0:0,0:0:0:0:
464,316,26767,2,0,L|344:340,1,100,2|0,0:0|0:0,0:0:0:0:
320,236,27536,5,0,0:0:0:0:
212,224,27921,1,2,0:0:0:0:
160,320,28305,2,0,B|80:336|24:296|12:208,2,200
124,216,30228,1,0,0:0:0:0:
196,132,30613,1,2,0:0:0:0:
300,160,30998,6,0,P|300:64|204:32,1,200,4|8,0:0|0:0,0:0:0:0:
112,64,32151,1,0,0:0:0:0:
196,132,32536,1,0,0:0:0:0:
112,192,32921,1,0,0:0:0:0:
208,244,33305,2,0,L|208:356,1,100,8|2,0:0|0:0,0:0:0:0:
316,321,34075,2,0,P|409:286|433:193,1,200,4|8,0:0|0:0,0:0:0:0:
324,208,35228,1,0,0:0:0:0:
360,104,35613,1,2,0:0:0:0:
324,208,35998,1,0,0:0:0:0:
216,208,36382,2,0,P|168:180|160:132,1,100,2|0,0:0|0:0,0:0:0:0:
248,76,37151,6,0,P|160:32|72:75,1,200,4|8,0:0|0:0,0:0:0:0:
160,140,38305,1,0,0:0:0:0:
72,204,38690,2,0,P|164:248|248:205,1,200,4|8,0:0|0:0,0:0:0:0:
336,144,39844,1,2,0:0:0:0:
380,44,40228,2,0,B|434:55|434:55|464:115,1,100,4|0,0:0|0:0,0:0:0:0:
444,204,40998,2,0,B|412:250|412:250|345:255,1,100,8|0,0:0|0:0,0:0:0:0:
264,288,41767,2,0,B|177:274|110:314|110:314|113:242|36:170,1,300,4|0,0:0|0:0,0:0:0:0:
68,84,43305,6,0,P|152:32|228:88,1,200,4|8,0:0|0:0,0:0:0:0:
148,164,44459,1,0,0:0:0:0:
144,276,44844,1,0,0:0:0:0:
240,228,45228,1,0,0:0:0:0:
252,120,45613,2,0,L|356:92,1,100,8|2,0:0|0:0,0:0:0:0:
394,194,46382,2,0,P|365:285|274:320,2,200,4|8|2,0:0|0:0|0:0,0:0:0:0:
285,210,48305,1,0,0:0:0:0:
285,210,48690,2,0,P|258:178|291:109,1,100,2|0,0:0|0:0,0:0:0:0:
348,92,49459,6,0,P|272:40|184:92,1,200,4|8,0:0|0:0,0:0:0:0:
268,160,50613,1,0,0:0:0:0:
267,159,50998,2,0,P|175:211|99:159,1,200,4|8,0:0|0:0,0:0:0:0:
40,256,52151,1,0,0:0:0:0:
40,256,52536,2,0,L|108:332,1,100,4|0,0:0|0:0,0:0:0:0:
216,328,53305,2,0,L|296:252,1,100,8|0,0:0|0:0,0:0:0:0:
400,256,54074,2,0,P|456:176|396:100,1,200,4|0,0:0|0:0,0:0:0:0:
324,180,55228,5,0,0:0:0:0:
256,96,55613,2,0,P|192:176|256:256,1,200,2|0,0:0|0:0,0:0:0:0:
132,284,56767,1,0,0:0:0:0:
32,240,57151,2,0,P|96:160|32:80,1,200,2|0,0:0|0:0,0:0:0:0:
143,26,58305,5,0,0:0:0:0:
252,48,58690,2,4,L|364:48,1,100,2|0,0:0|0:0,0:0:0:0:
420,136,59459,1,0,0:0:0:0:
400,244,59844,1,0,0:0:0:0:
300,292,60228,2,0,P|204:324|108:292,1,200,2|0,0:0|0:0,0:0:0:0:
80,192,61382,1,0,0:0:0:0:
144,96,61767,6,0,L|240:48,1,100,2|0,0:0|0:0,0:0:0:0:
344,48,62536,1,0,0:0:0:0:
420,128,62921,1,0,0:0:0:0:
432,236,63305,2,0,L|336:300,1,100,2|0,0:0|0:0,0:0:0:0:
336,184,64074,6,0,L|240:248,1,100,2|0,0:0|0:0,0:0:0:0:
175,160,64844,1,0,0:0:0:0:
175,160,65228,1,0,0:0:0:0:
175,160,65613,2,0,P|127:256|186:320,2,200,2|2|2,0:0|0:0|0:0,0:0:0:0:
288,160,67536,5,0,0:0:0:0:
372,232,67921,2,2,P|420:136|356:72,1,200,2|0,0:0|0:0,0:0:0:0:
264,40,69074,1,0,0:0:0:0:
152,36,69459,2,2,P|60:52|40:148,1,200,2|0,0:0|0:0,0:0:0:0:
148,144,70613,1,2,0:0:0:0:
104,244,70997,6,0,L|204:244,1,100
256,340,71767,2,0,L|368:340,1,100,2|0,0:0|0:0,0:0:0:0:
412,248,72536,2,0,L|512:248,2,100,2|0|0,0:0|0:0|0:0,0:0:0:0:
376,144,73690,5,0,0:0:0:0:
296,68,74074,2,4,L|184:68,1,100,2|0,0:0|0:0,0:0:0:0:
92,108,74844,1,0,0:0:0:0:
112,216,75228,1,0,0:0:0:0:
220,220,75613,2,4,L|332:220,1,100,2|0,0:0|0:0,0:0:0:0:
272,320,76382,2,4,L|384:320,1,100,2|0,0:0|0:0,0:0:0:0:
464,256,77151,5,0,0:0:0:0:
432,160,77536,1,0,0:0:0:0:
368,80,77921,2,0,P|320:192|368:240,2,200,2|2|2,0:0|0:0|0:0,0:0:0:0:
176,192,80228,6,0,P|224:144|176:32,1,200,4|8,0:0|0:0,0:0:0:0:
112,112,81382,1,0,0:0:0:0:
64,208,81767,1,0,0:0:0:0:
112,304,82151,1,0,0:0:0:0:
160,208,82536,2,0,L|272:208,1,100,8|2,0:0|0:0,0:0:0:0:
260,208,83305,5,4,0:0:0:0:
404,40,84074,2,0,L|460:140,1,100,8|0,0:0|0:0,0:0:0:0:
504,224,84844,1,4,0:0:0:0:
288,180,85613,2,0,L|352:272,1,100,2|0,0:0|0:0,0:0:0:0:
256,324,86382,6,0,L|132:284,1,100,4|0,0:0|0:0,0:0:0:0:
72,228,87151,2,0,L|68:116,1,100,8|0,0:0|0:0,0:0:0:0:
176,100,87920,2,0,P|264:144|288:240,1,200,4|8,0:0|0:0,0:0:0:0:
196,300,89074,1,2,0:0:0:0:
88,288,89459,6,0,L|8:224,1,100,4|0,0:0|0:0,0:0:0:0:
36,120,90228,2,0,L|116:184,1,100,8|0,0:0|0:0,0:0:0:0:
204,116,90997,2,0,L|244:72,3,33.3333333333333
332,120,91767,2,0,L|288:76,3,33.3333333333333
264,196,92536,6,0,P|352:248|424:196,1,200,4|8,0:0|0:0,0:0:0:0:
464,96,93690,1,0,0:0:0:0:
504,200,94074,1,0,0:0:0:0:
456,300,94459,1,0,0:0:0:0:
348,312,94844,2,0,L|248:312,1,100,8|0,0:0|0:0,0:0:0:0:
136,308,95613,2,0,P|40:276|8:180,3,200,4|2|4|2,0:0|0:0|0:0|0:0,0:0:0:0:
8,80,98305,1,0,0:0:0:0:
8,80,98690,6,0,P|104:112|136:208,1,200,4|8,0:0|0:0,0:0:0:0:
236,248,99844,1,0,0:0:0:0:
344,248,100228,2,0,L|420:160,1,100,4|0,0:0|0:0,0:0:0:0:
380,68,100997,1,8,0:0:0:0:
268,68,101382,1,0,0:0:0:0:
156,64,101767,6,0,L|84:156,1,100,4|0,0:0|0:0,0:0:0:0:
96,252,102536,2,0,L|172:344,1,100,8|0,0:0|0:0,0:0:0:0:
268,332,103305,2,0,P|348:300|397:197,2,200,4|8|4,0:0|0:0|0:0,0:0:0:0:
57,296,117151,5,8,0:0:0:0:
152,236,117536,2,0,L|252:236,2,100,0|8|0,0:0|0:0|0:0,0:0:0:0:
176,128,118690,2,0,L|176:16,2,100,8|0|8,0:0|0:0|0:0,0:0:0:0:
284,136,119843,6,0,L|384:156,1,100,0|8,0:0|0:0,0:0:0:0:
424,252,120613,1,0,0:0:0:0:
332,312,120997,2,0,L|212:312,1,100,8|0,0:0|0:0,0:0:0:0:
140,252,121767,2,0,P|112:216|148:176,2,100,8|0|8,0:0|0:0|0:0,0:0:0:0:
312,112,123305,5,0,0:0:0:0:
96,72,124074,1,8,0:0:0:0:
40,284,124843,1,0,0:0:0:0:
256,320,125613,1,8,0:0:0:0:
468,256,126382,6,0,L|380:208,1,100
272,236,127151,2,0,L|288:128,1,100,8|0,0:0|0:0,0:0:0:0:
196,72,127920,2,0,L|284:0,1,100
368,68,128690,2,0,L|436:144,1,100,8|0,0:0|0:0,0:0:0:0:
432,232,129459,6,0,P|392:296|308:292,1,150.000005722046,4|8,0:0|0:0,0:0:0:0:
348,220,130613,1,0,0:0:0:0:
296,156,130997,1,0,0:0:0:0:
224,112,131382,1,0,0:0:0:0:
148,148,131766,2,0,L|148:228,1,75.0000028610231,8|0,0:0|0:0,0:0:0:0:
132,304,132536,2,0,P|196:288|232:208,3,150.000005722046,4|8|4|8,0:0|0:0|0:0|0:0,0:0:0:0:
264,140,135228,1,0,0:0:0:0:
192,56,135613,6,0,P|97:27|4:59,1,200,4|8,0:0|0:0,0:0:0:0:
96,120,136766,1,2,0:0:0:0:
4,180,137151,2,0,P|98:208|191:176,1,200,4|8,0:0|0:0,0:0:0:0:
280,108,138305,1,2,0:0:0:0:
376,52,138690,6,0,L|376:164,1,100,4|0,0:0|0:0,0:0:0:0:
476,108,139459,2,0,L|476:220,1,100,8|0,0:0|0:0,0:0:0:0:
496,316,140228,2,0,P|398:343|303:308,1,200,4|8,0:0|0:0,0:0:0:0:
208,268,141382,1,0,0:0:0:0:
108,220,141766,6,0,L|48:120,1,100,4|0,0:0|0:0,0:0:0:0:
112,40,142536,1,8,0:0:0:0:
176,132,142920,2,0,L|224:32,1,100
312,40,143690,1,2,0:0:0:0:
420,40,144074,2,0,L|380:148,1,100,8|0,0:0|0:0,0:0:0:0:
280,120,144843,2,0,P|321:212|420:233,3,200,4|8|4|8,0:0|0:0|0:0|0:0,0:0:0:0:
416,124,147536,1,0,0:0:0:0:
328,60,147920,6,0,P|232:28|120:60,1,200,4|8,0:0|0:0,0:0:0:0:
56,124,149074,1,2,0:0:0:0:
136,200,149459,2,0,P|232:232|344:200,1,200,4|8,0:0|0:0,0:0:0:0:
400,128,150613,1,2,0:0:0:0:
428,232,150997,6,0,P|461:271|459:344,1,100,4|0,0:0|0:0,0:0:0:0:
356,312,151766,2,0,P|310:330|261:321,1,100,8|0,0:0|0:0,0:0:0:0:
276,212,152536,2,0,B|156:204|144:340,1,200,4|0,0:0|0:0,0:0:0:0:
75,245,153689,1,0,0:0:0:0:
103,138,154074,6,0,P|197:95|292:145,1,200,8|0,0:0|0:0,0:0:0:0:
292,241,155228,1,0,0:0:0:0:
356,328,155613,2,0,L|472:280,1,100,2|0,0:0|0:0,0:0:0:0:
476,184,156382,1,0,0:0:0:0:
420,88,156766,2,0,L|320:128,1,100,2|4,0:0|0:0,0:0:0:0:
116,192,157920,5,8,0:0:0:0:
256,360,158689,1,4,0:0:0:0:
400,192,159459,1,8,0:0:0:0:
192,120,160228,2,0,P|256:60|328:136,3,200,4|8|4|8,0:0|0:0|0:0|0:0,0:0:0:0:
252,320,163305,1,4,0:0:0:0:
