osu file format v14

[General]
AudioFilename: Warriors.mp3
AudioLeadIn: 0
PreviewTime: 30998
Countdown: 0
SampleSet: Soft
StackLeniency: 0.7
Mode: 0
LetterboxInBreaks: 1
WidescreenStoryboard: 0

[Editor]
DistanceSpacing: 1.4
BeatDivisor: 6
GridSize: 4
TimelineZoom: 1.3

[Metadata]
Title:Warriors
TitleUnicode:Warriors
Artist:Imagine Dragons
ArtistUnicode:Imagine Dragons
Creator:Simotorre
Version:Hard v2
Source:League of Legends World Championship 2014
Tags:Riot Moba Games JeZag Amasuro
BeatmapID:504217
BeatmapSetID:214467

[Difficulty]
HPDrainRate:5
CircleSize:4
OverallDifficulty:5
ApproachRate:7
SliderMultiplier:1.3
SliderTickRate:1

[Events]
//Background and Video events
Video,-240,"warriors.avi"
0,0,"Warriors.jpg",0,0
//Break Periods
2,105044,116251
//Storyboard Layer 0 (Background)
//Storyboard Layer 1 (Fail)
//Storyboard Layer 2 (Pass)
//Storyboard Layer 3 (Foreground)
//Storyboard Sound Samples

[TimingPoints]
229,384.614029238266,4,2,1,30,1,0
31005,-100,4,2,1,65,0,0
36006,-100,4,2,1,35,0,0
36775,-100,4,2,1,65,0,0
48305,-100,4,2,1,35,0,0
49086,-100,4,2,1,65,0,0
55229,-100,4,2,1,45,0,0
80228,-100,4,2,1,65,0,0
85249,-100,4,2,1,35,0,0
86018,-100,4,2,1,65,0,0
97536,-100,4,2,1,35,0,0
98329,-100,4,2,1,65,0,0
129459,-133.333333333333,4,2,1,50,0,0
134458,-133.333333333333,4,2,1,40,0,0
135613,-100,4,2,1,70,0,1
146766,-100,4,2,1,60,0,1
147573,-100,4,2,1,70,0,1
157215,-100,4,2,1,65,0,0

[Colours]
Combo1 : 0,64,128
Combo2 : 255,255,255
Combo3 : 128,255,255
Combo4 : 0,128,192

[HitObjects]
120,192,5613,5,0,0:0:0:0:
368,92,6382,6,0,P|420:104|460:172,2,130,2|0|2,0:0|0:0|0:0,0:0:0:0:
460,248,7536,1,0,0:0:0:0:
308,348,7921,2,0,P|292:284|334:221,1,130,2|0,0:0|0:0,0:0:0:0:
444,100,8690,1,2,0:0:0:0:
264,76,9075,5,2,0:0:0:0:
84,100,9459,1,0,0:0:0:0:
84,100,9652,1,0,0:0:0:0:
84,100,9844,2,0,P|56:160|84:220,1,130,2|0,0:0|0:0,0:0:0:0:
252,160,10613,1,0,0:0:0:0:
196,332,10998,2,0,P|253:360|315:321,1,130,2|0,0:0|0:0,0:0:0:0:
424,192,11767,1,0,0:0:0:0:
424,192,12152,5,0,0:0:0:0:
288,72,12536,2,0,P|314:18|374:39,1,130,2|2,0:0|0:0,0:0:0:0:
288,72,13113,1,0,0:0:0:0:
288,72,13305,2,0,P|260:124|201:104,1,130,2|0,0:0|0:0,0:0:0:0:
24,136,14075,2,0,P|64:76|136:60,1,130,2|0,0:0|0:0,0:0:0:0:
164,236,14844,1,2,0:0:0:0:
328,316,15228,6,0,L|244:316,1,65,0|0,0:0|0:0,0:0:0:0:
328,252,15613,2,0,L|396:252,1,65,2|0,0:0|0:0,0:0:0:0:
393,252,15998,1,0,0:0:0:0:
392,72,16382,2,0,P|452:96|464:168,1,130,2|0,0:0|0:0,0:0:0:0:
284,148,17152,2,0,P|224:124|212:52,1,130,2|0,0:0|0:0,0:0:0:0:
208,65,17921,1,0,0:0:0:0:
392,72,18305,5,0,0:0:0:0:
464,240,18690,2,0,B|433:275|433:275|393:266|393:266|354:307,1,130,2|0,0:0|0:0,0:0:0:0:
272,308,19267,1,0,0:0:0:0:
180,308,19459,1,0,0:0:0:0:
180,308,19844,1,0,0:0:0:0:
40,192,20228,6,0,B|84:175|84:175|91:135|91:135|142:113,1,130,2|0,0:0|0:0,0:0:0:0:
220,124,20805,1,0,0:0:0:0:
312,124,20998,1,0,0:0:0:0:
312,124,21382,1,0,0:0:0:0:
380,292,21767,2,0,L|452:276,1,65,2|0,0:0|0:0,0:0:0:0:
508,212,22151,2,0,L|432:192,2,65,0|0|2,0:0|0:0|0:0,0:0:0:0:
436,44,22921,1,0,0:0:0:0:
256,44,23305,6,0,L|120:44,1,130,2|0,0:0|0:0,0:0:0:0:
100,224,24075,1,2,0:0:0:0:
12,64,24459,1,0,0:0:0:0:
156,176,24844,2,0,B|174:198|180:233|170:264|148:282|120:296,1,130,2|0,0:0|0:0,0:0:0:0:
48,324,25421,1,0,0:0:0:0:
133,288,25613,1,0,0:0:0:0:
316,300,25998,1,2,0:0:0:0:
316,300,26190,1,0,0:0:0:0:
316,300,26382,38,0,P|368:263|368:189,2,130,2|0|2,0:0|0:0|0:0,0:0:0:0:
316,116,27536,2,0,L|248:156,1,65,2|2,0:0|0:0,0:0:0:0:
306,227,27921,1,0,0:0:0:0:
460,324,28305,2,0,L|460:252,1,65,2|0,0:0|0:0,0:0:0:0:
408,184,28690,2,0,L|476:172,1,65
496,84,29075,2,0,L|431:94,1,65,2|0,0:0|0:0,0:0:0:0:
452,4,29459,2,0,L|324:24,1,130,2|0,0:0|0:0,0:0:0:0:
408,184,30228,1,0,0:0:0:0:
320,344,30613,1,2,0:0:0:0:
256,168,30998,22,0,P|225:246|215:304,1,130,4|0,0:0|0:0,0:0:0:0:
156,120,31767,2,0,P|128:204|120:260,1,130,8|0,0:0|0:0,0:0:0:0:
56,308,32344,1,0,0:0:0:0:
12,228,32536,2,0,P|20:184|56:92,1,130,2|0,0:0|0:0,0:0:0:0:
220,44,33305,1,8,0:0:0:0:
386,118,33690,6,0,P|439:150|443:213,1,130,0|4,0:0|0:0,0:0:0:0:
328,70,34459,1,0,0:0:0:0:
212,209,34844,2,0,P|226:134|282:114,1,130,8|0,0:0|0:0,0:0:0:0:
251,295,35613,2,0,P|304:263|293:184,1,130,4|2,0:0|0:0,0:0:0:0:
468,284,36382,2,0,L|468:340,3,43.3333333333333
340,184,37152,38,0,P|384:132|460:132,2,130,4|0|8,0:0|0:0|0:0,0:0:0:0:
340,184,38305,1,0,0:0:0:0:
200,68,38690,2,0,L|120:56,1,65,2|0,0:0|0:0,0:0:0:0:
52,92,39075,2,0,L|92:148,1,65
152,212,39459,2,0,L|192:160,1,65,8|0,0:0|0:0,0:0:0:0:
200,68,39844,1,0,0:0:0:0:
356,160,40228,6,0,L|432:48,1,130,4|0,0:0|0:0,0:0:0:0:
356,220,40998,2,0,L|432:332,1,130,8|0,0:0|0:0,0:0:0:0:
308,192,41767,2,0,L|236:192,1,65,2|0,0:0|0:0,0:0:0:0:
228,104,42151,2,0,L|176:148,1,65
88,160,42536,2,0,L|140:216,1,65,8|0,0:0|0:0,0:0:0:0:
156,296,42921,2,0,L|212:240,1,65
244,332,43305,38,0,P|308:313|344:248,1,130,4|0,0:0|0:0,0:0:0:0:
508,240,44074,2,0,P|500:272|464:304,1,65,8|0,0:0|0:0,0:0:0:0:
424,224,44459,2,0,P|388:204|380:164,1,65,0|0,0:0|0:0,0:0:0:0:
464,144,44844,1,2,0:0:0:0:
312,44,45228,1,0,0:0:0:0:
132,72,45613,2,0,P|72:110|64:173,1,130,8|0,0:0|0:0,0:0:0:0:
212,64,46382,6,0,P|194:130|128:151,1,130,4|0,0:0|0:0,0:0:0:0:
236,316,47151,1,8,0:0:0:0:
56,292,47536,1,0,0:0:0:0:
228,232,47921,2,0,P|166:262|154:332,1,130,4|0,0:0|0:0,0:0:0:0:
328,268,48690,1,8,0:0:0:0:
372,252,48818,1,0,0:0:0:0:
408,220,48946,1,0,0:0:0:0:
436,184,49074,6,0,P|464:128|436:56,2,130,0|4|0,0:0|0:0|0:0,0:0:0:0:
372,120,50036,1,0,0:0:0:0:
372,120,50228,1,8,0:0:0:0:
208,36,50613,1,0,0:0:0:0:
244,216,50998,2,0,P|211:226|179:210,2,65,2|0|0,0:0|0:0|0:0,0:0:0:0:
100,108,51767,1,8,0:0:0:0:
284,116,52152,1,0,0:0:0:0:
444,200,52536,6,0,P|441:266|397:318,1,130,4|0,0:0|0:0,0:0:0:0:
224,288,53305,1,8,0:0:0:0:
132,132,53690,1,0,0:0:0:0:
300,200,54074,1,2,0:0:0:0:
120,236,54459,1,0,0:0:0:0:
240,100,54844,2,0,L|276:32,2,65,8|0|0,0:0|0:0|0:0,0:0:0:0:
408,32,55613,6,0,P|483:84|486:117,1,130,4|0,0:0|0:0,0:0:0:0:
408,280,56382,1,2,0:0:0:0:
260,176,56767,1,0,0:0:0:0:
144,36,57152,2,0,P|76:40|39:99,1,130,2|0,0:0|0:0,0:0:0:0:
36,268,57921,1,2,0:0:0:0:
36,268,58113,2,0,L|104:268,1,65
280,232,58690,6,0,P|272:264|288:300,2,65,2|0|0,0:0|0:0|0:0,0:0:0:0:
368,260,59267,1,0,0:0:0:0:
452,292,59459,2,0,P|460:256|444:220,2,65,2|0|0,0:0|0:0|0:0,0:0:0:0:
424,112,60228,2,0,P|372:72|324:112,1,130,2|0,0:0|0:0,0:0:0:0:
144,88,60998,1,2,0:0:0:0:
88,260,61382,1,0,0:0:0:0:
244,164,61767,38,0,L|288:220,1,65,2|0,0:0|0:0,0:0:0:0:
208,260,62151,2,0,L|252:316,1,65
340,320,62536,1,2,0:0:0:0:
472,196,62921,2,0,L|412:164,1,65
464,88,63305,2,0,L|400:56,1,65,2|0,0:0|0:0,0:0:0:0:
328,108,63690,2,0,P|260:136|204:96,1,130,0|2,0:0|0:0,0:0:0:0:
48,40,64459,5,0,0:0:0:0:
48,40,64844,2,0,B|28:88|92:96|92:96|76:152,1,130,2|0,0:0|0:0,0:0:0:0:
47,316,65613,2,0,B|27:268|91:260|91:260|80:220,1,130,2|0,0:0|0:0,0:0:0:0:
196,212,66382,2,0,B|144:172|144:172|204:128,1,130,2|0,0:0|0:0,0:0:0:0:
240,176,66895,1,0,0:0:0:0:
300,176,67023,1,0,0:0:0:0:
360,176,67151,1,0,0:0:0:0:
360,176,67536,1,0,0:0:0:0:
468,320,67921,38,0,P|512:276|512:212,1,130,2|0,0:0|0:0,0:0:0:0:
424,52,68690,1,2,0:0:0:0:
468,68,68818,1,0,0:0:0:0:
500,104,68946,1,0,0:0:0:0:
512,148,69075,1,0,0:0:0:0:
340,208,69459,2,0,P|344:212|336:184,1,130,2|0,0:0|0:0,0:0:0:0:
156,192,70228,2,0,L|212:192,3,43.3333333333333,2|0|0|0,0:0|0:0|0:0|0:0,0:0:0:0:
128,360,70997,5,2,0:0:0:0:
56,192,71382,1,0,0:0:0:0:
192,68,71767,2,0,P|252:44|320:64,1,130,2|0,0:0|0:0,0:0:0:0:
364,236,72536,2,0,P|380:168|352:104,1,130,2|0,0:0|0:0,0:0:0:0:
212,224,73305,1,2,0:0:0:0:
324,367,73690,5,0,0:0:0:0:
476,264,74074,1,0,0:0:0:0:
476,264,74267,1,0,0:0:0:0:
472,172,74459,2,0,L|472:104,2,65,0|0|2,0:0|0:0|0:0,0:0:0:0:
400,116,75036,1,0,0:0:0:0:
360,36,75228,5,0,0:0:0:0:
268,44,75421,1,0,0:0:0:0:
248,132,75613,2,0,L|308:164,1,65,2|0,0:0|0:0,0:0:0:0:
308,252,75997,2,0,L|312:328,2,65,0|0|2,0:0|0:0|0:0,0:0:0:0:
328,160,76767,5,0,0:0:0:0:
376,336,77152,2,0,P|434:343|440:276,1,130,2|0,0:0|0:0,0:0:0:0:
446,284,77728,1,0,0:0:0:0:
446,284,77921,2,0,P|442:224|502:226,1,130,2|0,0:0|0:0,2:0:0:0:
388,80,78690,2,0,B|328:44|328:48|268:80,1,130,2|0,0:0|0:0,0:0:0:0:
269,79,79459,1,2,0:0:0:0:
136,88,80228,22,0,P|105:166|95:224,1,130,4|0,0:0|0:0,0:0:0:0:
276,184,80997,2,0,P|248:268|240:324,1,130,8|0,0:0|0:0,0:0:0:0:
152,300,81574,1,0,0:0:0:0:
152,300,81766,2,0,P|160:256|196:164,1,130,2|0,0:0|0:0,0:0:0:0:
372,196,82536,2,0,P|388:168|416:64,1,130,8|0,0:0|0:0,0:0:0:0:
244,8,83305,5,4,0:0:0:0:
84,96,83689,1,0,0:0:0:0:
216,220,84074,2,0,P|211:154|260:119,1,130,8|0,0:0|0:0,0:0:0:0:
271,301,84843,2,0,P|318:263|297:191,1,130,4|2,0:0|0:0,0:0:0:0:
472,120,85613,1,0,0:0:0:0:
500,168,85741,1,0,0:0:0:0:
496,220,85869,1,0,0:0:0:0:
464,264,85997,1,0,0:0:0:0:
288,212,86382,38,0,P|336:196|284:188,1,130,4|0,0:0|0:0,0:0:0:0:
108,204,87151,1,8,0:0:0:0:
108,204,87279,1,0,0:0:0:0:
108,204,87408,1,0,0:0:0:0:
108,204,87536,1,0,0:0:0:0:
288,228,87920,2,0,L|240:288,1,65,2|0,0:0|0:0,0:0:0:0:
272,192,88305,2,0,L|196:192,1,65
292,160,88690,2,0,L|244:100,1,65,8|0,0:0|0:0,0:0:0:0:
208,192,89074,1,0,0:0:0:0:
40,128,89459,6,0,B|100:80|160:124,1,130,4|0,0:0|0:0,0:0:0:0:
36,260,90228,2,0,B|96:308|156:264,1,130,8|0,0:0|0:0,0:0:0:0:
312,168,90997,2,0,L|348:104,1,65,2|0,0:0|0:0,0:0:0:0:
436,112,91381,1,0,0:0:0:0:
436,112,91510,1,0,0:0:0:0:
436,112,91638,1,0,0:0:0:0:
436,112,91766,2,0,L|484:176,1,65,8|0,0:0|0:0,0:0:0:0:
396,208,92151,1,0,0:0:0:0:
216,216,92535,38,0,P|197:280|132:316,1,130,4|0,0:0|0:0,0:0:0:0:
184,136,93304,2,0,P|176:100|188:64,1,65,8|0,0:0|0:0,0:0:0:0:
104,116,93690,2,0,P|112:148|104:188,2,65,0|0|2,0:0|0:0|0:0,0:0:0:0:
268,36,94458,1,0,0:0:0:0:
444,76,94843,2,0,P|444:136|380:176,1,130,8|0,0:0|0:0,0:0:0:0:
260,300,95612,6,0,P|289:222|344:212,1,130,4|0,0:0|0:0,0:0:0:0:
508,228,96381,1,8,0:0:0:0:
335,286,96766,1,0,0:0:0:0:
152,288,97151,2,0,P|90:258|78:188,1,130,4|0,0:0|0:0,0:0:0:0:
148,36,97920,1,8,0:0:0:0:
148,36,98048,1,0,0:0:0:0:
148,36,98176,1,0,0:0:0:0:
148,36,98305,1,0,0:0:0:0:
320,96,98690,6,0,P|256:120|200:92,1,130,4|0,0:0|0:0,0:0:0:0:
324,232,99459,2,0,L|380:176,2,65,8|0|0,0:0|0:0|0:0,0:0:0:0:
476,332,100228,1,2,0:0:0:0:
384,332,100420,1,0,0:0:0:0:
292,328,100613,2,0,L|156:328,1,130,0|8,0:0|0:0,0:0:0:0:
124,152,101382,1,0,0:0:0:0:
304,116,101767,6,0,L|224:232,1,130,4|0,0:0|0:0,0:0:0:0:
412,204,102536,2,0,L|456:136,2,65,8|0|0,0:0|0:0|0:0,0:0:0:0:
256,192,103305,12,0,104844,0:0:0:0:
196,132,117151,6,0,L|156:92,3,43.3333333333333,8|0|0|0,0:0|0:0|0:0|0:0,0:0:0:0:
320,132,117920,2,0,L|360:92,3,43.3333333333333,8|0|0|0,0:0|0:0|0:0|0:0,0:0:0:0:
320,256,118690,2,0,L|356:292,3,43.3333333333333,8|0|0|0,0:0|0:0|0:0|0:0,0:0:0:0:
196,256,119459,2,0,L|164:288,3,43.3333333333333,8|0|0|0,0:0|0:0|0:0|0:0,0:0:0:0:
40,196,120228,6,0,L|40:120,1,65,2|0,0:0|0:0,0:0:0:0:
92,72,120613,1,0,0:0:0:0:
120,144,120805,1,0,0:0:0:0:
172,84,120997,2,0,L|240:84,1,65,2|0,0:0|0:0,0:0:0:0:
304,48,121382,2,0,L|352:96,1,65
324,168,121767,1,2,0:0:0:0:
296,240,121959,2,0,L|344:288,1,65
268,316,122343,1,0,0:0:0:0:
268,316,122536,1,2,0:0:0:0:
148,28,123305,6,0,P|201:53|212:120,1,130
368,88,124074,2,0,P|342:141|276:152,1,130
308,308,124843,2,0,P|254:282|244:216,1,130
88,248,125613,2,0,P|113:194|180:184,1,130
256,48,126382,1,2,0:0:0:0:
412,316,127151,1,2,0:0:0:0:
100,316,127920,1,2,0:0:0:0:
256,48,128690,1,2,0:0:0:0:
256,192,129459,5,4,0:0:0:0:
256,328,129843,1,0,0:0:0:0:
120,308,130228,2,0,P|100:268|120:212,2,97.50000371933,2|0|0,0:0|0:0|0:0,0:0:0:0:
256,328,131382,1,0,0:0:0:0:
392,308,131766,2,0,P|412:268|392:212,1,97.50000371933,2|0,0:0|0:0,0:0:0:0:
256,192,132536,12,0,134459,0:0:0:0:
256,192,134843,5,0,0:0:0:0:
256,192,134972,1,0,0:0:0:0:
256,192,135100,1,0,0:0:0:0:
256,192,135228,1,0,0:0:0:0:
284,52,135613,6,0,B|232:80|216:32|216:32|176:64,1,130,4|0,0:0|0:0,0:0:0:0:
216,144,136190,1,0,0:0:0:0:
132,108,136382,2,0,B|103:142|103:142|150:159|122:211,1,130,8|0,0:0|0:0,0:0:0:0:
260,332,137151,2,0,P|320:352|384:328,1,130,4|0,0:0|0:0,0:0:0:0:
404,244,137728,1,0,0:0:0:0:
492,232,137920,2,0,P|513:171|493:111,1,130,8|0,0:0|0:0,0:0:0:0:
308,96,138690,5,2,0:0:0:0:
144,176,139074,1,0,0:0:0:0:
32,332,139459,1,8,0:0:0:0:
68,296,139587,1,0,0:0:0:0:
104,260,139715,1,0,0:0:0:0:
140,224,139843,1,0,0:0:0:0:
276,344,140228,2,0,L|180:256,1,130
140,80,140997,2,0,L|140:136,3,43.3333333333333
316,80,141766,22,0,P|394:111|452:121,1,130,4|0,0:0|0:0,0:0:0:0:
264,168,142535,2,0,P|348:196|404:204,1,130,8|0,0:0|0:0,0:0:0:0:
480,200,143112,1,0,0:0:0:0:
480,292,143305,2,0,P|452:327|377:391,1,130,2|0,0:0|0:0,0:0:0:0:
240,276,144073,1,8,0:0:0:0:
140,124,144459,6,0,P|96:168|88:244,1,130,0|4,0:0|0:0,0:0:0:0:
216,108,145227,1,0,0:0:0:0:
398,108,145612,2,0,P|379:34|321:16,1,130,8|0,0:0|0:0,0:0:0:0:
368,200,146381,2,0,P|310:166|312:92,1,130,4|2,0:0|0:0,0:0:0:0:
256,284,147151,2,0,L|256:340,3,43.3333333333333
144,184,147920,38,0,P|188:132|264:132,2,130,4|0|8,0:0|0:0|0:0,0:0:0:0:
316,124,149073,1,0,0:0:0:0:
444,252,149458,2,0,L|384:200,1,65,2|0,0:0|0:0,0:0:0:0:
304,224,149843,2,0,L|352:272,1,65
328,360,150227,2,0,L|280:308,1,65,8|0,0:0|0:0,0:0:0:0:
304,224,150612,1,0,0:0:0:0:
132,160,150997,6,0,L|208:48,1,130,4|0,0:0|0:0,0:0:0:0:
136,220,151766,2,0,L|212:332,1,130,8|0,0:0|0:0,0:0:0:0:
328,192,152536,2,0,L|188:192,1,130
380,192,153305,1,8,0:0:0:0:
380,192,153689,1,0,0:0:0:0:
256,192,154074,12,4,157151,0:0:0:0:
396,136,157920,6,0,P|428:192|396:248,1,130,8|0,0:0|0:0,0:0:0:0:
256,132,158689,1,2,0:0:0:0:
120,256,159074,2,0,P|88:200|120:144,2,130,0|8|0,0:0|0:0|0:0,0:0:0:0:
256,192,160228,12,4,163305,0:0:0:0:
