osu file format v14

[General]
AudioFilename: Imagine Dragons - Warriors (Lyric Video).mp3
AudioLeadIn: 0
PreviewTime: 135754
Countdown: 0
SampleSet: Soft
StackLeniency: 0.7
Mode: 3
LetterboxInBreaks: 0
SpecialStyle: 0
WidescreenStoryboard: 0

[Editor]
Bookmarks: 18838,68069
DistanceSpacing: 0.9
BeatDivisor: 3
GridSize: 16
TimelineZoom: 2.4

[Metadata]
Title:Warriors
TitleUnicode:Warriors
Artist:Imagine Dragons
ArtistUnicode:Imagine Dragons
Creator:LinkTaylord
Version:Challenger
Source:League of Legends 2014 World Championship
Tags:2015 FIFA Women's World Cup Insurgent Divergent LoL
BeatmapID:974922
BeatmapSetID:320747

[Difficulty]
HPDrainRate:8
CircleSize:4
OverallDifficulty:8.5
ApproachRate:5
SliderMultiplier:1.29999990463257
SliderTickRate:1

[Events]
//Background and Video events
0,0,"BG WARRIOR HD.jpg",0,0
//Break Periods
//Storyboard Layer 0 (Background)
//Storyboard Layer 1 (Fail)
//Storyboard Layer 2 (Pass)
//Storyboard Layer 3 (Foreground)
//Storyboard Sound Samples

[TimingPoints]
370,384.615384615385,4,2,0,10,1,0
31139,-100,4,3,0,40,0,1
40370,-66.6666666666667,4,3,0,40,0,1
40466,-200,4,3,0,40,0,1
41139,-66.6666666666667,4,3,0,40,0,1
41235,-200,4,3,0,40,0,1
41908,-66.6666666666667,4,3,0,40,0,1
42004,-200,4,3,0,40,0,1
42293,-133.333333333333,4,3,0,40,0,1
42677,-100,4,3,0,40,0,1
43446,-100,4,3,0,40,0,1
52680,-66.6666666666667,4,3,0,40,0,0
52773,-200,4,3,0,40,0,0
53446,-66.6666666666667,4,3,0,40,0,0
53543,-200,4,3,0,40,0,0
54216,-66.6666666666667,4,3,0,40,0,0
54312,-200,4,3,0,40,0,0
54985,-66.6666666666667,4,2,0,40,0,0
55081,-200,4,2,0,40,0,0
55177,-250,4,2,0,40,0,0
55273,-333.333333333333,4,2,0,40,0,0
55562,-166.666666666667,4,2,0,40,0,0
55754,-125,4,2,0,30,0,0
55946,-100,4,3,0,20,0,0
78831,-20,4,2,0,40,0,0
78863,-400,4,2,0,40,0,0
79600,-28.5714285714286,4,2,0,40,0,0
79632,-285.714285714286,4,2,0,40,0,0
80370,-100,4,1,0,40,0,1
101908,-66.6666666666667,4,1,0,40,0,0
102004,-200,4,1,0,40,0,0
102677,-66.6666666666667,4,1,0,40,0,0
102773,-200,4,1,0,40,0,0
103446,-66.6666666666667,4,2,0,15,0,0
103543,-200,4,2,0,15,0,0
104216,-83.3333333333333,4,2,0,15,0,0
104312,-125,4,2,0,15,0,0
104408,-111.111111111111,4,2,0,15,0,0
104504,-100,4,3,0,15,0,0
116523,-33.3333333333333,4,3,0,30,0,0
116555,-50,4,3,0,30,0,0
116587,-71.4285714285714,4,3,0,30,0,0
116620,-100,4,3,0,25,0,0
116652,-142.857142857143,4,2,0,15,0,0
116684,-250,4,3,0,30,0,0
116908,-133.333333333333,4,3,0,30,0,0
117100,-100,4,3,0,30,0,0
129600,-166.666666666667,4,3,0,30,0,0
133446,-100,4,3,0,30,0,0
135754,-100,4,3,0,50,0,1
152677,-100,4,3,0,25,0,0

[HitObjects]
64,192,370,5,10,0:0:0:0:
448,192,370,1,6,0:0:0:0:
192,192,370,1,0,0:0:0:0:
320,192,754,1,2,2:0:0:0:
192,192,882,1,2,2:0:0:0:
320,192,1011,1,2,2:0:0:0:
192,192,1139,1,6,2:0:0:0:
64,192,1395,1,2,2:0:0:0:
320,192,1523,1,6,2:0:0:0:
448,192,1652,1,2,2:0:0:0:
320,192,1780,1,2,2:0:0:0:
448,192,1908,1,6,2:0:0:0:
320,192,2293,1,6,0:0:0:0:
192,192,2421,1,2,0:0:0:0:
64,192,2549,1,2,0:0:0:0:
192,192,2677,1,6,0:0:0:0:
64,192,2966,1,6,0:0:0:0:
320,192,3062,1,2,0:0:0:0:
64,192,3190,1,6,0:0:0:0:
448,192,3446,1,6,0:0:0:0:
192,192,3446,1,2,0:0:0:0:
192,192,3831,1,2,0:0:0:0:
64,192,3959,1,2,0:0:0:0:
192,192,4087,1,2,0:0:0:0:
64,192,4216,1,6,0:0:0:0:
192,192,4472,1,2,0:0:0:0:
320,192,4600,1,2,0:0:0:0:
448,192,4728,1,6,0:0:0:0:
320,192,4857,1,6,0:0:0:0:
448,192,4985,1,6,0:0:0:0:
448,192,5370,1,2,0:0:0:0:
64,192,5498,1,6,0:0:0:0:
320,192,5626,1,6,0:0:0:0:
320,192,5754,1,6,0:0:0:0:
64,192,6139,128,0,6523:0:0:0:0:
320,192,6523,1,0,0:0:0:0:
448,192,6523,1,4,1:0:0:0:
192,192,6652,1,0,0:0:0:0:
320,192,6780,1,0,0:0:0:0:
192,192,6908,1,0,0:0:0:0:
64,192,7036,1,0,0:0:0:0:
192,192,7164,1,0,0:0:0:0:
320,192,7293,1,0,0:0:0:0:
448,192,7293,1,4,3:0:0:0:
64,192,7421,1,0,0:0:0:0:
192,192,7549,1,0,0:0:0:0:
320,192,7677,1,0,0:0:0:0:
192,192,7805,1,0,0:0:0:0:
320,192,7934,1,0,0:0:0:0:
448,192,8062,1,0,0:0:0:0:
64,192,8062,1,4,3:0:0:0:
320,192,8190,1,0,0:0:0:0:
192,192,8318,1,0,0:0:0:0:
64,192,8446,1,0,0:0:0:0:
192,192,8575,1,0,0:0:0:0:
320,192,8703,1,0,0:0:0:0:
192,192,8831,1,0,0:0:0:0:
448,192,8831,1,4,3:0:0:0:
64,192,8959,1,0,0:0:0:0:
192,192,9087,1,0,0:0:0:0:
64,192,9216,1,0,0:0:0:0:
192,192,9344,1,0,0:0:0:0:
320,192,9472,1,0,0:0:0:0:
448,192,9600,1,4,3:0:0:0:
192,192,9600,1,0,0:0:0:0:
64,192,9728,1,0,0:0:0:0:
320,192,9857,1,0,0:0:0:0:
64,192,9985,1,0,0:0:0:0:
192,192,10113,1,0,0:0:0:0:
64,192,10241,1,0,0:0:0:0:
448,192,10370,1,4,3:0:0:0:
192,192,10370,1,0,0:0:0:0:
320,192,10498,1,0,0:0:0:0:
448,192,10626,1,0,0:0:0:0:
320,192,10754,1,0,0:0:0:0:
64,192,10882,1,0,0:0:0:0:
192,192,11011,1,0,0:0:0:0:
320,192,11139,1,0,0:0:0:0:
448,192,11139,1,4,3:0:0:0:
192,192,11267,1,0,0:0:0:0:
64,192,11395,1,0,0:0:0:0:
320,192,11523,1,0,0:0:0:0:
448,192,11652,1,0,0:0:0:0:
192,192,11780,1,0,0:0:0:0:
448,192,11908,1,0,0:0:0:0:
64,192,11908,1,4,3:0:0:0:
320,192,12036,1,0,0:0:0:0:
192,192,12164,1,0,0:0:0:0:
64,192,12293,1,0,0:0:0:0:
192,192,12421,1,0,0:0:0:0:
320,192,12549,1,0,0:0:0:0:
192,192,12677,1,0,1:0:0:0:
64,192,12677,1,4,3:0:0:0:
448,192,12805,1,0,0:0:0:0:
320,192,12934,1,0,0:0:0:0:
192,192,13062,1,0,0:0:0:0:
320,192,13190,1,0,0:0:0:0:
192,192,13318,1,0,0:0:0:0:
448,192,13446,1,4,3:0:0:0:
64,192,13446,1,0,0:0:0:0:
192,192,13575,1,0,0:0:0:0:
320,192,13703,1,0,0:0:0:0:
64,192,13831,1,0,0:0:0:0:
320,192,13959,1,0,0:0:0:0:
192,192,14087,1,0,0:0:0:0:
64,192,14216,1,4,3:0:0:0:
320,192,14216,1,0,0:0:0:0:
448,192,14344,1,0,0:0:0:0:
320,192,14472,1,0,0:0:0:0:
448,192,14600,1,0,0:0:0:0:
192,192,14728,1,0,0:0:0:0:
448,192,14857,1,0,0:0:0:0:
64,192,14985,1,4,3:0:0:0:
320,192,14985,1,0,0:0:0:0:
192,192,15113,1,0,0:0:0:0:
320,192,15241,1,0,0:0:0:0:
448,192,15370,1,0,0:0:0:0:
320,192,15498,1,0,0:0:0:0:
192,192,15626,1,0,0:0:0:0:
64,192,15754,1,4,3:0:0:0:
320,192,15754,1,0,0:0:0:0:
448,192,15882,1,0,0:0:0:0:
192,192,16011,1,0,0:0:0:0:
448,192,16139,1,0,0:0:0:0:
192,192,16267,1,0,0:0:0:0:
448,192,16395,1,0,0:0:0:0:
192,192,16523,1,0,0:0:0:0:
64,192,16523,1,4,3:0:0:0:
448,192,16652,1,0,0:0:0:0:
320,192,16780,1,0,0:0:0:0:
192,192,16908,1,0,0:0:0:0:
64,192,17036,1,0,0:0:0:0:
192,192,17164,1,0,0:0:0:0:
320,192,17293,1,0,0:0:0:0:
448,192,17293,1,4,3:0:0:0:
64,192,17421,1,0,0:0:0:0:
192,192,17549,1,0,0:0:0:0:
320,192,17677,1,0,0:0:0:0:
192,192,17805,1,0,0:0:0:0:
64,192,17934,1,0,0:0:0:0:
448,192,18062,1,4,3:0:0:0:
192,192,18062,1,0,0:0:0:0:
320,192,18190,1,0,0:0:0:0:
192,192,18318,1,0,0:0:0:0:
64,192,18446,128,0,18831:1:0:0:0:
448,192,18575,1,0,0:0:0:0:
192,192,18703,1,0,0:0:0:0:
448,192,18831,128,0,19216:3:0:0:0:
320,192,18831,1,0,0:0:0:0:
192,192,18959,1,0,0:0:0:0:
64,192,19087,1,0,0:0:0:0:
320,192,19216,128,0,19600:3:0:0:0:
192,192,19344,1,0,0:0:0:0:
448,192,19472,1,0,0:0:0:0:
192,192,19600,128,0,19985:3:0:0:0:
64,192,19728,1,0,0:0:0:0:
448,192,19857,1,0,0:0:0:0:
64,192,19985,128,0,20370:3:0:0:0:
320,192,20113,1,0,0:0:0:0:
192,192,20241,1,0,0:0:0:0:
320,192,20370,128,0,20754:1:0:0:0:
448,192,20370,1,0,0:0:0:0:
192,192,20498,1,0,0:0:0:0:
448,192,20626,1,0,0:0:0:0:
192,192,20754,128,0,21139:3:0:0:0:
64,192,20882,1,0,0:0:0:0:
320,192,21011,1,0,0:0:0:0:
64,192,21139,128,0,21523:3:0:0:0:
448,192,21267,1,0,0:0:0:0:
320,192,21395,1,0,0:0:0:0:
448,192,21523,128,0,21908:3:0:0:0:
192,192,21652,1,0,0:0:0:0:
320,192,21780,1,0,0:0:0:0:
192,192,21908,128,0,22293:1:0:0:0:
64,192,21908,1,0,0:0:0:0:
448,192,22036,1,0,0:0:0:0:
320,192,22164,1,0,0:0:0:0:
448,192,22293,128,0,22677:3:0:0:0:
64,192,22421,1,0,0:0:0:0:
192,192,22549,1,0,0:0:0:0:
320,192,22677,128,0,23062:3:0:0:0:
448,192,22805,1,0,0:0:0:0:
192,192,22934,1,0,0:0:0:0:
64,192,23062,128,0,23446:3:0:0:0:
448,192,23190,1,0,0:0:0:0:
192,192,23318,1,0,0:0:0:0:
320,192,23446,128,0,23831:1:0:0:0:
448,192,23446,1,0,0:0:0:0:
192,192,23575,1,0,0:0:0:0:
64,192,23703,1,0,0:0:0:0:
192,192,23831,128,0,24216:3:0:0:0:
448,192,23959,1,0,0:0:0:0:
320,192,24087,1,0,0:0:0:0:
448,192,24216,128,0,24600:3:0:0:0:
64,192,24344,1,0,0:0:0:0:
320,192,24472,1,0,0:0:0:0:
64,192,24600,128,0,24985:3:0:0:0:
192,192,24728,1,0,0:0:0:0:
320,192,24857,1,0,0:0:0:0:
448,192,24985,128,0,25370:1:0:0:0:
192,192,25113,1,0,0:0:0:0:
64,192,25241,1,0,0:0:0:0:
192,192,25370,128,0,25754:3:0:0:0:
320,192,25498,1,0,0:0:0:0:
448,192,25626,1,0,0:0:0:0:
320,192,25754,128,0,26139:3:0:0:0:
448,192,25882,1,0,0:0:0:0:
64,192,26011,1,0,0:0:0:0:
448,192,26139,128,0,26523:3:0:0:0:
192,192,26267,1,0,0:0:0:0:
320,192,26395,1,0,0:0:0:0:
64,192,26523,128,0,26908:1:0:0:0:
192,192,26523,1,0,0:0:0:0:
320,192,26652,1,0,0:0:0:0:
448,192,26780,1,0,0:0:0:0:
320,192,26908,128,0,27293:3:0:0:0:
192,192,27036,1,0,0:0:0:0:
64,192,27164,1,0,0:0:0:0:
192,192,27293,128,0,27677:3:0:0:0:
64,192,27421,1,0,0:0:0:0:
320,192,27549,1,0,0:0:0:0:
448,192,27677,128,0,28062:3:0:0:0:
64,192,27805,1,0,0:0:0:0:
320,192,27934,1,0,0:0:0:0:
64,192,28062,128,0,28446:1:0:0:0:
192,192,28062,1,0,0:0:0:0:
320,192,28190,1,0,0:0:0:0:
448,192,28318,1,0,0:0:0:0:
320,192,28446,128,0,28831:3:0:0:0:
192,192,28575,1,0,0:0:0:0:
64,192,28703,1,0,0:0:0:0:
192,192,28831,128,0,29216:3:0:0:0:
448,192,28959,1,0,0:0:0:0:
320,192,29087,1,0,0:0:0:0:
448,192,29216,128,0,29600:3:0:0:0:
64,192,29344,1,0,0:0:0:0:
192,192,29472,1,0,0:0:0:0:
64,192,29600,128,0,29985:1:0:0:0:
320,192,29600,1,0,0:0:0:0:
448,192,29728,1,0,0:0:0:0:
320,192,29857,1,0,0:0:0:0:
448,192,29985,128,0,31139:3:0:0:0:
192,192,29985,1,0,3:0:0:0:
320,192,30113,1,0,0:0:0:0:
64,192,30241,1,0,0:0:0:0:
192,192,30370,1,0,3:0:0:0:
320,192,30370,1,0,3:0:0:0:
64,192,30498,1,0,0:0:0:0:
320,192,30626,1,0,0:0:0:0:
64,192,30754,1,0,3:0:0:0:
192,192,30754,1,0,3:0:0:0:
320,192,30882,1,0,0:0:0:0:
64,192,31011,1,0,0:0:0:0:
320,192,31139,1,0,2:0:0:0:
192,192,31139,1,14,3:0:0:0:
448,192,31523,1,0,0:0:0:0:
192,192,31523,1,0,0:0:0:0:
64,192,31908,1,2,1:0:0:0:
320,192,31908,1,8,2:0:0:0:
448,192,31908,1,2,1:0:0:0:
192,192,31908,1,2,1:0:0:0:
320,192,32293,1,0,0:0:0:0:
64,192,32293,1,0,0:0:0:0:
192,192,32677,1,0,2:0:0:0:
320,192,32677,1,0,2:0:0:0:
448,192,32677,1,0,2:0:0:0:
64,192,33062,1,0,0:0:0:0:
192,192,33062,1,0,0:0:0:0:
320,192,33446,1,2,1:0:0:0:
448,192,33446,1,8,2:0:0:0:
64,192,33446,1,2,1:0:0:0:
192,192,33446,1,2,1:0:0:0:
192,192,33831,1,0,0:0:0:0:
448,192,33831,1,0,0:0:0:0:
64,192,34216,1,0,1:0:0:0:
320,192,34216,1,0,1:0:0:0:
192,192,34216,1,0,1:0:0:0:
320,192,34600,1,0,0:0:0:0:
448,192,34600,1,0,0:0:0:0:
192,192,34985,1,8,2:0:0:0:
64,192,34985,1,2,1:0:0:0:
320,192,34985,1,2,1:0:0:0:
448,192,34985,1,2,1:0:0:0:
64,192,35370,1,0,0:0:0:0:
448,192,35370,1,0,0:0:0:0:
192,192,35754,1,0,2:0:0:0:
320,192,35754,1,0,2:0:0:0:
64,192,35754,1,0,2:0:0:0:
320,192,36139,1,0,0:0:0:0:
448,192,36139,1,0,0:0:0:0:
64,192,36523,1,12,2:0:0:0:
192,192,36523,1,2,1:0:0:0:
320,192,36523,1,2,1:0:0:0:
448,192,36523,1,2,3:0:0:0:
64,192,36652,1,12,3:0:0:0:
448,192,36780,1,4,3:0:0:0:
64,192,36908,1,12,3:0:0:0:
448,192,37036,1,4,3:0:0:0:
64,192,37164,1,12,3:0:0:0:
192,192,37293,1,0,1:0:0:0:
320,192,37293,1,0,1:0:0:0:
448,192,37293,1,4,3:0:0:0:
320,192,37677,1,0,0:0:0:0:
192,192,37677,1,0,0:0:0:0:
64,192,38062,1,2,1:0:0:0:
192,192,38062,1,2,1:0:0:0:
320,192,38062,1,8,2:0:0:0:
448,192,38062,1,2,1:0:0:0:
192,192,38446,1,0,0:0:0:0:
64,192,38446,1,0,0:0:0:0:
64,192,38831,1,0,1:0:0:0:
320,192,38831,1,0,1:0:0:0:
448,192,38831,1,0,1:0:0:0:
192,192,39216,1,0,0:0:0:0:
320,192,39216,1,0,0:0:0:0:
64,192,39600,1,2,1:0:0:0:
192,192,39600,1,8,2:0:0:0:
320,192,39600,1,2,1:0:0:0:
448,192,39600,1,2,1:0:0:0:
448,192,39985,1,0,0:0:0:0:
64,192,39985,1,0,0:0:0:0:
192,192,40370,1,0,1:0:0:0:
320,192,40370,1,0,1:0:0:0:
448,192,40370,1,0,1:0:0:0:
320,192,41139,1,2,1:0:0:0:
448,192,41139,1,2,1:0:0:0:
192,192,41139,1,8,2:0:0:0:
64,192,41139,1,2,1:0:0:0:
64,192,41908,1,0,1:0:0:0:
192,192,41908,1,0,1:0:0:0:
448,192,41908,1,0,1:0:0:0:
192,192,42677,1,8,3:0:0:0:
64,192,42677,1,4,0:0:0:0:
320,192,42805,1,8,3:0:0:0:
448,192,42805,1,4,3:0:0:0:
192,192,42934,1,8,3:0:0:0:
64,192,42934,1,4,0:0:0:0:
448,192,43062,1,4,3:0:0:0:
320,192,43062,1,8,3:0:0:0:
64,192,43190,1,4,0:0:0:0:
192,192,43190,1,8,3:0:0:0:
320,192,43318,1,8,3:0:0:0:
448,192,43318,1,4,3:0:0:0:
448,192,43446,1,0,1:0:0:0:
192,192,43446,1,0,3:0:0:0:
64,192,43446,1,0,1:0:0:0:
320,192,43831,1,0,0:0:0:0:
448,192,43831,1,0,0:0:0:0:
64,192,44216,1,8,2:0:0:0:
192,192,44216,1,2,1:0:0:0:
320,192,44216,1,2,1:0:0:0:
448,192,44216,1,2,1:0:0:0:
64,192,44600,1,0,0:0:0:0:
192,192,44600,1,0,0:0:0:0:
64,192,44985,1,0,1:0:0:0:
320,192,44985,1,0,1:0:0:0:
448,192,44985,1,0,1:0:0:0:
192,192,45370,1,0,0:0:0:0:
320,192,45370,1,0,0:0:0:0:
64,192,45754,1,8,2:0:0:0:
192,192,45754,1,2,1:0:0:0:
320,192,45754,1,2,1:0:0:0:
448,192,45754,1,2,1:0:0:0:
192,192,46139,1,0,0:0:0:0:
448,192,46139,1,0,0:0:0:0:
64,192,46523,1,0,1:0:0:0:
192,192,46523,1,0,1:0:0:0:
320,192,46523,1,0,1:0:0:0:
320,192,46908,1,0,0:0:0:0:
448,192,46908,1,0,0:0:0:0:
64,192,47293,1,2,1:0:0:0:
192,192,47293,1,8,2:0:0:0:
320,192,47293,1,2,1:0:0:0:
448,192,47293,1,2,1:0:0:0:
64,192,47677,1,0,0:0:0:0:
448,192,47677,1,0,0:0:0:0:
64,192,48062,1,0,1:0:0:0:
192,192,48062,1,0,1:0:0:0:
320,192,48062,1,0,1:0:0:0:
320,192,48446,1,0,0:0:0:0:
448,192,48446,1,0,0:0:0:0:
320,192,48831,1,0,3:0:0:0:
64,192,48831,1,8,3:0:0:0:
448,192,48831,1,2,1:0:0:0:
192,192,48831,1,2,1:0:0:0:
192,192,48959,1,12,3:0:0:0:
320,192,49087,1,4,3:0:0:0:
192,192,49216,1,12,3:0:0:0:
320,192,49344,1,4,3:0:0:0:
192,192,49472,1,12,3:0:0:0:
64,192,49600,1,0,1:0:0:0:
320,192,49600,1,4,3:0:0:0:
448,192,49600,1,0,1:0:0:0:
192,192,49985,1,0,0:0:0:0:
64,192,49985,1,0,0:0:0:0:
192,192,50370,1,2,1:0:0:0:
320,192,50370,1,8,2:0:0:0:
448,192,50370,1,2,1:0:0:0:
64,192,50370,1,2,1:0:0:0:
448,192,50754,1,0,0:0:0:0:
192,192,50754,1,0,0:0:0:0:
448,192,51139,1,0,1:0:0:0:
64,192,51139,1,0,1:0:0:0:
320,192,51139,1,0,1:0:0:0:
192,192,51523,1,0,0:0:0:0:
320,192,51523,1,0,0:0:0:0:
320,192,51908,1,2,1:0:0:0:
192,192,51908,1,2,1:0:0:0:
448,192,51908,1,8,2:0:0:0:
64,192,51908,1,2,1:0:0:0:
64,192,52293,1,0,0:0:0:0:
448,192,52293,1,0,0:0:0:0:
192,192,52421,1,4,0:0:0:0:
320,192,52549,1,8,0:0:0:0:
64,192,52677,1,0,1:0:0:0:
192,192,52677,1,0,1:0:0:0:
448,192,52677,1,4,1:0:0:0:
64,192,53446,1,2,1:0:0:0:
192,192,53446,1,2,1:0:0:0:
320,192,53446,1,2,1:0:0:0:
448,192,53446,1,8,2:0:0:0:
64,192,54216,1,0,1:0:0:0:
320,192,54216,1,0,1:0:0:0:
448,192,54216,1,0,1:0:0:0:
64,192,54985,1,0,0:0:0:0:
192,192,54985,1,0,0:0:0:0:
448,192,54985,128,0,55754:0:0:0:0:
320,192,55754,1,6,0:0:0:0:
64,192,55754,1,6,0:0:0:0:
192,192,56139,1,4,0:0:0:0:
320,192,56267,1,4,0:0:0:0:
64,192,56395,1,4,0:0:0:0:
192,192,56523,1,4,0:0:0:0:
64,192,56780,1,4,0:0:0:0:
320,192,56908,1,4,0:0:0:0:
192,192,57036,1,4,0:0:0:0:
448,192,57164,1,4,0:0:0:0:
320,192,57293,1,4,0:0:0:0:
192,192,57549,1,4,0:0:0:0:
192,192,57677,1,4,0:0:0:0:
448,192,57934,1,4,0:0:0:0:
320,192,58062,1,8,0:0:0:0:
448,192,58062,1,2,0:0:0:0:
64,192,58318,1,8,0:0:0:0:
192,192,58318,1,2,0:0:0:0:
64,192,58446,1,6,0:0:0:0:
448,192,58575,1,4,0:0:0:0:
192,192,58703,1,4,0:0:0:0:
320,192,58831,128,4,61139:0:0:0:0:
448,192,58831,1,12,0:0:0:0:
64,192,58959,1,4,0:0:0:0:
192,192,59087,1,4,0:0:0:0:
64,192,59216,1,4,0:0:0:0:
448,192,59344,1,4,0:0:0:0:
192,192,59472,1,4,0:0:0:0:
64,192,59600,1,4,0:0:0:0:
192,192,59985,1,4,0:0:0:0:
64,192,60113,1,4,0:0:0:0:
448,192,60241,1,4,0:0:0:0:
192,192,60370,1,4,0:0:0:0:
64,192,60370,1,12,0:0:0:0:
448,192,60626,1,4,0:0:0:0:
192,192,60754,1,4,0:0:0:0:
64,192,60882,1,4,0:0:0:0:
448,192,61011,1,4,0:0:0:0:
192,192,61139,128,4,61908:0:0:0:0:
64,192,61139,1,12,0:0:0:0:
448,192,61267,1,4,0:0:0:0:
320,192,61395,1,4,0:0:0:0:
64,192,61523,1,4,0:0:0:0:
320,192,61780,1,4,0:0:0:0:
448,192,61908,128,4,64216:0:0:0:0:
64,192,61908,1,12,0:0:0:0:
320,192,62036,1,4,0:0:0:0:
192,192,62164,1,4,0:0:0:0:
64,192,62293,1,4,0:0:0:0:
192,192,62421,1,4,0:0:0:0:
320,192,62549,1,4,0:0:0:0:
64,192,62677,1,4,0:0:0:0:
192,192,62934,1,4,0:0:0:0:
320,192,63062,1,4,0:0:0:0:
64,192,63318,1,4,0:0:0:0:
192,192,63446,1,4,0:0:0:0:
320,192,63446,1,12,0:0:0:0:
64,192,63703,1,4,0:0:0:0:
192,192,63831,1,4,0:0:0:0:
320,192,63959,1,4,0:0:0:0:
192,192,64087,1,4,0:0:0:0:
64,192,64216,128,4,64985:0:0:0:0:
320,192,64344,1,4,0:0:0:0:
192,192,64472,1,4,0:0:0:0:
448,192,64600,1,4,0:0:0:0:
320,192,64728,1,4,0:0:0:0:
192,192,64857,1,4,0:0:0:0:
320,192,64985,128,4,66523:0:0:0:0:
448,192,64985,1,12,0:0:0:0:
192,192,65241,1,4,0:0:0:0:
64,192,65370,1,4,0:0:0:0:
448,192,65498,1,4,0:0:0:0:
192,192,65626,1,4,0:0:0:0:
64,192,65754,1,4,0:0:0:0:
192,192,65882,1,4,0:0:0:0:
448,192,66011,1,4,0:0:0:0:
64,192,66139,1,4,0:0:0:0:
192,192,66139,1,12,0:0:0:0:
448,192,66267,1,4,0:0:0:0:
192,192,66395,1,4,0:0:0:0:
64,192,66523,1,4,0:0:0:0:
192,192,66652,1,4,0:0:0:0:
64,192,66780,1,4,0:0:0:0:
448,192,66908,1,4,1:0:0:0:
320,192,66908,1,12,3:0:0:0:
448,192,67164,1,4,0:0:0:0:
320,192,67293,1,12,3:0:0:0:
192,192,67293,1,8,0:0:0:0:
320,192,67549,1,4,0:0:0:0:
64,192,67677,1,4,3:0:0:0:
192,192,67677,1,4,3:0:0:0:
448,192,68062,128,0,68446:3:0:0:0:
64,192,68062,1,6,0:0:0:0:
192,192,68190,1,6,0:0:0:0:
320,192,68318,1,6,0:0:0:0:
64,192,68446,128,0,68831:3:0:0:0:
192,192,68575,1,4,0:0:0:0:
320,192,68703,1,4,0:0:0:0:
193,192,68831,128,0,69216:3:0:0:0:
448,192,68831,1,6,0:0:0:0:
320,192,68959,1,6,0:0:0:0:
64,192,69087,1,6,0:0:0:0:
448,192,69216,128,0,69536:3:0:0:0:
320,192,69344,1,4,0:0:0:0:
192,192,69472,1,4,0:0:0:0:
448,192,69600,128,0,69985:1:0:0:0:
64,192,69600,1,14,0:0:0:0:
192,192,69728,1,6,0:0:0:0:
320,192,69857,1,6,0:0:0:0:
64,192,69985,128,0,70370:3:0:0:0:
192,192,70113,1,4,0:0:0:0:
320,192,70241,1,4,0:0:0:0:
192,192,70370,128,0,70754:3:0:0:0:
448,192,70370,1,6,0:0:0:0:
320,192,70498,1,6,0:0:0:0:
64,192,70626,1,6,0:0:0:0:
320,192,70754,128,0,71075:3:0:0:0:
448,192,70882,1,4,0:0:0:0:
192,192,71011,1,4,0:0:0:0:
320,192,71139,128,0,71523:0:0:0:0:
64,192,71139,1,14,0:0:0:0:
448,192,71267,1,6,0:0:0:0:
64,192,71395,1,6,0:0:0:0:
192,192,71523,128,0,71908:3:0:0:0:
320,192,71652,1,4,0:0:0:0:
448,192,71780,1,4,0:0:0:0:
64,192,71908,128,0,72293:3:0:0:0:
320,192,71908,1,6,0:0:0:0:
192,192,72036,1,6,0:0:0:0:
320,192,72164,1,6,0:0:0:0:
192,192,72293,128,0,72613:3:0:0:0:
448,192,72293,1,4,0:0:0:0:
320,192,72421,1,4,0:0:0:0:
448,192,72549,1,4,0:0:0:0:
192,192,72677,128,0,73062:0:0:0:0:
64,192,72677,1,14,0:0:0:0:
320,192,72805,1,6,0:0:0:0:
64,192,72934,1,6,0:0:0:0:
448,192,73062,128,0,73446:3:0:0:0:
320,192,73062,1,4,0:0:0:0:
192,192,73190,1,4,0:0:0:0:
64,192,73318,1,4,0:0:0:0:
192,192,73446,128,0,73831:3:0:0:0:
320,192,73446,1,6,0:0:0:0:
448,192,73575,1,6,0:0:0:0:
320,192,73703,1,6,0:0:0:0:
64,192,73831,128,0,74152:3:0:0:0:
448,192,73831,1,4,0:0:0:0:
320,192,73959,1,4,0:0:0:0:
192,192,74087,1,4,0:0:0:0:
64,192,74216,128,0,74600:3:0:0:0:
448,192,74216,1,14,0:0:0:0:
192,192,74344,1,6,0:0:0:0:
448,192,74472,1,6,0:0:0:0:
192,192,74600,128,0,74985:3:0:0:0:
320,192,74600,1,6,0:0:0:0:
64,192,74985,128,0,75370:3:0:0:0:
320,192,74985,1,14,0:0:0:0:
448,192,75113,1,6,0:0:0:0:
320,192,75241,1,6,0:0:0:0:
192,192,75370,128,0,75754:3:0:0:0:
320,192,75754,128,0,76139:3:0:0:0:
64,192,75754,1,14,0:0:0:0:
192,192,75882,1,6,0:0:0:0:
64,192,76011,1,6,0:0:0:0:
192,192,76139,128,0,76523:3:0:0:0:
320,192,76523,128,0,76908:3:0:0:0:
64,192,76523,1,14,0:0:0:0:
448,192,76652,1,6,0:0:0:0:
64,192,76780,1,6,0:0:0:0:
192,192,76908,128,0,77293:3:0:0:0:
448,192,77293,128,0,77677:3:0:0:0:
64,192,77293,1,14,0:0:0:0:
192,192,77421,1,6,0:0:0:0:
320,192,77549,1,6,0:0:0:0:
64,192,77677,128,0,78062:3:0:0:0:
448,192,78062,128,0,78446:3:0:0:0:
320,192,78062,1,14,0:0:0:0:
192,192,78190,1,6,0:0:0:0:
320,192,78318,1,6,0:0:0:0:
64,192,78446,128,0,78831:3:0:0:0:
192,192,78831,1,8,3:0:0:0:
320,192,78831,1,4,3:0:0:0:
448,192,78831,1,4,3:0:0:0:
320,192,79600,1,4,3:0:0:0:
64,192,79600,1,4,3:0:0:0:
192,192,79600,1,4,3:0:0:0:
192,192,80370,1,10,1:0:0:0:
448,192,80370,1,14,2:0:0:0:
64,192,80370,1,4,3:0:0:0:
320,192,80498,1,0,3:0:0:0:
64,192,80626,1,0,3:0:0:0:
448,192,80754,1,0,3:0:0:0:
192,192,81139,1,2,1:0:0:0:
64,192,81139,1,2,1:0:0:0:
448,192,81139,1,8,2:0:0:0:
320,192,81267,1,0,3:0:0:0:
448,192,81395,1,0,3:0:0:0:
320,192,81523,1,0,3:0:0:0:
448,192,81652,1,0,3:0:0:0:
320,192,81780,1,0,3:0:0:0:
448,192,81908,1,0,3:0:0:0:
64,192,81908,1,0,0:0:0:0:
192,192,82036,1,0,3:0:0:0:
320,192,82164,1,0,3:0:0:0:
192,192,82293,1,0,3:0:0:0:
320,192,82677,1,2,0:0:0:0:
448,192,82677,1,8,2:0:0:0:
64,192,82677,1,2,0:0:0:0:
192,192,82805,1,0,3:0:0:0:
64,192,82934,1,0,3:0:0:0:
192,192,83062,1,0,3:0:0:0:
64,192,83190,1,0,3:0:0:0:
192,192,83318,1,0,3:0:0:0:
448,192,83446,1,0,0:0:0:0:
64,192,83446,1,0,3:0:0:0:
320,192,83575,1,0,3:0:0:0:
192,192,83703,1,0,3:0:0:0:
320,192,83831,1,0,3:0:0:0:
64,192,84216,1,8,2:0:0:0:
192,192,84216,1,2,0:0:0:0:
320,192,84216,1,2,0:0:0:0:
448,192,84344,1,0,3:0:0:0:
320,192,84472,1,0,3:0:0:0:
448,192,84600,1,0,3:0:0:0:
192,192,84985,1,0,3:0:0:0:
64,192,84985,1,0,0:0:0:0:
320,192,85113,1,0,3:0:0:0:
192,192,85241,1,0,3:0:0:0:
320,192,85370,1,0,3:0:0:0:
192,192,85754,1,2,0:0:0:0:
64,192,85754,1,0,3:0:0:0:
448,192,85754,1,8,2:0:0:0:
320,192,85882,1,0,3:0:0:0:
192,192,86011,1,4,3:0:0:0:
320,192,86139,1,0,3:0:0:0:
192,192,86267,1,4,3:0:0:0:
320,192,86395,1,0,3:0:0:0:
64,192,86523,1,4,3:0:0:0:
192,192,86523,1,0,0:0:0:0:
448,192,86652,1,0,3:0:0:0:
320,192,86780,1,0,3:0:0:0:
448,192,86908,1,0,3:0:0:0:
448,192,87293,1,8,2:0:0:0:
192,192,87293,1,2,1:0:0:0:
64,192,87293,1,2,1:0:0:0:
320,192,87421,1,0,3:0:0:0:
448,192,87549,1,0,3:0:0:0:
192,192,87677,1,0,3:0:0:0:
320,192,87805,1,0,3:0:0:0:
64,192,87934,1,0,3:0:0:0:
192,192,88062,1,0,3:0:0:0:
448,192,88062,1,0,0:0:0:0:
64,192,88190,1,0,3:0:0:0:
192,192,88318,1,0,3:0:0:0:
64,192,88446,1,0,3:0:0:0:
448,192,88831,1,2,0:0:0:0:
64,192,88831,1,2,0:0:0:0:
192,192,88831,1,8,2:0:0:0:
320,192,88959,1,0,3:0:0:0:
192,192,89087,1,0,3:0:0:0:
320,192,89216,1,0,3:0:0:0:
64,192,89600,1,0,0:0:0:0:
192,192,89600,1,0,3:0:0:0:
448,192,89728,1,0,3:0:0:0:
64,192,89857,1,0,3:0:0:0:
448,192,89985,1,0,3:0:0:0:
192,192,90370,1,2,0:0:0:0:
320,192,90370,1,2,0:0:0:0:
448,192,90370,1,8,2:0:0:0:
64,192,90498,1,0,3:0:0:0:
192,192,90626,1,0,3:0:0:0:
64,192,90754,1,0,3:0:0:0:
192,192,91139,1,0,0:0:0:0:
448,192,91139,1,0,3:0:0:0:
320,192,91267,1,0,3:0:0:0:
64,192,91395,1,0,3:0:0:0:
320,192,91523,1,0,3:0:0:0:
320,192,91908,1,4,3:0:0:0:
64,192,91908,1,0,0:0:0:0:
448,192,91908,1,4,3:0:0:0:
192,192,92036,1,4,3:0:0:0:
64,192,92036,1,4,3:0:0:0:
320,192,92164,1,8,3:0:0:0:
448,192,92164,1,8,3:0:0:0:
192,192,92293,1,4,3:0:0:0:
64,192,92293,1,4,3:0:0:0:
320,192,92421,1,8,3:0:0:0:
448,192,92421,1,8,3:0:0:0:
192,192,92549,1,4,3:0:0:0:
64,192,92549,1,4,3:0:0:0:
64,192,92677,1,0,0:0:0:0:
320,192,92677,1,4,3:0:0:0:
448,192,92677,1,4,3:0:0:0:
192,192,92934,1,2,3:0:0:0:
64,192,93062,1,0,3:0:0:0:
448,192,93062,1,0,3:0:0:0:
64,192,93446,1,2,0:0:0:0:
192,192,93446,1,2,0:0:0:0:
320,192,93446,1,8,2:0:0:0:
448,192,93446,1,2,0:0:0:0:
192,192,93831,1,0,3:0:0:0:
320,192,93831,1,0,3:0:0:0:
64,192,94216,1,0,0:0:0:0:
192,192,94216,1,0,0:0:0:0:
448,192,94216,1,0,0:0:0:0:
320,192,94472,1,0,3:0:0:0:
448,192,94600,1,0,3:0:0:0:
64,192,94600,1,0,3:0:0:0:
64,192,94985,1,2,0:0:0:0:
192,192,94985,1,8,2:0:0:0:
320,192,94985,1,2,0:0:0:0:
448,192,94985,1,2,0:0:0:0:
320,192,95370,1,0,3:0:0:0:
64,192,95370,1,0,3:0:0:0:
448,192,95754,1,0,0:0:0:0:
192,192,95754,1,0,0:0:0:0:
320,192,95754,1,0,0:0:0:0:
64,192,96011,1,0,3:0:0:0:
192,192,96139,1,0,3:0:0:0:
448,192,96267,1,0,3:0:0:0:
320,192,96395,1,0,3:0:0:0:
192,192,96523,1,2,0:0:0:0:
320,192,96523,1,2,0:0:0:0:
448,192,96523,1,8,2:0:0:0:
64,192,96523,1,2,0:0:0:0:
192,192,96908,1,0,3:0:0:0:
320,192,96908,1,0,3:0:0:0:
64,192,97293,1,0,0:0:0:0:
320,192,97293,1,0,0:0:0:0:
448,192,97293,1,0,0:0:0:0:
192,192,97549,1,0,3:0:0:0:
320,192,97677,1,0,3:0:0:0:
448,192,97805,1,0,3:0:0:0:
320,192,97934,1,0,3:0:0:0:
320,192,98062,1,2,0:0:0:0:
64,192,98062,1,8,2:0:0:0:
192,192,98062,1,2,0:0:0:0:
448,192,98062,1,2,0:0:0:0:
64,192,98190,1,8,3:0:0:0:
448,192,98318,1,4,3:0:0:0:
64,192,98446,1,8,3:0:0:0:
448,192,98575,1,4,3:0:0:0:
64,192,98703,1,8,3:0:0:0:
320,192,98831,1,0,0:0:0:0:
192,192,98831,1,0,0:0:0:0:
448,192,98831,1,4,0:0:0:0:
64,192,99216,1,0,3:0:0:0:
448,192,99216,1,0,3:0:0:0:
192,192,99600,1,8,2:0:0:0:
320,192,99600,1,2,0:0:0:0:
448,192,99600,1,2,0:0:0:0:
64,192,99600,1,2,0:0:0:0:
192,192,99985,1,0,3:0:0:0:
320,192,99985,1,0,3:0:0:0:
64,192,100370,1,0,0:0:0:0:
192,192,100370,1,0,0:0:0:0:
448,192,100370,1,0,0:0:0:0:
320,192,100754,1,0,3:0:0:0:
448,192,100754,1,0,3:0:0:0:
64,192,101139,1,2,0:0:0:0:
192,192,101139,1,8,0:0:0:0:
448,192,101139,1,2,0:0:0:0:
320,192,101139,1,2,0:0:0:0:
192,192,101523,1,0,3:0:0:0:
64,192,101523,1,0,3:0:0:0:
320,192,101652,1,12,3:0:0:0:
192,192,101780,1,4,3:0:0:0:
448,192,101908,1,0,0:0:0:0:
320,192,101908,1,4,3:0:0:0:
64,192,101908,1,0,0:0:0:0:
64,192,102677,1,2,0:0:0:0:
192,192,102677,1,8,2:0:0:0:
320,192,102677,1,2,0:0:0:0:
448,192,102677,1,2,0:0:0:0:
192,192,103446,1,0,0:0:0:0:
320,192,103446,1,0,0:0:0:0:
448,192,103446,128,0,104216:0:0:0:0:
64,192,104216,1,0,0:0:0:0:
192,192,104216,1,0,0:0:0:0:
320,192,104216,1,0,0:0:0:0:
192,192,104472,1,0,0:0:0:0:
64,192,104600,1,0,0:0:0:0:
448,192,104728,1,0,0:0:0:0:
320,192,104857,1,0,0:0:0:0:
64,192,104985,128,0,106011:0:0:0:0:
448,192,104985,1,4,0:0:0:0:
192,192,104985,1,0,0:0:0:0:
320,192,105113,1,0,0:0:0:0:
448,192,105241,1,0,0:0:0:0:
320,192,105370,1,0,0:0:0:0:
192,192,105498,1,0,0:0:0:0:
320,192,105626,1,0,0:0:0:0:
448,192,105754,1,0,0:0:0:0:
192,192,105754,1,4,0:0:0:0:
320,192,105882,1,0,0:0:0:0:
192,192,106011,128,0,106267:0:0:0:0:
64,192,106139,1,0,0:0:0:0:
320,192,106267,128,0,106523:0:0:0:0:
192,192,106395,1,0,0:0:0:0:
448,192,106523,128,0,107036:0:0:0:0:
64,192,106523,1,4,0:0:0:0:
320,192,106652,1,0,0:0:0:0:
192,192,106780,1,0,0:0:0:0:
64,192,106908,1,0,0:0:0:0:
320,192,107036,128,0,107164:0:0:0:0:
192,192,107164,128,0,107293:0:0:0:0:
64,192,107293,128,0,108062:0:0:0:0:
320,192,107293,1,4,3:0:0:0:
448,192,107421,1,0,0:0:0:0:
192,192,107549,1,0,0:0:0:0:
320,192,107677,1,0,0:0:0:0:
448,192,107805,1,0,0:0:0:0:
320,192,107934,1,0,0:0:0:0:
192,192,108062,128,0,109600:0:0:0:0:
448,192,108062,1,4,0:0:0:0:
320,192,108190,1,0,0:0:0:0:
64,192,108318,1,0,0:0:0:0:
320,192,108446,1,0,0:0:0:0:
64,192,108575,1,0,0:0:0:0:
320,192,108703,1,0,0:0:0:0:
64,192,108831,1,0,0:0:0:0:
448,192,108831,1,4,0:0:0:0:
320,192,108959,1,0,0:0:0:0:
64,192,109087,1,0,0:0:0:0:
320,192,109216,1,0,0:0:0:0:
64,192,109344,1,0,0:0:0:0:
320,192,109472,1,0,0:0:0:0:
448,192,109600,128,0,110370:0:0:0:0:
64,192,109600,1,4,0:0:0:0:
192,192,109728,1,0,0:0:0:0:
320,192,109857,1,0,0:0:0:0:
64,192,109985,1,0,0:0:0:0:
192,192,110113,1,0,0:0:0:0:
320,192,110241,1,0,0:0:0:0:
64,192,110370,1,4,0:0:0:0:
64,192,110498,1,0,0:0:0:0:
448,192,110754,1,4,0:0:0:0:
448,192,110882,1,0,0:0:0:0:
320,192,110946,1,0,0:0:0:0:
192,192,111011,1,0,0:0:0:0:
64,192,111075,1,0,0:0:0:0:
320,192,111139,1,4,0:0:0:0:
448,192,111139,128,0,112164:0:0:0:0:
192,192,111267,1,0,0:0:0:0:
320,192,111395,1,0,0:0:0:0:
192,192,111523,1,0,0:0:0:0:
64,192,111652,1,0,0:0:0:0:
192,192,111780,1,0,0:0:0:0:
320,192,111908,1,0,0:0:0:0:
64,192,111908,1,4,0:0:0:0:
192,192,112036,1,0,0:0:0:0:
64,192,112164,128,0,112421:0:0:0:0:
320,192,112293,1,0,0:0:0:0:
192,192,112421,128,0,112677:0:0:0:0:
448,192,112549,1,0,0:0:0:0:
320,192,112677,128,0,113190:0:0:0:0:
64,192,112677,1,4,0:0:0:0:
448,192,112805,1,0,0:0:0:0:
192,192,112934,1,0,0:0:0:0:
64,192,113062,1,0,0:0:0:0:
448,192,113190,128,0,113318:0:0:0:0:
192,192,113318,128,0,113446:0:0:0:0:
64,192,113446,128,0,114216:0:0:0:0:
320,192,113446,1,4,0:0:0:0:
448,192,113575,1,0,0:0:0:0:
192,192,113703,1,0,0:0:0:0:
320,192,113831,1,0,0:0:0:0:
192,192,113959,1,0,0:0:0:0:
448,192,114087,1,0,0:0:0:0:
320,192,114216,128,0,115754:0:0:0:0:
192,192,114216,1,4,0:0:0:0:
448,192,114344,1,0,0:0:0:0:
64,192,114472,1,0,0:0:0:0:
192,192,114600,1,0,0:0:0:0:
448,192,114728,1,0,0:0:0:0:
192,192,114857,1,0,0:0:0:0:
64,192,114985,1,0,0:0:0:0:
448,192,114985,1,4,0:0:0:0:
192,192,115113,1,0,0:0:0:0:
64,192,115241,1,0,0:0:0:0:
448,192,115370,1,0,0:0:0:0:
192,192,115498,1,0,0:0:0:0:
448,192,115626,1,0,0:0:0:0:
192,192,115754,128,0,116523:0:0:0:0:
64,192,115754,1,4,0:0:0:0:
448,192,115882,1,0,0:0:0:0:
64,192,116011,1,0,0:0:0:0:
320,192,116139,1,0,0:0:0:0:
448,192,116267,1,0,0:0:0:0:
320,192,116395,1,0,0:0:0:0:
64,192,116523,128,4,116908:0:0:0:0:
448,192,117293,1,4,0:0:0:0:
320,192,117293,1,0,0:0:0:0:
192,192,117421,1,0,0:0:0:0:
64,192,117549,1,0,0:0:0:0:
192,192,117677,1,0,0:0:0:0:
320,192,117805,1,0,0:0:0:0:
192,192,117934,1,0,0:0:0:0:
320,192,118062,1,0,0:0:0:0:
64,192,118062,1,4,0:0:0:0:
448,192,118190,1,0,0:0:0:0:
320,192,118318,1,0,0:0:0:0:
192,192,118446,1,0,0:0:0:0:
64,192,118575,1,0,0:0:0:0:
192,192,118703,1,0,0:0:0:0:
320,192,118831,1,0,0:0:0:0:
448,192,118831,1,4,0:0:0:0:
192,192,118959,1,0,0:0:0:0:
320,192,119087,1,0,0:0:0:0:
192,192,119216,1,0,0:0:0:0:
64,192,119344,1,0,0:0:0:0:
320,192,119472,1,0,0:0:0:0:
192,192,119600,1,0,0:0:0:0:
64,192,119600,1,4,0:0:0:0:
448,192,119728,1,0,0:0:0:0:
320,192,119857,1,0,0:0:0:0:
192,192,119985,128,0,120177:0:0:0:0:
64,192,120177,128,0,120370:0:0:0:0:
320,192,120370,1,4,0:0:0:0:
448,192,120370,128,0,120690:0:0:0:0:
192,192,120690,128,0,120946:0:0:0:0:
320,192,120946,128,0,121139:0:0:0:0:
448,192,121139,1,4,0:0:0:0:
64,192,121171,128,0,121523:0:0:0:0:
192,192,121523,128,0,121716:0:0:0:0:
320,192,121716,128,0,121908:0:0:0:0:
448,192,121908,128,0,122164:0:0:0:0:
64,192,121908,1,4,0:0:0:0:
64,192,122164,128,0,122421:0:0:0:0:
192,192,122421,128,0,122677:0:0:0:0:
320,192,122677,128,0,123446:0:0:0:0:
448,192,122677,1,4,0:0:0:0:
64,192,123446,1,0,0:0:0:0:
192,192,123446,1,4,0:0:0:0:
448,192,123575,1,0,0:0:0:0:
64,192,123703,1,0,0:0:0:0:
448,192,123831,1,0,0:0:0:0:
64,192,123959,1,0,0:0:0:0:
448,192,124087,1,0,0:0:0:0:
192,192,124216,1,4,3:0:0:0:
64,192,124216,1,0,3:0:0:0:
320,192,124344,1,0,0:0:0:0:
448,192,124472,1,0,0:0:0:0:
320,192,124600,1,0,0:0:0:0:
448,192,124728,1,0,0:0:0:0:
320,192,124857,1,0,0:0:0:0:
192,192,124985,1,4,0:0:0:0:
448,192,124985,1,0,0:0:0:0:
320,192,125113,1,0,0:0:0:0:
64,192,125241,1,0,0:0:0:0:
320,192,125370,1,0,0:0:0:0:
64,192,125498,1,0,0:0:0:0:
320,192,125626,1,0,0:0:0:0:
192,192,125754,1,0,0:0:0:0:
64,192,125754,1,4,0:0:0:0:
320,192,125882,1,0,0:0:0:0:
192,192,126011,1,0,0:0:0:0:
320,192,126139,1,0,0:0:0:0:
192,192,126267,1,0,0:0:0:0:
320,192,126395,1,0,0:0:0:0:
64,192,126523,1,4,0:0:0:0:
192,192,126523,1,0,0:0:0:0:
448,192,126652,1,0,0:0:0:0:
192,192,126780,1,0,0:0:0:0:
448,192,126908,1,0,0:0:0:0:
192,192,127036,1,0,0:0:0:0:
448,192,127164,1,0,0:0:0:0:
64,192,127293,1,4,0:0:0:0:
192,192,127293,1,0,0:0:0:0:
320,192,127421,1,0,0:0:0:0:
448,192,127549,1,0,0:0:0:0:
320,192,127677,1,0,0:0:0:0:
448,192,127805,1,0,0:0:0:0:
320,192,127934,1,0,0:0:0:0:
64,192,128062,1,4,0:0:0:0:
448,192,128062,1,0,0:0:0:0:
192,192,128190,1,0,0:0:0:0:
64,192,128318,1,0,0:0:0:0:
192,192,128446,1,0,0:0:0:0:
64,192,128575,1,0,0:0:0:0:
192,192,128703,1,0,0:0:0:0:
448,192,128831,1,4,0:0:0:0:
320,192,128831,1,0,0:0:0:0:
192,192,128959,1,0,0:0:0:0:
320,192,129087,1,0,0:0:0:0:
192,192,129216,1,0,0:0:0:0:
320,192,129344,1,0,0:0:0:0:
192,192,129472,1,0,0:0:0:0:
64,192,129568,1,4,0:0:0:0:
448,192,129568,128,2,132677:1:0:0:0:
64,192,134216,1,12,0:0:0:0:
448,192,134216,1,12,0:0:0:0:
192,192,134344,1,4,0:0:0:0:
320,192,134472,1,4,0:0:0:0:
192,192,134600,1,4,0:0:0:0:
320,192,134728,1,4,0:0:0:0:
192,192,134857,1,4,0:0:0:0:
320,192,134985,1,4,0:0:0:0:
448,192,134985,1,12,0:0:0:0:
192,192,135113,1,4,0:0:0:0:
64,192,135113,1,12,0:0:0:0:
448,192,135241,1,12,0:0:0:0:
320,192,135241,1,0,0:0:0:0:
192,192,135370,1,0,0:0:0:0:
64,192,135370,1,12,0:0:0:0:
320,192,135498,1,0,0:0:0:0:
448,192,135498,1,12,0:0:0:0:
192,192,135626,1,0,0:0:0:0:
64,192,135626,1,12,0:0:0:0:
320,192,135754,1,0,0:0:0:0:
64,192,135754,1,2,1:0:0:0:
448,192,135754,128,12,137293:0:0:0:0:
192,192,136139,1,0,0:0:0:0:
64,192,136523,1,2,1:0:0:0:
192,192,136523,1,8,2:0:0:0:
320,192,136523,1,2,1:0:0:0:
64,192,136780,1,4,0:0:0:0:
192,192,136908,1,0,0:0:0:0:
320,192,137036,1,4,0:0:0:0:
192,192,137164,1,4,0:0:0:0:
64,192,137293,1,4,3:0:0:0:
320,192,137293,128,4,138831:0:0:0:0:
192,192,137677,1,0,0:0:0:0:
64,192,138062,1,2,1:0:0:0:
192,192,138062,1,8,2:0:0:0:
448,192,138062,1,2,1:0:0:0:
448,192,138318,1,4,0:0:0:0:
192,192,138446,1,0,0:0:0:0:
64,192,138575,1,4,0:0:0:0:
192,192,138703,1,4,0:0:0:0:
448,192,138831,128,4,140370:0:0:0:0:
64,192,138831,1,4,0:0:0:0:
320,192,139087,1,4,0:0:0:0:
192,192,139216,1,0,0:0:0:0:
320,192,139344,1,4,0:0:0:0:
192,192,139472,1,4,0:0:0:0:
320,192,139600,1,8,2:0:0:0:
64,192,139600,1,2,1:0:0:0:
192,192,139985,1,0,0:0:0:0:
64,192,140370,128,4,141139:0:0:0:0:
320,192,140370,1,4,0:0:0:0:
192,192,140626,1,4,0:0:0:0:
320,192,140754,1,0,0:0:0:0:
448,192,140882,1,4,0:0:0:0:
320,192,141011,1,4,0:0:0:0:
192,192,141139,1,4,0:0:0:0:
448,192,141267,1,4,0:0:0:0:
320,192,141267,1,4,0:0:0:0:
64,192,141395,1,4,0:0:0:0:
192,192,141395,1,12,0:0:0:0:
320,192,141523,1,4,0:0:0:0:
448,192,141523,1,0,0:0:0:0:
192,192,141652,1,12,0:0:0:0:
64,192,141652,1,4,0:0:0:0:
320,192,141780,1,4,0:0:0:0:
448,192,141780,1,4,0:0:0:0:
64,192,141908,128,4,142293:0:0:0:0:
192,192,141908,1,12,0:0:0:0:
448,192,141908,1,2,1:0:0:0:
448,192,142293,128,0,142677:0:0:0:0:
320,192,142677,128,2,143062:1:0:0:0:
64,192,142677,1,8,2:0:0:0:
192,192,142677,1,2,1:0:0:0:
64,192,143062,128,0,143446:0:0:0:0:
448,192,143446,128,4,143831:0:0:0:0:
192,192,143446,1,4,0:0:0:0:
320,192,143831,128,0,144216:0:0:0:0:
64,192,144216,128,8,144600:2:0:0:0:
192,192,144216,1,2,1:0:0:0:
448,192,144216,1,2,1:0:0:0:
320,192,144600,128,0,144985:0:0:0:0:
448,192,144985,128,4,145370:3:0:0:0:
192,192,144985,1,4,3:0:0:0:
320,192,145370,128,0,145754:0:0:0:0:
192,192,145754,128,8,146139:2:0:0:0:
64,192,145754,1,2,1:0:0:0:
448,192,145754,1,2,1:0:0:0:
448,192,146139,128,0,146523:0:0:0:0:
64,192,146523,128,4,146908:0:0:0:0:
320,192,146523,1,4,0:0:0:0:
320,192,146908,128,0,147293:0:0:0:0:
448,192,147293,128,8,147677:2:0:0:0:
64,192,147293,1,2,1:0:0:0:
192,192,147293,1,2,1:0:0:0:
192,192,147677,128,0,148062:0:0:0:0:
64,192,148062,128,4,148446:0:0:0:0:
320,192,148062,1,4,0:0:0:0:
448,192,148446,128,0,148831:0:0:0:0:
192,192,148831,128,8,149216:2:0:0:0:
320,192,148831,1,2,1:0:0:0:
64,192,148831,1,2,1:0:0:0:
320,192,149216,128,0,149600:0:0:0:0:
64,192,149600,128,4,149985:0:0:0:0:
448,192,149600,1,4,0:0:0:0:
192,192,149985,128,0,150370:0:0:0:0:
448,192,150370,128,8,150754:2:0:0:0:
320,192,150370,1,2,1:0:0:0:
64,192,150370,1,2,1:0:0:0:
320,192,150754,128,0,151139:0:0:0:0:
192,192,151139,128,4,151523:0:0:0:0:
64,192,151139,1,4,0:0:0:0:
64,192,151523,128,0,151908:0:0:0:0:
320,192,151908,128,8,152293:2:0:0:0:
192,192,151908,1,2,1:0:0:0:
448,192,151908,1,2,1:0:0:0:
192,192,152293,128,0,152677:0:0:0:0:
448,192,152677,128,4,153062:0:0:0:0:
64,192,152677,1,4,0:0:0:0:
192,192,153446,1,4,0:0:0:0:
64,192,153446,1,8,0:0:0:0:
320,192,153575,1,8,0:0:0:0:
448,192,153575,1,4,0:0:0:0:
192,192,153703,1,4,0:0:0:0:
64,192,153703,1,8,0:0:0:0:
448,192,153831,1,4,0:0:0:0:
320,192,153831,1,8,0:0:0:0:
192,192,153959,1,4,0:0:0:0:
64,192,153959,1,8,0:0:0:0:
320,192,154087,1,8,0:0:0:0:
448,192,154087,1,4,0:0:0:0:
64,192,154216,1,14,1:0:0:0:
192,192,154216,1,4,0:0:0:0:
320,192,154216,1,8,0:0:0:0:
448,192,154344,1,2,0:0:0:0:
320,192,154472,1,2,0:0:0:0:
64,192,154600,1,2,0:0:0:0:
192,192,154728,1,2,0:0:0:0:
320,192,154857,1,2,0:0:0:0:
64,192,154985,1,2,0:0:0:0:
448,192,154985,1,4,0:0:0:0:
192,192,155113,1,2,0:0:0:0:
320,192,155241,1,2,0:0:0:0:
64,192,155370,1,2,0:0:0:0:
448,192,155370,128,0,155754:0:0:0:0:
320,192,155498,1,2,0:0:0:0:
192,192,155626,1,2,0:0:0:0:
320,192,155754,128,0,156139:0:0:0:0:
64,192,155754,1,6,0:0:0:0:
448,192,155882,1,2,0:0:0:0:
192,192,156011,1,2,0:0:0:0:
64,192,156139,128,0,156523:0:0:0:0:
448,192,156139,1,2,0:0:0:0:
192,192,156267,1,2,0:0:0:0:
320,192,156395,1,2,0:0:0:0:
192,192,156523,128,0,156908:0:0:0:0:
448,192,156523,1,6,0:0:0:0:
320,192,156652,1,2,0:0:0:0:
64,192,156780,1,2,0:0:0:0:
320,192,156908,128,0,157293:0:0:0:0:
448,192,156908,1,2,0:0:0:0:
64,192,157036,1,2,0:0:0:0:
448,192,157164,1,2,0:0:0:0:
192,192,157293,1,14,0:0:0:0:
64,192,157293,128,14,157421:0:0:0:0:
320,192,157421,128,0,157549:0:0:0:0:
448,192,157421,1,0,0:0:0:0:
192,192,157549,1,0,0:0:0:0:
64,192,157549,128,0,157677:0:0:0:0:
448,192,157677,1,0,0:0:0:0:
320,192,157677,128,0,157805:0:0:0:0:
64,192,157805,128,0,157934:0:0:0:0:
192,192,157805,1,0,0:0:0:0:
320,192,157934,128,0,158062:0:0:0:0:
448,192,157934,1,0,0:0:0:0:
192,192,158062,1,8,2:0:0:0:
64,192,158062,1,2,1:0:0:0:
448,192,158190,1,2,0:0:0:0:
192,192,158318,1,2,0:0:0:0:
320,192,158446,1,2,0:0:0:0:
64,192,158575,1,2,0:0:0:0:
448,192,158703,1,2,0:0:0:0:
192,192,158831,1,2,0:0:0:0:
64,192,158831,128,8,158959:2:0:0:0:
320,192,158959,128,0,159087:0:0:0:0:
448,192,158959,1,0,0:0:0:0:
192,192,159087,128,0,159216:0:0:0:0:
64,192,159087,1,0,0:0:0:0:
448,192,159216,128,0,159344:0:0:0:0:
320,192,159216,1,0,0:0:0:0:
64,192,159344,128,0,159472:0:0:0:0:
192,192,159344,1,0,0:0:0:0:
320,192,159472,128,0,159600:0:0:0:0:
448,192,159472,1,0,0:0:0:0:
192,192,159600,1,2,1:0:0:0:
64,192,159600,1,8,2:0:0:0:
448,192,159728,1,0,0:0:0:0:
320,192,159857,1,0,0:0:0:0:
192,192,159985,1,0,0:0:0:0:
320,192,160113,1,0,0:0:0:0:
64,192,160241,1,0,0:0:0:0:
192,192,160370,1,10,0:0:0:0:
448,192,160370,128,0,160498:0:0:0:0:
320,192,160498,128,0,160626:0:0:0:0:
448,192,160626,128,0,160754:0:0:0:0:
64,192,160754,128,0,160882:0:0:0:0:
320,192,160882,128,0,161011:0:0:0:0:
64,192,161011,128,0,161139:0:0:0:0:
320,192,161139,1,2,1:0:0:0:
448,192,161139,128,0,161267:0:0:0:0:
192,192,161267,128,0,161395:0:0:0:0:
448,192,161395,128,0,161523:0:0:0:0:
64,192,161523,128,0,161652:0:0:0:0:
320,192,161652,128,0,161780:0:0:0:0:
64,192,161780,128,0,161908:0:0:0:0:
320,192,161908,1,10,0:0:0:0:
192,192,161908,128,0,162036:0:0:0:0:
448,192,162036,128,0,162164:0:0:0:0:
192,192,162164,128,0,162293:0:0:0:0:
320,192,162293,128,0,162421:0:0:0:0:
64,192,162421,128,0,162549:0:0:0:0:
320,192,162549,128,0,162677:0:0:0:0:
64,192,162677,1,2,1:0:0:0:
192,192,162677,128,0,162805:0:0:0:0:
320,192,162805,128,0,162934:0:0:0:0:
448,192,162805,1,0,0:0:0:0:
64,192,162934,128,0,163062:0:0:0:0:
192,192,162934,1,0,0:0:0:0:
448,192,163062,128,0,163190:0:0:0:0:
320,192,163062,1,0,0:0:0:0:
192,192,163190,128,0,163318:0:0:0:0:
64,192,163190,1,0,0:0:0:0:
448,192,163318,128,0,163446:0:0:0:0:
320,192,163318,1,0,0:0:0:0:
320,192,163446,1,12,0:0:0:0:
64,192,163446,128,14,165754:0:0:0:0:
192,192,163446,1,12,0:0:0:0:
