osu file format v12

[General]
AudioFilename: audio.mp3
AudioLeadIn: 1500
PreviewTime: 55234
Countdown: 0
SampleSet: Normal
StackLeniency: 0.7
Mode: 0
LetterboxInBreaks: 1
WidescreenStoryboard: 0

[Editor]
DistanceSpacing: 1.2
BeatDivisor: 4
GridSize: 4
TimelineZoom: 1

[Metadata]
Title:Radioactive
TitleUnicode:Radioactive
Artist:Imagine Dragons
ArtistUnicode:Imagine Dragons
Creator:GladiOol
Version:Normal
Source:
Tags:gladi neverdie yoeri
BeatmapID:237043
BeatmapSetID:82896

[Difficulty]
HPDrainRate:3
CircleSize:4
OverallDifficulty:2
ApproachRate:5
SliderMultiplier:1.4
SliderTickRate:2

[Events]
//Background and Video events
0,0,"eybroo.jpg",0,0
//Break Periods
2,39866,41301
2,84868,97524
2,141091,152429
//Storyboard Layer 0 (Background)
//Storyboard Layer 1 (Fail)
//Storyboard Layer 2 (Pass)
//Storyboard Layer 3 (Foreground)
//Storyboard Sound Samples
//Background Colour Transformations
3,100,163,162,255

[TimingPoints]
335,439.238653001464,4,2,0,40,1,0
28446,-100,4,2,0,50,0,0
56557,-100,4,1,0,50,0,1
67099,-100,4,1,0,40,0,1
69734,-100,4,1,0,50,0,1
81374,-100,4,1,0,40,0,1
84668,-100,4,2,0,50,0,0
112780,-100,4,1,0,50,0,1
123321,-100,4,1,0,40,0,1
125957,-100,4,1,0,50,0,1
137597,-100,4,1,0,40,0,1
140891,-166.666666666667,4,2,0,40,0,0
153629,-166.666666666667,4,2,0,50,0,0
154947,-100,4,1,0,50,0,1
165488,-100,4,1,0,40,0,1
168124,-100,4,1,0,50,0,1
179763,-100,4,1,0,40,0,1
183058,-100,4,2,0,30,0,0

[Colours]
Combo1 : 55,251,172
Combo2 : 6,238,203
Combo3 : 5,199,239
Combo4 : 13,213,113

[HitObjects]
40,312,335,6,0,P|159:334|224:272,1,210,0|2,0:0|0:0,0:0:0:0:
144,128,1433,2,0,P|118:184|130:264,1,140,0|2,0:0|0:0,0:0:0:0:
292,292,2311,2,0,P|318:236|306:156,2,140,0|2|0,0:0|0:0|0:0,0:0:0:0:
216,324,3409,2,0,L|72:304,1,140,2|0,0:0|0:0,0:0:0:0:
0,156,4288,5,0,0:0:0:0:
0,156,4507,2,0,L|144:136,1,140,2|0,0:0|0:0,0:0:0:0:
220,120,5166,2,0,L|248:56,1,70,2|0,0:0|0:0,0:0:0:0:
328,36,5605,2,0,P|420:52|480:156,1,210,0|2,0:0|0:0,0:0:0:0:
368,272,6703,1,0,0:0:0:0:
368,272,6923,2,0,P|340:204|352:136,1,140,2|2,0:0|0:0,0:0:0:0:
184,168,7802,5,0,0:0:0:0:
184,168,8022,2,0,P|212:236|200:304,1,140,2|0,0:0|0:0,0:0:0:0:
136,352,8680,2,0,L|64:344,2,70,0|2|0,0:0|0:0|0:0,0:0:0:0:
292,288,9559,1,0,0:0:0:0:
292,288,9778,2,0,L|436:304,1,140,2|0,0:0|0:0,0:0:0:0:
488,244,10437,2,0,P|508:164|492:104,1,140,2|0,0:0|0:0,0:0:0:0:
352,24,11315,5,0,0:0:0:0:
352,24,11535,2,0,P|332:104|348:164,1,140,2|0,0:0|0:0,0:0:0:0:
372,236,12194,2,0,L|216:264,1,140,0|2,0:0|0:0,0:0:0:0:
92,348,13072,1,0,0:0:0:0:
92,348,13292,2,0,P|48:264|64:152,1,210,2|2,0:0|0:0,0:0:0:0:
192,44,14390,5,2,0:0:0:0:
192,44,14829,2,0,L|200:124,1,70,0|2,0:0|0:0,0:0:0:0:
324,228,15488,2,0,L|332:148,2,70,0|2|0,0:0|0:0|0:0,0:0:0:0:
184,324,16367,2,0,L|176:244,2,70,0|2|0,0:0|0:0|0:0,0:0:0:0:
348,364,17245,1,0,0:0:0:0:
348,364,17465,2,0,L|492:336,1,140,2|0,0:0|0:0,0:0:0:0:
384,204,18343,5,0,0:0:0:0:
384,204,18563,2,0,P|276:196|208:268,1,210,2|0,0:0|0:0,0:0:0:0:
60,344,19661,2,0,P|28:276|36:212,1,140,2|0,0:0|0:0,0:0:0:0:
76,140,20320,2,0,L|296:96,1,210,2|0,0:0|0:0,0:0:0:0:
444,60,21418,1,2,0:0:0:0:
256,192,21528,12,0,28446,1:0:0:0:
36,136,29324,6,0,P|23:201|56:272,1,140,8|0,1:0|1:0,0:0:0:0:
184,160,30203,2,0,P|196:94|164:24,1,140,0|0,1:0|0:0,0:0:0:0:
124,104,30862,1,0,0:0:0:0:
124,104,31081,2,0,L|280:80,1,140,8|0,1:0|1:0,0:0:0:0:
272,168,31740,2,0,L|484:136,1,210
460,304,32838,5,8,1:0:0:0:
300,256,33277,1,0,0:0:0:0:
168,360,33717,2,0,L|12:336,1,140,0|0,1:0|0:0,0:0:0:0:
48,172,34595,2,0,P|76:104|60:32,1,140,8|0,1:0|1:0,0:0:0:0:
196,144,35474,6,0,P|164:228|196:352,1,210,0|0,1:0|0:0,0:0:0:0:
272,364,36352,2,0,L|416:344,1,140,8|0,1:0|1:0,0:0:0:0:
484,192,37231,1,0,1:0:0:0:
276,48,37889,1,0,0:0:0:0:
276,48,38109,2,0,L|272:124,2,70,8|0|0,1:0|0:0|1:0,0:0:0:0:
112,92,38988,1,0,1:0:0:0:
324,112,42501,6,0,L|404:104,1,70,0|0,1:0|0:0,0:0:0:0:
412,24,42941,2,0,L|332:32,1,70,2|0,0:0|0:0,0:0:0:0:
324,112,43380,2,0,P|348:176|336:248,1,140,8|0,1:0|1:0,0:0:0:0:
208,352,44258,2,0,P|172:360|132:348,2,70,0|0|2,1:0|0:0|0:0,0:0:0:0:
56,276,45137,2,0,P|32:212|44:140,1,140,8|0,1:0|1:0,0:0:0:0:
176,40,46015,6,0,L|184:124,1,70,0|0,1:0|0:0,0:0:0:0:
256,152,46455,2,0,L|264:68,1,70,2|0,0:0|0:0,0:0:0:0:
328,32,46894,2,0,P|400:24|460:64,1,140,8|0,1:0|0:0,0:0:0:0:
396,216,47772,2,0,P|336:250|268:242,1,140,0|0,1:0|0:0,0:0:0:0:
168,108,48651,1,8,1:0:0:0:
92,76,48870,1,0,0:0:0:0:
100,160,49090,1,0,1:0:0:0:
56,320,49529,6,0,L|124:332,1,70,0|0,1:0|0:0,0:0:0:0:
124,248,49968,2,0,L|192:260,1,70,2|0,0:0|0:0,0:0:0:0:
276,276,50408,2,0,P|300:208|284:140,1,140,8|0,1:0|1:0,0:0:0:0:
148,44,51286,2,0,P|136:80|140:120,2,70,0|0|2,1:0|0:0|0:0,0:0:0:0:
316,36,52165,2,0,P|340:104|324:172,1,140,8|0,1:0|1:0,0:0:0:0:
256,216,52824,2,0,P|160:204|72:276,1,210
208,372,53922,1,8,1:0:0:0:
372,332,54361,1,2,0:0:0:0:
372,332,54580,1,0,0:0:0:0:
344,80,55239,5,0,0:0:0:0:
248,136,55679,1,8,1:0:0:0:
136,116,56118,1,2,0:0:0:0:
48,188,56557,6,0,P|36:256|68:328,1,140,4|2,1:0|0:0,0:0:0:0:
228,300,57436,2,2,P|240:232|208:160,1,140,10|6,0:0|0:0,0:0:0:0:
232,84,58094,1,0,0:0:0:0:
232,84,58314,2,2,L|384:60,1,140,6|2,0:0|0:0,0:0:0:0:
496,172,59192,2,2,L|344:196,1,140,10|4,0:0|0:0,0:0:0:0:
284,344,60071,5,6,0:0:0:0:
176,216,60510,1,2,0:0:0:0:
32,304,60949,2,2,P|8:228|20:164,1,140,10|2,0:0|0:0,0:0:0:0:
64,100,61608,1,0,0:0:0:0:
64,100,61828,2,2,L|212:84,1,140,6|2,0:0|0:0,0:0:0:0:
368,64,62706,1,10,0:0:0:0:
456,208,63146,1,4,0:0:0:0:
344,336,63585,6,2,P|324:288|328:244,1,93.3333333333333,6|0,0:0|0:0,0:0:0:0:
332,220,64024,2,2,L|184:204,1,140,2|10,0:0|0:0,0:0:0:0:
48,288,64903,2,0,L|28:144,1,140,6|4,0:0|0:0,0:0:0:0:
148,32,65781,2,2,L|168:176,1,140,2|10,0:0|0:0,0:0:0:0:
192,336,66660,1,2,0:0:0:0:
356,292,67099,6,0,P|396:184|372:96,1,210
296,56,67977,2,0,L|136:40,2,140,8|2|0,0:0|0:0|0:0,0:0:0:0:
68,320,69734,6,0,L|60:276,8,35,8|0|0|0|0|0|0|0|4,0:0|0:0|0:0|0:0|0:0|0:0|0:0|0:0|0:0,0:0:0:0:
196,208,71052,5,0,0:0:0:0:
324,316,71491,1,8,0:0:0:0:
472,236,71930,2,0,P|492:164|472:96,1,140,6|6,0:0|0:0,0:0:0:0:
416,44,72589,1,0,0:0:0:0:
416,44,72809,2,0,L|272:28,2,140,0|8|6,0:0|0:0|0:0,0:0:0:0:
256,192,74346,5,2,0:0:0:0:
211,270,74566,1,2,0:0:0:0:
211,113,75005,1,10,0:0:0:0:
347,192,75444,1,2,0:0:0:0:
347,192,75884,1,4,0:0:0:0:
256,192,76103,5,2,0:0:0:0:
301,270,76323,1,2,0:0:0:0:
301,113,76762,1,10,0:0:0:0:
165,192,77201,1,4,0:0:0:0:
165,192,77641,1,4,0:0:0:0:
84,340,78080,5,0,0:0:0:0:
4,192,78519,2,0,L|44:48,1,140,8|6,0:0|0:0,0:0:0:0:
184,148,79397,2,0,L|224:4,1,140,6|0,0:0|0:0,0:0:0:0:
388,28,80276,1,8,0:0:0:0:
388,28,80715,1,2,0:0:0:0:
256,192,81374,5,2,0:0:0:0:
301,270,81594,1,2,0:0:0:0:
301,113,82033,1,2,0:0:0:0:
165,192,82472,1,2,0:0:0:0:
165,192,82911,1,0,0:0:0:0:
256,192,83131,5,2,0:0:0:0:
210,270,83351,1,2,0:0:0:0:
210,113,83790,1,2,0:0:0:0:
346,192,84229,1,2,0:0:0:0:
346,192,84668,1,4,1:0:0:0:
392,60,98724,6,0,P|380:100|384:132,1,70,0|0,1:0|0:0,0:0:0:0:
452,176,99163,2,0,P|464:136|460:104,1,70,2|0,0:0|0:0,0:0:0:0:
392,60,99602,2,0,P|324:48|264:84,1,140,8|0,1:0|1:0,0:0:0:0:
236,248,100481,2,0,L|244:320,2,70,0|0|2,1:0|0:0|0:0,0:0:0:0:
152,104,101359,2,0,L|-8:88,1,140,8|0,1:0|1:0,0:0:0:0:
48,256,102238,6,0,L|132:248,1,70,0|0,1:0|0:0,0:0:0:0:
104,332,102677,2,0,L|188:324,1,70,2|0,0:0|0:0,0:0:0:0:
256,316,103116,2,0,P|284:248|276:176,1,140,8|0,1:0|0:0,0:0:0:0:
132,104,103995,2,0,P|104:172|112:244,1,140,0|0,1:0|0:0,0:0:0:0:
276,240,104873,2,0,P|280:170|253:107,1,140,8|0,1:0|1:0,0:0:0:0:
132,224,105752,6,0,P|132:264|144:304,1,70,0|0,1:0|0:0,0:0:0:0:
200,352,106191,2,0,P|240:352|280:340,1,70,2|0,0:0|0:0,0:0:0:0:
336,292,106630,2,0,L|488:312,1,140,8|0,1:0|1:0,0:0:0:0:
420,152,107509,2,0,L|500:160,2,70,0|0|2,1:0|0:0|0:0,0:0:0:0:
252,132,108387,2,0,P|268:204|248:272,1,140,8|0,1:0|1:0,0:0:0:0:
204,336,109046,2,0,P|104:360|8:304,1,210
36,144,110144,1,8,1:0:0:0:
180,228,110583,1,2,0:0:0:0:
180,228,110803,1,0,0:0:0:0:
344,80,111462,5,0,0:0:0:0:
248,136,111902,1,8,1:0:0:0:
136,116,112341,1,2,0:0:0:0:
48,188,112780,6,0,P|36:256|68:328,1,140,4|2,1:0|0:0,0:0:0:0:
228,300,113659,2,2,P|240:232|208:160,1,140,10|6,0:0|0:0,0:0:0:0:
232,84,114317,1,0,0:0:0:0:
232,84,114537,2,2,L|384:60,1,140,6|2,0:0|0:0,0:0:0:0:
496,172,115415,2,2,L|344:196,1,140,10|4,0:0|0:0,0:0:0:0:
284,344,116294,5,6,0:0:0:0:
176,216,116733,1,2,0:0:0:0:
32,304,117172,2,2,P|8:228|20:164,1,140,10|2,0:0|0:0,0:0:0:0:
64,100,117831,1,0,0:0:0:0:
64,100,118051,2,2,L|212:84,1,140,6|2,0:0|0:0,0:0:0:0:
368,64,118929,1,10,0:0:0:0:
456,208,119369,1,4,0:0:0:0:
344,336,119808,6,2,P|324:288|328:244,1,93.3333333333333,6|0,0:0|0:0,0:0:0:0:
332,220,120247,2,2,L|184:204,1,140,2|10,0:0|0:0,0:0:0:0:
48,288,121126,2,0,L|28:144,1,140,6|4,0:0|0:0,0:0:0:0:
148,32,122004,2,2,L|168:176,1,140,2|10,0:0|0:0,0:0:0:0:
192,336,122883,1,2,0:0:0:0:
356,292,123322,6,0,P|396:184|372:96,1,210
296,56,124200,2,0,L|136:40,2,140,8|2|0,0:0|0:0|0:0,0:0:0:0:
68,320,125957,6,0,L|60:276,8,35,8|0|0|0|0|0|0|0|4,0:0|0:0|0:0|0:0|0:0|0:0|0:0|0:0|0:0,0:0:0:0:
196,208,127275,5,0,0:0:0:0:
324,316,127714,1,8,0:0:0:0:
472,236,128153,2,0,P|492:164|472:96,1,140,6|6,0:0|0:0,0:0:0:0:
416,44,128812,1,0,0:0:0:0:
416,44,129032,2,0,L|272:28,2,140,0|8|6,0:0|0:0|0:0,0:0:0:0:
256,192,130569,5,2,0:0:0:0:
211,270,130789,1,2,0:0:0:0:
211,113,131228,1,10,0:0:0:0:
347,192,131667,1,2,0:0:0:0:
347,192,132107,1,4,0:0:0:0:
256,192,132326,5,2,0:0:0:0:
301,270,132546,1,2,0:0:0:0:
301,113,132985,1,10,0:0:0:0:
165,192,133424,1,4,0:0:0:0:
165,192,133864,1,4,0:0:0:0:
84,340,134303,5,0,0:0:0:0:
4,192,134742,2,0,L|44:48,1,140,8|6,0:0|0:0,0:0:0:0:
184,148,135620,2,0,L|224:4,1,140,6|0,0:0|0:0,0:0:0:0:
388,28,136499,1,8,0:0:0:0:
388,28,136938,1,2,0:0:0:0:
256,192,137597,5,2,0:0:0:0:
301,270,137817,1,2,0:0:0:0:
301,113,138256,1,2,0:0:0:0:
165,192,138695,1,2,0:0:0:0:
165,192,139134,1,0,0:0:0:0:
256,192,139354,5,2,0:0:0:0:
210,270,139574,1,2,0:0:0:0:
210,113,140013,1,10,0:0:0:0:
346,192,140452,1,2,0:0:0:0:
346,192,140891,1,0,1:0:0:0:
168,36,153629,5,0,0:0:0:0:
260,96,154068,2,0,L|352:92,1,83.9999974365235,8|2,1:0|0:0,0:0:0:0:
448,48,154947,6,0,P|476:116|460:192,1,140,4|2,0:0|0:0,0:0:0:0:
344,296,155825,2,2,L|196:288,1,140,10|6,0:0|0:0,0:0:0:0:
52,356,156703,2,2,L|24:204,1,140,6|2,0:0|0:0,0:0:0:0:
192,192,157582,2,2,L|164:40,1,140,10|4,0:0|0:0,0:0:0:0:
96,100,158241,5,0,0:0:0:0:
96,100,158460,2,2,L|124:252,1,140,6|2,0:0|0:0,0:0:0:0:
256,340,159339,2,2,L|284:188,1,140,10|2,0:0|0:0,0:0:0:0:
300,120,159998,1,0,0:0:0:0:
300,120,160217,2,2,P|364:112|440:152,1,140,6|2,0:0|0:0,0:0:0:0:
324,272,161096,2,2,P|261:302|193:294,1,140,10|4,0:0|0:0,0:0:0:0:
60,192,161974,6,2,P|44:140|48:96,1,93.3333333333333,6|0,0:0|0:0,0:0:0:0:
60,76,162414,2,2,L|220:56,1,140,2|10,0:0|0:0,0:0:0:0:
336,156,163292,1,6,0:0:0:0:
492,100,163731,1,4,0:0:0:0:
452,264,164171,2,2,L|388:336,1,93.3333333333333,2|0,0:0|0:0,0:0:0:0:
372,352,164610,2,2,L|228:336,1,140,10|2,0:0|0:0,0:0:0:0:
68,308,165488,6,0,P|32:196|60:112,1,210
136,76,166367,2,0,P|164:140|160:212,2,140,8|2|0,0:0|0:0|0:0,0:0:0:0:
444,76,168124,6,0,L|452:32,8,35,8|0|0|0|0|0|0|0|4,0:0|0:0|0:0|0:0|0:0|0:0|0:0|0:0|0:0,0:0:0:0:
304,168,169441,5,0,0:0:0:0:
148,108,169881,1,8,0:0:0:0:
20,216,170320,2,0,P|8:280|32:360,1,140,6|6,0:0|0:0,0:0:0:0:
108,372,170979,1,0,0:0:0:0:
108,372,171198,2,0,L|260:360,2,140,0|8|6,0:0|0:0|0:0,0:0:0:0:
256,192,172736,5,2,0:0:0:0:
211,114,172956,1,2,0:0:0:0:
211,271,173395,1,10,0:0:0:0:
347,192,173834,1,2,0:0:0:0:
347,192,174274,1,4,0:0:0:0:
256,192,174493,5,2,0:0:0:0:
301,114,174713,1,2,0:0:0:0:
301,271,175152,1,10,0:0:0:0:
165,192,175591,1,4,0:0:0:0:
165,192,176031,1,4,0:0:0:0:
256,52,176469,5,0,0:0:0:0:
356,188,176908,1,8,0:0:0:0:
220,292,177348,2,0,L|372:324,1,140,6|6,0:0|0:0,0:0:0:0:
436,344,178007,1,0,0:0:0:0:
436,344,178226,2,0,P|464:272|452:204,2,140,0|8|2,0:0|0:0|0:0,0:0:0:0:
256,192,179763,5,2,0:0:0:0:
301,114,179983,1,2,0:0:0:0:
301,271,180422,1,2,0:0:0:0:
165,192,180861,1,2,0:0:0:0:
165,192,181301,1,0,0:0:0:0:
256,192,181520,5,2,0:0:0:0:
211,114,181740,1,2,0:0:0:0:
211,271,182179,1,10,0:0:0:0:
347,192,182618,1,2,0:0:0:0:
347,192,183058,1,0,0:0:0:0:
