osu file format v12

[General]
AudioFilename: audio.mp3
AudioLeadIn: 1500
PreviewTime: 55234
Countdown: 0
SampleSet: Soft
StackLeniency: 0.7
Mode: 1
LetterboxInBreaks: 0
WidescreenStoryboard: 1

[Editor]
Bookmarks: 19222
DistanceSpacing: 0.6
BeatDivisor: 4
GridSize: 4
TimelineZoom: 1

[Metadata]
Title:Radioactive
TitleUnicode:Radioactive
Artist:Imagine Dragons
ArtistUnicode:Imagine Dragons
Creator:GladiOol
Version:Futsuu
Source:
Tags:gladi neverdie yoeri
BeatmapID:383576
BeatmapSetID:82896

[Difficulty]
HPDrainRate:2
CircleSize:5
OverallDifficulty:2
ApproachRate:4
SliderMultiplier:1.4
SliderTickRate:1

[Events]
//Background and Video events
0,0,"eybroo.jpg",0,0
//Break Periods
2,84429,97404
2,140652,152748
//Storyboard Layer 0 (Background)
//Storyboard Layer 1 (Fail)
//Storyboard Layer 2 (Pass)
//Storyboard Layer 3 (Foreground)
//Storyboard Sound Samples
//Background Colour Transformations
3,100,163,162,255

[TimingPoints]
335,439.238653001464,4,2,0,40,1,0
28446,-100,4,2,0,50,0,0
56557,-100,4,1,0,50,0,1
67099,-100,4,1,0,40,0,1
69734,-100,4,1,0,50,0,1
81374,-100,4,1,0,40,0,1
84668,-100,4,2,0,50,0,0
112780,-100,4,1,0,50,0,1
123321,-100,4,1,0,40,0,1
125957,-100,4,1,0,50,0,1
137597,-100,4,1,0,40,0,1
140891,-100,4,2,0,40,0,0
154947,-100,4,1,0,50,0,1
165488,-100,4,1,0,40,0,1
168124,-100,4,1,0,50,0,1
179763,-100,4,1,0,40,0,1
183058,-100,4,2,0,30,0,0

[Colours]
Combo1 : 55,251,172
Combo2 : 6,238,203
Combo3 : 5,199,239
Combo4 : 13,213,113

[HitObjects]
220,192,335,5,0,0:0:0:0:
292,192,774,1,2,0:0:0:0:
292,192,1652,1,2,0:0:0:0:
220,192,2091,1,0,0:0:0:0:
292,192,2530,1,2,0:0:0:0:
292,192,3408,1,2,0:0:0:0:
220,192,3848,1,0,0:0:0:0:
292,192,4287,1,2,0:0:0:0:
292,192,5165,1,2,0:0:0:0:
220,192,5605,1,0,0:0:0:0:
292,192,6044,1,2,0:0:0:0:
292,192,6922,1,2,0:0:0:0:
220,192,7362,1,0,0:0:0:0:
292,192,7802,1,2,0:0:0:0:
292,192,8680,1,2,0:0:0:0:
220,192,9119,1,0,0:0:0:0:
292,192,9559,1,2,0:0:0:0:
292,192,10437,1,2,0:0:0:0:
220,192,10876,1,0,0:0:0:0:
292,192,11316,1,2,0:0:0:0:
292,192,12194,1,2,0:0:0:0:
220,192,12633,1,0,0:0:0:0:
292,192,13073,1,2,0:0:0:0:
292,192,13951,1,2,0:0:0:0:
220,192,14390,1,0,0:0:0:0:
292,192,14829,1,2,0:0:0:0:
292,192,15708,1,2,0:0:0:0:
220,192,16147,1,0,0:0:0:0:
292,192,16586,1,2,0:0:0:0:
292,192,17465,1,2,0:0:0:0:
220,192,17904,1,0,0:0:0:0:
292,192,18343,1,2,0:0:0:0:
292,192,19222,1,2,0:0:0:0:
220,192,19661,1,0,0:0:0:0:
292,192,20100,5,2,0:0:0:0:
292,192,20979,1,2,0:0:0:0:
256,192,21418,12,0,28006,0:0:0:0:
220,192,28446,5,4,0:0:0:0:
292,192,29324,1,8,0:0:0:0:
220,192,29763,1,0,0:0:0:0:
220,192,30203,1,0,0:0:0:0:
292,192,31081,1,8,0:0:0:0:
220,192,31520,1,0,0:0:0:0:
220,192,31960,1,0,0:0:0:0:
292,192,32838,1,8,0:0:0:0:
220,192,33717,1,0,0:0:0:0:
292,192,34595,1,8,0:0:0:0:
220,192,35034,1,0,0:0:0:0:
220,192,35474,1,0,0:0:0:0:
292,192,36352,1,8,0:0:0:0:
220,192,36791,1,0,0:0:0:0:
220,192,37231,1,0,0:0:0:0:
292,192,38109,1,8,0:0:0:0:
220,192,38548,1,0,0:0:0:0:
220,192,38988,1,0,0:0:0:0:
220,192,42501,1,4,0:0:0:0:
292,192,43380,1,8,0:0:0:0:
220,192,43819,1,0,0:0:0:0:
220,192,44258,1,0,0:0:0:0:
292,192,45137,1,8,0:0:0:0:
220,192,45576,1,0,0:0:0:0:
220,192,46015,1,0,0:0:0:0:
292,192,46894,1,8,0:0:0:0:
220,192,47772,1,0,0:0:0:0:
292,192,48651,1,8,0:0:0:0:
220,192,49090,1,0,0:0:0:0:
220,192,49529,1,0,0:0:0:0:
292,192,50408,1,8,0:0:0:0:
220,192,50847,1,0,0:0:0:0:
220,192,51286,1,0,0:0:0:0:
292,192,52165,1,8,0:0:0:0:
220,192,52604,1,0,0:0:0:0:
220,192,53043,1,0,0:0:0:0:
292,192,53922,1,8,0:0:0:0:
292,192,55679,1,8,0:0:0:0:
220,192,56557,1,4,0:0:0:0:
292,192,57436,1,8,0:0:0:0:
220,192,57875,1,0,0:0:0:0:
220,192,58314,1,0,0:0:0:0:
292,192,59192,1,8,0:0:0:0:
220,192,59631,1,0,0:0:0:0:
220,192,60070,1,0,0:0:0:0:
292,192,60949,1,8,0:0:0:0:
220,192,61827,1,0,0:0:0:0:
292,192,62706,1,8,0:0:0:0:
220,192,63145,1,0,0:0:0:0:
220,192,63584,1,0,0:0:0:0:
292,192,64463,1,8,0:0:0:0:
220,192,64902,1,0,0:0:0:0:
220,192,65341,1,0,0:0:0:0:
292,192,66220,1,8,0:0:0:0:
220,192,67098,1,0,0:0:0:0:
292,192,67977,1,8,0:0:0:0:
220,192,68856,1,0,0:0:0:0:
292,192,69734,1,8,0:0:0:0:
292,192,70173,1,8,0:0:0:0:
292,192,70613,1,12,0:0:0:0:
292,192,71491,1,8,0:0:0:0:
220,192,71930,1,0,0:0:0:0:
220,192,72369,1,0,0:0:0:0:
292,192,73248,1,8,0:0:0:0:
220,192,73687,1,0,0:0:0:0:
220,192,74126,1,0,0:0:0:0:
292,192,75005,1,8,0:0:0:0:
220,192,75884,1,0,0:0:0:0:
292,192,76762,1,8,0:0:0:0:
220,192,77201,1,0,0:0:0:0:
220,192,77640,1,0,0:0:0:0:
292,192,78519,1,8,0:0:0:0:
220,192,78958,1,0,0:0:0:0:
220,192,79397,1,0,0:0:0:0:
292,192,80276,1,8,0:0:0:0:
96,88,81374,2,0,L|464:88,1,350
96,88,83131,2,0,L|464:88,1,350
220,192,98724,5,4,0:0:0:0:
292,192,99602,5,8,0:0:0:0:
220,192,100041,1,0,0:0:0:0:
220,192,100480,1,0,0:0:0:0:
292,192,101359,5,8,0:0:0:0:
220,192,101798,1,0,0:0:0:0:
220,192,102237,1,0,0:0:0:0:
292,192,103116,5,8,0:0:0:0:
220,192,103994,1,0,0:0:0:0:
292,192,104873,5,8,0:0:0:0:
220,192,105312,1,0,0:0:0:0:
220,192,105751,1,0,0:0:0:0:
292,192,106630,5,8,0:0:0:0:
220,192,107069,1,0,0:0:0:0:
220,192,107508,1,0,0:0:0:0:
292,192,108387,5,8,0:0:0:0:
220,192,108826,1,0,0:0:0:0:
220,192,109265,1,0,0:0:0:0:
292,192,110144,5,8,0:0:0:0:
220,192,111022,1,0,0:0:0:0:
292,192,111901,5,8,0:0:0:0:
220,192,112780,1,4,0:0:0:0:
292,192,113659,1,8,0:0:0:0:
220,192,114098,1,0,0:0:0:0:
220,192,114537,1,0,0:0:0:0:
292,192,115415,1,8,0:0:0:0:
220,192,115854,1,0,0:0:0:0:
220,192,116293,1,0,0:0:0:0:
292,192,117172,1,8,0:0:0:0:
220,192,118050,1,0,0:0:0:0:
292,192,118929,1,8,0:0:0:0:
220,192,119368,1,0,0:0:0:0:
220,192,119807,1,0,0:0:0:0:
292,192,120686,1,8,0:0:0:0:
220,192,121125,1,0,0:0:0:0:
220,192,121564,1,0,0:0:0:0:
292,192,122443,1,8,0:0:0:0:
220,192,123321,1,0,0:0:0:0:
292,192,124200,1,8,0:0:0:0:
220,192,125079,1,0,0:0:0:0:
292,192,125957,1,8,0:0:0:0:
292,192,126396,1,8,0:0:0:0:
292,192,126836,1,12,0:0:0:0:
292,192,127714,1,8,0:0:0:0:
220,192,128153,1,0,0:0:0:0:
220,192,128592,1,0,0:0:0:0:
292,192,129471,1,8,0:0:0:0:
220,192,129910,1,0,0:0:0:0:
220,192,130349,1,0,0:0:0:0:
292,192,131228,1,8,0:0:0:0:
220,192,132107,1,0,0:0:0:0:
292,192,132985,1,8,0:0:0:0:
220,192,133424,1,0,0:0:0:0:
220,192,133863,1,0,0:0:0:0:
292,192,134742,1,8,0:0:0:0:
220,192,135181,1,0,0:0:0:0:
220,192,135620,1,0,0:0:0:0:
292,192,136499,1,8,0:0:0:0:
96,88,137597,2,0,L|464:88,1,350
96,88,139354,2,0,L|464:88,1,350
292,192,154068,5,8,0:0:0:0:
220,192,154947,5,4,0:0:0:0:
292,192,155826,1,8,0:0:0:0:
220,192,156265,1,0,0:0:0:0:
220,192,156704,1,0,0:0:0:0:
292,192,157582,1,8,0:0:0:0:
220,192,158021,1,0,0:0:0:0:
220,192,158460,1,0,0:0:0:0:
292,192,159339,1,8,0:0:0:0:
220,192,160217,1,0,0:0:0:0:
292,192,161096,1,8,0:0:0:0:
220,192,161535,1,0,0:0:0:0:
220,192,161974,1,0,0:0:0:0:
292,192,162853,1,8,0:0:0:0:
220,192,163292,1,0,0:0:0:0:
220,192,163731,1,0,0:0:0:0:
292,192,164610,1,8,0:0:0:0:
220,192,165488,1,0,0:0:0:0:
292,192,166367,1,8,0:0:0:0:
220,192,167246,1,0,0:0:0:0:
292,192,168124,1,8,0:0:0:0:
292,192,168563,1,8,0:0:0:0:
292,192,169003,1,12,0:0:0:0:
292,192,169881,1,8,0:0:0:0:
220,192,170320,1,0,0:0:0:0:
220,192,170759,1,0,0:0:0:0:
292,192,171638,1,8,0:0:0:0:
220,192,172077,1,0,0:0:0:0:
220,192,172516,1,0,0:0:0:0:
292,192,173395,1,8,0:0:0:0:
220,192,174274,1,0,0:0:0:0:
292,192,175152,1,8,0:0:0:0:
220,192,175591,1,0,0:0:0:0:
220,192,176030,1,0,0:0:0:0:
292,192,176909,1,8,0:0:0:0:
220,192,177348,1,0,0:0:0:0:
220,192,177787,1,0,0:0:0:0:
292,192,178666,1,8,0:0:0:0:
96,88,179763,2,0,L|464:88,1,350
96,88,181520,2,0,L|464:88,1,350
