osu file format v5

[General]
AudioFilename: 08 - Ima Robot - Monument To The Masses - Pouring Rain.mp3
AudioLeadIn: 0
PreviewTime: -1
Countdown: 1
SampleSet: None
StackLeniency: 0.7
Mode: 0
LetterboxInBreaks: 1

[Metadata]
Title:Pouring Rain
Artist:Ima Robot
Creator:eurek
Version:Normal
Source:
Tags:

[Difficulty]
HPDrainRate:5
CircleSize:5
OverallDifficulty:5
SliderMultiplier:0.899999999999999
SliderTickRate:2

[Events]
//Background and Video events
0,0,"ima.jpg"
//Break Periods
2,20408,23882
2,118620,133061
//Storyboard Layer 0 (Background)
//Storyboard Layer 1 (Failing)
//Storyboard Layer 2 (Passing)
//Storyboard Layer 3 (Foreground)
//Storyboard Sound Samples
//Background Colour Transformations
3,100,0,0,0

[TimingPoints]
9420,487.40487804878,4,0,0,100,1

[HitObjects]
32,64,9419,1,0
96,160,9907,1,0
32,256,10394,1,0
32,160,10882,2,0,B|192:160,1,135
96,160,12344,1,0
192,64,13319,5,0
256,160,13806,1,0
192,256,14294,1,0
192,160,14781,2,0,B|352:160,1,135
256,160,16243,1,0
352,64,17218,5,0
416,160,17705,1,0
352,256,18193,1,0
352,160,18680,2,0,B|512:160|480:160,1,135
416,160,20142,1,0
256,192,25016,5,0
320,128,25504,1,0
256,64,25991,1,0
96,64,26966,5,0
160,0,27453,1,0
224,64,27941,1,0
160,160,28428,1,0
256,192,29403,5,0
352,192,29891,1,0
448,192,30378,1,0
352,192,30865,1,0
256,192,31353,1,0
192,192,31596,1,0
160,192,32084,1,0
96,192,32571,1,0
32,192,33059,6,0,B|32:128,1,45
64,128,33546,2,0,B|64:64,1,45
96,64,34033,2,0,B|160:64|128:64,1,45
256,32,35252,5,0
288,96,35739,1,0
256,160,36227,1,0
256,288,37202,5,0
192,256,37689,1,0
128,224,38176,1,0
64,192,38664,2,0,B|224:192,1,135
224,192,39639,1,0
288,192,40126,1,0
352,192,40613,1,4
352,96,41101,5,0
256,96,41588,1,0
160,96,42076,1,8
128,256,43050,6,8,B|224:354|182:208|320:256,1,180
352,128,45000,1,0
384,224,45487,1,0
256,128,45975,1,0
256,32,46462,1,0
192,64,46950,1,4
128,160,47437,1,4
64,96,47924,1,4
64,224,48899,5,0
128,288,49387,1,0
192,224,49874,1,0
64,160,50849,5,0
128,224,51336,1,0
192,160,51824,1,0
256,32,52799,5,0
256,128,53286,1,0
256,224,53773,1,0
256,320,54261,1,0
352,320,54748,1,0
448,320,55236,1,0
448,224,55723,2,0,B|256:224,1,180
256,192,57185,12,0,58891
256,192,59622,12,0,61084
256,320,62059,5,0
352,320,62546,1,0
448,320,63035,1,0
448,224,63522,2,0,B|256:224,1,180
256,160,64984,6,0,B|192:160|160:96|96:192,1,180
32,128,66446,2,0,B|32:224|-94:408|128:320,1,315
128,64,69370,5,0
192,192,69858,1,0
352,96,70345,1,0
288,288,70832,2,0,B|320:224|384:224|416:288|384:256,1,135
160,256,72295,5,0
192,64,72782,1,0
64,192,73270,1,0
224,192,73757,1,0
320,64,74244,5,0
128,64,74732,1,0
128,224,75219,1,0
320,224,75707,1,0
192,352,76194,5,0
32,192,76681,1,0
64,192,76925,1,0
96,192,77168,1,0
128,192,77412,1,0
160,192,77656,1,0
224,192,78144,1,0
320,192,78631,1,0
256,320,79118,1,0
96,64,80093,5,0
192,160,80581,1,0
320,64,81068,1,0
64,128,82043,5,0
128,288,82530,1,0
224,192,83018,1,0
256,192,83261,1,0
128,64,83992,5,0
256,96,84480,1,0
352,192,84967,1,0
224,256,85455,1,0
352,320,85942,1,0
448,256,86429,1,0
352,96,86917,1,4
64,96,87892,5,0
128,192,88379,1,0
224,160,88866,1,0
352,288,89354,1,0
384,128,89841,1,0
128,96,90329,1,0
256,160,91547,5,0
256,192,91791,1,0
128,288,92278,1,0
288,288,92766,1,0
288,96,93253,1,0
416,128,93741,1,0
192,192,94228,1,0
288,288,94715,1,0
64,96,95690,5,0
192,256,96178,1,0
352,128,96665,1,0
192,96,97152,1,0
96,224,97640,5,0
224,288,98127,1,0
320,192,98615,1,0
192,128,99102,1,0
256,32,99589,6,0,B|64:32|64:192|128:288|288:256,1,449.999999999999
288,128,102514,1,0
352,224,103001,1,0
224,288,103489,1,0
256,192,103976,12,0,105682
256,192,106413,12,0,107875
256,320,108850,5,0
352,320,109337,1,0
448,320,109826,1,0
448,224,110313,2,0,B|256:224,1,180
256,160,111775,6,0,B|192:160|160:96|96:192,1,180
32,128,113237,2,0,B|32:224|-94:408|128:320,1,315
128,64,116161,5,0
192,192,116649,1,0
352,96,117136,1,0
288,288,117623,2,0,B|320:224|384:224|416:288|384:256,1,135
256,192,134195,6,0,B|256:288|384:288,1,180
416,192,136145,2,0,B|416:96|288:96,1,180
256,192,137607,1,0
160,128,138094,2,0,B|160:32|288:32,1,180
352,96,140044,2,0,B|448:96,1,89.9999999999999
448,96,140775,6,0,B|502:264|454:192,1,135
256,192,141994,6,0,B|256:288|384:288,1,180
416,192,143944,2,0,B|416:96|288:96,1,180
256,192,145406,1,0
160,128,145893,2,0,B|160:32|288:32,1,180
352,96,147843,2,0,B|448:96,1,89.9999999999999
448,96,148574,2,0,B|502:264|454:192,1,135
384,192,149792,5,0
352,192,150036,1,0
256,192,150767,1,0
192,160,151254,1,0
128,192,151742,5,0
128,224,151985,1,0
128,320,152717,1,0
192,288,153204,1,0
256,192,153691,5,0
288,96,154179,1,0
384,128,154666,1,0
416,256,155154,1,0
256,192,155641,5,0
224,96,156128,1,0
128,128,156616,1,0
96,256,157103,1,0
256,320,157591,5,0
256,320,158078,1,0
256,192,158565,1,0
384,192,159053,1,0
384,96,159540,5,0
320,32,160028,1,0
256,96,160515,1,0
256,192,161002,1,0
256,320,161490,5,0
320,256,161977,1,0
256,192,162465,1,0
192,256,162952,1,0
256,256,163439,2,4,B|256:160|128:192|96:192|128:64,1,270
256,192,165389,5,0
320,96,165876,1,0
384,192,166364,1,0
384,320,166851,1,0
256,320,167339,1,0
256,192,167826,1,0
160,192,168313,1,0
160,320,168801,1,0
256,256,169288,5,0
352,192,169776,1,0
256,128,170263,1,0
128,128,170751,1,0
192,32,171238,1,0
192,160,171725,1,0
288,96,172213,1,0
352,192,172700,1,0
384,96,173188,5,0
256,192,173675,1,0
256,64,174162,1,0
160,128,174650,1,0
256,192,175137,5,0
128,256,175625,1,0
256,320,176112,1,0
384,256,176599,1,0
384,64,177087,5,0
224,192,177574,1,0
224,64,178062,1,0
352,160,178549,1,0
320,256,179036,1,0
448,256,179524,1,0
448,96,180011,1,0
352,96,180499,1,0
288,192,180986,1,12
256,192,181961,12,0,183667
256,192,184398,12,0,185860
256,320,186835,5,0
352,320,187322,1,0
448,320,187811,1,0
448,224,188298,2,0,B|256:224,1,180
256,160,189760,6,0,B|192:160|160:96|96:192,1,180
32,128,191222,2,0,B|32:224|-94:408|128:320,1,315
128,64,194146,5,0
192,192,194634,1,0
352,96,195121,1,0
288,288,195608,2,0,B|320:224|384:224|416:288|384:256,1,135
256,192,197070,12,0,202432
