osu file format v5

[General]
AudioFilename: Eiffel 65 - I'm Blue.mp3
AudioLeadIn: 0
PreviewTime: -1
Countdown: 1
SampleSet: None
StackLeniency: 0.7
Mode: 0
LetterboxInBreaks: 1

[Metadata]
Title:by cookie
Artist:Im-blue Efile 65
Creator:cookieman1123
Version:Hard
Source:
Tags:Im BLueeee

[Difficulty]
HPDrainRate:5
CircleSize:5
OverallDifficulty:5
SliderMultiplier:1.4
SliderTickRate:1

[Events]
//Background and Video events
//Break Periods
//Storyboard Layer 0 (Background)
//Storyboard Layer 1 (Failing)
//Storyboard Layer 2 (Passing)
//Storyboard Layer 3 (Foreground)
//Storyboard Sound Samples
//Background Colour Transformations
3,100,163,162,255

[TimingPoints]
6.17486670647215,461.538461538462,4,0,0,100,1

[HitObjects]
192,96,1790,1,0
320,192,2270,1,0
320,192,2500,1,0
192,224,2970,1,0
224,128,3460,1,0
288,96,3890,1,0
288,96,4130,1,0
288,96,4390,1,0
288,256,4870,1,0
288,256,5110,1,0
288,224,5310,1,0
288,224,5590,1,0
288,224,5830,1,0
288,224,6060,1,0
320,192,6480,1,0
320,192,6760,1,0
288,288,7220,1,0
192,224,7700,1,0
192,224,7940,1,0
224,192,8350,1,0
352,224,9100,1,0
352,224,9300,1,0
320,128,9760,1,0
320,128,9990,1,0
320,128,10260,1,0
384,160,10620,1,0
384,160,10930,1,0
384,160,11220,1,0
384,160,11490,1,0
384,160,11720,1,0
384,160,12010,1,0
384,224,12400,1,0
352,224,12830,1,0
352,224,13080,1,0
320,160,13500,1,0
224,192,13970,1,0
256,256,14420,1,0
352,192,15130,1,0
352,256,15570,1,0
256,256,16030,1,0
256,256,16290,1,0
288,192,16750,1,0
384,192,17250,1,0
384,192,17520,1,0
352,256,17940,1,0
256,192,18470,1,0
320,160,18930,1,0
320,160,19170,1,0
352,160,19600,1,0
352,160,19850,1,0
352,160,20120,1,0
352,160,20350,1,0
352,224,20650,1,0
352,224,20840,1,0
352,224,21120,1,0
352,224,21340,1,0
288,160,21730,1,0
160,128,22190,1,0
160,128,22400,1,0
128,128,22650,1,0
128,128,22930,1,0
128,128,23200,1,0
224,192,23590,1,0
320,224,24090,1,0
352,224,24550,1,0
384,160,25020,1,0
384,160,25230,1,0
384,160,25530,1,0
384,256,25950,1,0
352,256,26190,1,0
352,256,26440,1,0
352,256,26660,1,0
352,256,26930,1,0
352,256,27170,1,0
352,256,27390,1,0
320,192,27770,1,0
320,192,28000,1,0
320,192,28260,1,0
320,192,28460,1,0
160,96,29090,1,0
160,96,29300,1,0
192,96,29640,1,0
256,96,30200,1,0
256,96,30390,1,0
256,96,30660,1,0
320,128,31170,1,0
320,128,31410,1,0
320,128,31630,1,0
320,192,32160,1,0
320,192,32420,1,0
320,192,32720,1,0
160,256,33830,1,0
160,192,34220,1,0
288,192,34690,1,0
288,192,34900,1,0
320,192,35160,1,0
320,256,35360,1,0
320,256,35620,1,0
320,256,35830,1,0
192,224,36270,1,0
192,224,36490,1,0
192,192,36730,1,0
224,160,36990,1,0
288,192,37450,1,0
288,192,37700,1,0
288,192,37940,1,0
288,256,38440,1,0
288,256,38660,1,0
256,256,38870,1,0
160,192,39120,1,0
160,192,39330,1,0
192,160,39590,1,0
288,128,40040,1,0
288,160,40240,1,0
288,160,40480,1,0
288,192,40770,1,0
384,192,41210,1,0
384,192,41430,1,0
352,128,41680,1,0
192,160,42160,1,0
192,160,42340,1,0
256,192,42620,1,0
256,192,42850,1,0
288,192,43100,1,0
288,160,43320,1,0
320,192,43810,1,0
320,224,44070,1,0
320,224,44270,1,0
256,224,44530,1,0
224,192,44950,1,0
224,160,45190,1,0
256,128,45420,1,0
320,192,45920,1,0
320,192,46150,1,0
288,192,46370,1,0
256,192,46630,1,0
256,192,46860,1,0
256,160,47100,1,0
256,128,48698,1,0
384,128,49160,1,0
320,256,49621,1,0
224,224,49852,1,0
224,192,50140,1,0
192,128,50371,1,0
192,128,50602,1,0
224,96,50833,1,0
352,128,51352,1,0
320,192,51698,1,0
320,192,51929,1,0
224,192,52390,1,0
224,192,52679,1,0
224,160,52852,1,0
288,160,53429,1,0
352,160,53602,1,0
416,192,53890,1,0
416,224,54121,1,0
384,224,54352,1,0
288,224,54583,1,0
160,128,54986,1,0
160,128,55275,1,0
192,128,55506,1,0
224,128,55736,1,0
288,192,56140,1,0
320,192,56429,1,0
384,224,56660,1,0
448,192,57121,1,0
448,192,57352,1,0
448,224,57583,1,0
416,256,57813,1,0
384,256,58044,1,0
320,224,58275,1,0
224,128,58794,1,0
224,128,59025,1,0
224,160,59256,1,0
224,192,59486,1,0
352,192,59948,1,0
352,192,60179,1,0
352,160,60410,1,0
416,160,60871,1,0
416,192,61102,1,0
384,192,61333,1,0
320,224,61563,1,0
288,192,61794,1,0
224,160,62083,1,0
288,192,63640,1,0
288,128,64102,1,0
288,128,64390,1,0
320,128,64621,1,0
384,192,64910,1,0
384,192,65083,1,0
352,224,65313,1,0
320,192,65544,1,0
256,160,65833,1,0
288,128,66236,1,0
320,128,66525,1,0
352,128,66756,1,0
384,160,66986,1,0
288,192,67448,1,0
288,192,67679,1,0
192,128,67910,1,0
192,128,68198,1,0
256,128,68429,1,0
288,128,68660,1,0
352,128,68948,1,0
352,128,69179,1,0
384,128,69410,1,0
384,192,70044,5,0
384,224,70275,1,0
320,224,70506,1,0
288,224,70679,1,0
192,160,70967,1,0
160,128,71256,1,0
224,128,71429,1,0
256,96,71660,1,0
320,96,71890,1,0
352,128,72179,1,0
384,160,72410,1,0
384,160,72583,1,0
352,160,72813,1,0
288,160,72986,1,0
160,96,73275,1,0
224,256,73794,1,0
288,288,74025,1,0
320,256,74256,1,0
352,224,74486,1,0
352,160,74717,1,0
320,128,74948,1,0
224,96,75179,1,0
192,96,75410,1,0
160,128,75640,1,0
160,128,75871,1,0
160,192,76102,1,0
192,224,76333,1,0
320,256,76563,1,0
320,256,76794,1,0
352,224,77025,1,0
352,128,77544,1,0
192,64,78006,1,0
288,160,78525,1,0
384,224,78986,1,0
192,224,79563,1,0
288,160,80083,1,0
448,224,80602,1,0
224,256,81121,1,0
128,128,81525,1,0
128,128,82160,1,0
160,128,82448,1,0
160,128,82563,1,0
160,128,82736,1,0
160,128,82910,1,0
288,160,83371,1,0
320,224,83890,1,0
256,256,84352,1,0
160,192,84813,1,0
160,128,85275,1,0
256,96,85736,1,0
352,128,86256,1,0
384,192,86660,1,0
352,224,86948,1,0
256,192,87121,1,0
224,192,87352,1,0
128,128,87525,1,0
96,128,87813,1,0
160,160,88275,1,0
224,160,88506,1,0
288,160,88736,1,0
320,160,88967,1,0
352,160,89256,1,0
384,192,89486,1,0
384,224,90583,1,0
352,224,90813,1,0
320,256,91044,1,0
288,256,91275,1,0
256,256,91563,1,0
224,256,91736,1,0
192,224,91967,1,0
192,224,92198,1,0
160,192,92429,1,0
160,160,92717,1,0
224,128,92948,1,0
416,128,94390,1,0
384,128,94621,1,0
352,192,94852,1,0
320,192,95140,1,0
288,224,95371,1,0
256,192,95775,1,0
224,160,95948,1,0
224,160,96236,1,0
224,128,96525,1,0
256,128,96756,1,0
384,160,97448,1,0
320,256,97967,1,0
288,256,98140,1,0
224,224,98429,1,0
192,224,98660,1,0
160,192,98890,1,0
160,160,99121,1,0
192,128,99352,1,0
192,128,99583,1,0
224,128,99813,1,0
288,128,100102,1,0
352,160,100275,1,0
320,256,101948,1,0
352,256,102179,1,0
352,224,102410,1,0
352,192,102583,1,0
352,160,102813,1,0
352,128,103275,1,0
320,128,103506,1,0
288,128,103736,1,0
256,128,103967,1,0
192,128,104198,1,0
192,160,104429,1,0
352,224,104948,1,0
384,128,105756,1,0
288,64,105929,1,0
224,96,106102,1,0
160,96,106333,1,0
160,128,106563,1,0
192,160,106852,1,0
224,192,107083,1,0
256,224,107313,1,0
352,224,107544,1,0
384,224,107775,1,0
384,256,107948,1,0
224,256,109390,1,0
256,256,109679,1,0
256,224,109852,1,0
288,192,110140,1,0
320,192,110371,1,0
352,256,110833,1,0
352,256,111063,1,0
320,288,111294,1,0
256,288,111525,1,0
192,256,111756,1,0
160,128,112448,1,0
320,128,112910,1,0
384,224,113429,1,0
320,256,113660,1,0
256,256,113833,1,0
128,192,114063,1,0
64,160,114294,1,0
64,128,114583,1,0
288,128,115044,1,0
320,128,115275,1,0
352,192,115506,1,0
320,224,115736,1,0
160,224,115967,1,0
128,224,116256,1,0
64,160,116429,1,0
96,128,116717,1,0
288,160,117121,1,0
320,160,117352,1,0
288,224,117583,1,0
256,224,117813,1,0
192,224,118044,1,0
64,160,118275,1,0
192,64,118736,1,0
256,96,118967,1,0
352,128,119198,1,0
384,160,119486,1,0
320,192,119890,1,0
224,192,120121,1,0
128,160,120352,1,0
256,64,120929,5,0
288,96,121160,1,0
352,160,121390,1,0
352,192,121621,1,0
320,192,121794,1,0
224,192,122025,1,0
96,96,122544,1,0
160,96,122775,1,0
256,96,122948,1,0
288,96,123236,1,0
448,192,123756,1,0
416,224,123929,1,0
352,224,124160,1,0
96,128,124621,1,0
128,64,124852,1,0
160,64,125083,1,0
256,64,125313,1,0
320,96,125544,1,0
352,128,125775,1,0
384,288,127448,1,0
352,224,127852,1,0
256,192,128429,1,0
224,192,128602,1,0
192,192,128890,1,0
192,256,129121,1,0
256,256,129352,1,0
320,288,129583,1,0
384,256,130044,1,0
384,224,130217,1,0
384,192,130448,1,0
384,128,130679,1,0
320,64,131140,1,0
256,64,131371,1,0
224,96,131602,1,0
128,96,132121,1,0
96,96,132352,1,0
96,128,132583,1,0
96,128,132813,1,0
160,160,133102,1,0
224,192,133275,1,0
352,192,133794,1,0
352,192,134025,1,0
320,96,134198,1,0
256,64,134486,1,0
160,64,134890,1,0
128,96,135179,1,0
160,128,135410,1,0
384,224,135871,1,0
352,256,136102,1,0
288,224,136333,1,0
224,192,136621,1,0
192,160,136794,1,0
160,96,137140,1,0
320,96,137544,1,0
384,128,137775,1,0
384,160,138006,1,0
384,192,138179,1,0
288,192,138640,1,0
192,128,138813,1,0
160,128,139044,1,0
96,128,139563,1,0
128,192,139852,1,0
224,192,140083,1,0
320,224,140313,1,0
352,160,140544,1,0
288,96,140775,1,0
288,224,142448,1,0
320,160,142679,1,0
320,160,142852,1,0
384,192,143140,1,0
352,224,143429,1,0
320,256,143602,1,0
256,256,143833,1,0
224,224,144006,1,0
160,192,144236,1,0
96,128,144525,1,0
160,96,144986,1,0
224,96,145275,1,0
288,128,145506,1,0
320,128,145794,1,0
320,160,146025,1,0
288,192,146198,1,0
256,192,146429,1,0
224,192,146660,1,0
128,160,146948,1,0
96,160,147179,1,0
96,192,147352,1,0
192,224,147583,1,0
320,256,147813,1,0
352,256,148044,1,0
352,160,148333,1,0
288,96,148794,1,0
224,96,149025,1,0
160,96,149256,1,0
160,128,149486,1,0
256,192,149775,1,0
288,224,150006,1,0
352,224,150236,1,0
384,192,150467,1,0
384,160,150698,1,0
384,128,150871,1,0
288,96,151102,1,0
256,64,151275,1,0
192,64,151506,1,0
160,96,151736,1,0
160,128,151967,1,0
256,192,152198,1,0
320,192,152544,1,0
384,192,152775,1,0
384,160,153006,1,0
352,128,153294,1,0
224,64,153756,1,0
160,64,153986,1,0
128,96,154217,1,0
160,128,154448,1,0
256,160,154679,1,0
288,160,154910,1,0
384,160,155140,1,0
416,96,155775,1,0
384,224,156294,1,0
416,128,156756,1,0
384,192,157217,1,0
256,96,158256,1,0
192,128,158429,1,0
192,160,158660,1,0
224,192,158890,1,0
320,224,159121,1,0
352,192,159352,1,0
352,160,159583,1,0
320,128,159813,1,0
256,96,160044,1,0
192,96,160275,1,0
352,192,161890,1,0
384,224,162121,1,0
352,256,162352,1,0
288,256,162583,1,0
224,192,162756,1,0
128,128,163217,1,0
192,96,163506,1,0
320,96,163967,1,0
352,128,164198,1,0
384,160,164371,1,0
192,96,165640,5,0
256,96,165871,1,0
288,128,166102,1,0
320,128,166333,1,0
352,192,166563,1,0
320,192,166794,1,0
288,224,167025,1,0
224,192,167256,1,0
192,192,167429,1,0
160,128,167717,1,0
384,96,169333,1,0
352,128,169563,1,0
352,224,169852,1,0
288,224,170083,1,0
192,160,170256,1,0
224,128,170833,1,0
256,96,171063,1,0
352,128,171236,1,0
384,160,171467,1,0
384,192,171756,1,0
128,96,173025,1,0
192,96,173256,1,0
256,96,173486,1,0
352,128,173775,1,0
384,160,174063,1,0
384,224,174294,1,0
352,256,174525,1,0
320,288,174756,1,0
288,288,174986,1,0
224,256,175160,1,0
128,64,176948,1,0
224,96,177121,1,0
288,128,177352,1,0
352,192,177583,1,0
416,256,177813,1,0
192,256,178333,1,0
128,224,178563,1,0
64,192,178794,1,0
32,160,179025,1,0
32,96,179256,1,0
224,128,179486,1,0
384,160,180640,1,0
384,224,180813,1,0
320,288,181044,1,0
320,288,181275,1,0
256,288,181506,1,0
224,256,181736,1,0
160,192,181967,1,0
160,160,182198,1,0
160,96,182486,1,0
224,96,182775,1,0
448,128,182948,1,0
352,256,184390,1,0
320,256,184621,1,0
256,192,184852,1,0
224,160,185083,1,0
256,96,185313,1,0
448,160,185833,1,0
416,256,186294,1,0
352,224,186525,1,0
256,192,186813,1,0
224,128,187448,1,0
416,128,187910,1,0
288,224,188429,1,0
224,192,188660,1,0
192,160,188833,1,0
160,96,189121,1,0
192,96,189352,1,0
288,96,189583,1,0
512,192,190275,1,0
480,192,190506,1,0
416,224,190736,1,0
224,160,191198,1,0
192,160,191429,1,0
160,160,191602,1,0
224,256,192121,1,0
288,256,192352,1,0
384,256,192583,1,0
384,192,192813,1,0
384,160,193044,1,0
288,96,193275,1,0
160,160,193910,1,0
160,160,194025,1,0
256,224,194313,1,0
352,224,194544,1,0
384,160,195006,1,0
320,96,195179,1,0
288,96,195352,1,0
224,96,195583,1,0
224,128,195929,1,0
256,160,196160,1,0
288,192,196390,1,0
352,192,196563,1,0
384,160,196736,1,0
352,128,197025,1,0
224,64,197198,1,0
224,96,197602,1,0
256,128,197775,1,0
320,160,198006,1,0
384,160,198236,1,0
384,96,198698,1,0
384,64,198929,1,0
448,128,199160,1,0
416,224,199621,1,0
384,224,199794,1,0
288,224,200025,1,0
256,192,200198,1,0
224,128,200429,1,0
320,96,200948,1,0
192,96,202448,5,0
288,192,202910,1,0
128,224,203371,1,0
96,160,203602,1,0
96,96,203833,1,0
128,64,204063,1,0
192,64,204352,1,0
256,96,204583,1,0
320,160,205044,1,0
320,224,205275,1,0
256,224,205506,1,0
160,192,205679,1,0
64,128,206198,1,0
96,96,206371,1,0
256,96,206602,1,0
416,96,207121,1,0
416,160,207352,1,0
384,224,207583,1,0
256,192,207813,1,0
192,192,207986,1,0
160,128,208217,1,0
96,96,208448,1,0
128,128,208852,1,0
224,128,209083,1,0
320,128,209313,1,0
384,128,209544,1,0
384,256,209948,1,0
352,288,210179,1,0
256,256,210352,1,0
160,160,210871,1,0
160,128,211044,1,0
224,96,211275,1,0
320,96,211506,1,0
352,128,211736,1,0
384,160,211967,1,0
224,192,212486,1,0
224,192,212717,1,0
288,256,213006,1,0
384,256,213179,1,0
384,96,213698,1,0
224,64,213986,1,0
192,128,214679,1,0
192,160,214852,1,0
320,192,215083,1,0
320,192,215313,1,0
256,224,215544,1,0
192,224,215775,1,0
