osu file format v14

[General]
AudioFilename: Ilonka Obilinovic - Masayume Chasing.mp3
AudioLeadIn: 0
PreviewTime: 44850
Countdown: 0
SampleSet: Normal
StackLeniency: 0.3
Mode: 1
LetterboxInBreaks: 0
WidescreenStoryboard: 0

[Editor]
Bookmarks: 2556,84211
DistanceSpacing: 1.2
BeatDivisor: 4
GridSize: 32
TimelineZoom: 1.1

[Metadata]
Title:Masayume Chasing
TitleUnicode:Masayume Chasing
Artist:Ilonka Obilinovic
ArtistUnicode:Ilonka Obilinovic
Creator:Gero
Version:Muzukashii
Source:FAIRY TAIL
Tags:ilonqueen フェアリーテイル (Fairy Tail) BoA 보아 正夢 まさゆめ Chasing Graspable Dreams Dream That Comes True Persiguiendo Sueños いしわたり 淳治 Junji Ishiwatari STEVEN LEE Caroline Gustavsson WHO'S BACK? Back? Opening 15 Sayonara J-Pop TV Size Version Short ♥ Cover Español Latino Americano Latin DakeDekaane Hanjamon
BeatmapID:697275
BeatmapSetID:312347

[Difficulty]
HPDrainRate:5
CircleSize:4
OverallDifficulty:5
ApproachRate:10
SliderMultiplier:1.4
SliderTickRate:2

[Events]
//Background and Video events
0,0,"BG.jpg",0,70
//Break Periods
//Storyboard Layer 0 (Background)
//Storyboard Layer 1 (Fail)
//Storyboard Layer 2 (Pass)
//Storyboard Layer 3 (Foreground)
//Storyboard Sound Samples

[TimingPoints]
2557,451.127819548872,4,1,0,70,1,0
45865,-100,4,1,0,70,0,1
74737,-100,4,1,0,70,0,0

[Colours]
Combo1 : 160,130,196
Combo2 : 228,201,107
Combo3 : 230,115,135
Combo4 : 204,159,111

[HitObjects]
256,192,2556,5,8,0:0:0:0:
256,192,3233,1,0,0:0:0:0:
256,192,3459,1,8,0:0:0:0:
256,192,4361,1,8,0:0:0:0:
256,192,5038,1,0,0:0:0:0:
256,192,5263,1,8,0:0:0:0:
256,192,6166,1,8,0:0:0:0:
256,192,6842,1,0,0:0:0:0:
256,192,7068,1,8,0:0:0:0:
256,192,7970,1,8,0:0:0:0:
256,192,8647,1,0,0:0:0:0:
256,192,8872,1,8,0:0:0:0:
256,192,9775,1,8,0:0:0:0:
256,192,10226,1,0,0:0:0:0:
256,192,10451,1,0,0:0:0:0:
256,192,10677,1,8,0:0:0:0:
256,192,11579,1,8,0:0:0:0:
256,192,12030,1,0,0:0:0:0:
256,192,12256,1,0,0:0:0:0:
256,192,12481,1,8,0:0:0:0:
256,192,13384,1,8,0:0:0:0:
256,192,13835,1,0,0:0:0:0:
256,192,14060,1,0,0:0:0:0:
256,192,14286,1,8,0:0:0:0:
256,192,15188,1,0,0:0:0:0:
256,192,15414,1,8,0:0:0:0:
256,192,15526,1,8,0:0:0:0:
256,192,15639,1,8,0:0:0:0:
256,192,15865,1,8,0:0:0:0:
256,192,16090,1,0,0:0:0:0:
256,192,16541,1,8,0:0:0:0:
256,192,16767,1,8,0:0:0:0:
256,192,16993,1,0,0:0:0:0:
256,192,17444,1,8,0:0:0:0:
256,192,17895,1,0,0:0:0:0:
256,192,18346,1,8,0:0:0:0:
256,192,18572,1,8,0:0:0:0:
256,192,18797,1,0,0:0:0:0:
256,192,19248,1,8,0:0:0:0:
256,192,19699,1,0,0:0:0:0:
256,192,19925,1,0,0:0:0:0:
256,192,20150,1,8,0:0:0:0:
256,192,20376,1,8,0:0:0:0:
256,192,20602,1,0,0:0:0:0:
256,192,21053,1,0,0:0:0:0:
256,192,21504,1,8,0:0:0:0:
256,192,21729,1,8,0:0:0:0:
256,192,21955,1,0,0:0:0:0:
256,192,22406,1,0,0:0:0:0:
256,192,23308,1,0,0:0:0:0:
256,192,23760,1,0,0:0:0:0:
256,192,24211,1,4,0:0:0:0:
256,192,24662,1,8,0:0:0:0:
256,192,25113,1,0,0:0:0:0:
256,192,25564,1,0,0:0:0:0:
256,192,25790,1,8,0:0:0:0:
256,192,26015,1,0,0:0:0:0:
256,192,26466,1,8,0:0:0:0:
256,192,26692,1,8,0:0:0:0:
256,192,26917,1,0,0:0:0:0:
256,192,27369,1,8,0:0:0:0:
256,192,27820,1,0,0:0:0:0:
256,192,28045,1,0,0:0:0:0:
256,192,28271,1,8,0:0:0:0:
256,192,28496,1,8,0:0:0:0:
256,192,28722,1,0,0:0:0:0:
256,192,29173,1,8,0:0:0:0:
256,192,29624,1,0,0:0:0:0:
256,192,29850,1,8,0:0:0:0:
257,192,29963,1,8,0:0:0:0:
256,192,30075,1,8,0:0:0:0:
256,192,30301,1,8,0:0:0:0:
256,192,30526,1,0,0:0:0:0:
255,192,30978,1,8,0:0:0:0:
256,192,31203,1,8,0:0:0:0:
256,192,31429,1,4,0:0:0:0:
256,192,31880,1,8,0:0:0:0:
256,192,32331,1,0,0:0:0:0:
256,192,32782,1,8,0:0:0:0:
256,192,33008,1,8,0:0:0:0:
256,192,33233,1,0,0:0:0:0:
256,192,33684,1,8,0:0:0:0:
256,192,34135,1,0,0:0:0:0:
256,192,35038,1,0,0:0:0:0:
256,192,35489,1,8,0:0:0:0:
256,192,35714,1,0,0:0:0:0:
256,192,35940,1,8,0:0:0:0:
256,192,36391,1,8,0:0:0:0:
256,192,36617,1,0,0:0:0:0:
256,192,37068,1,0,0:0:0:0:
256,192,37293,1,8,0:0:0:0:
256,192,37519,1,0,0:0:0:0:
256,192,37970,1,0,0:0:0:0:
256,192,38196,1,8,0:0:0:0:
256,192,38421,1,8,0:0:0:0:
256,192,38647,1,0,0:0:0:0:
256,192,39098,1,8,0:0:0:0:
256,192,39549,1,0,0:0:0:0:
256,192,40000,1,8,0:0:0:0:
256,192,40226,1,8,0:0:0:0:
256,192,40451,1,0,0:0:0:0:
256,192,40902,1,0,0:0:0:0:
256,192,41353,1,0,0:0:0:0:
256,192,41805,1,0,0:0:0:0:
256,192,42030,1,8,0:0:0:0:
256,192,42256,1,0,0:0:0:0:
256,192,42932,1,0,0:0:0:0:
256,192,44060,1,0,0:0:0:0:
256,192,44286,1,8,0:0:0:0:
256,192,44399,1,8,0:0:0:0:
256,192,44511,1,8,0:0:0:0:
256,192,44737,1,8,0:0:0:0:
256,192,44963,1,0,0:0:0:0:
256,192,45414,1,8,0:0:0:0:
256,192,45639,1,8,0:0:0:0:
256,192,45865,1,4,0:0:0:0:
256,192,46316,1,4,0:0:0:0:
256,192,46767,1,4,0:0:0:0:
256,192,47218,1,4,0:0:0:0:
256,192,47444,1,0,0:0:0:0:
256,192,47556,1,0,0:0:0:0:
256,192,47669,1,0,0:0:0:0:
256,192,47895,1,8,0:0:0:0:
256,192,48120,1,0,0:0:0:0:
256,192,48572,1,0,0:0:0:0:
256,192,49474,1,0,0:0:0:0:
256,192,49925,1,0,0:0:0:0:
256,192,50150,1,8,0:0:0:0:
256,192,50263,1,8,0:0:0:0:
256,192,50376,1,8,0:0:0:0:
256,192,50602,1,8,0:0:0:0:
256,192,50827,1,0,0:0:0:0:
256,192,51053,1,12,0:0:0:0:
256,192,51504,1,12,0:0:0:0:
256,192,51955,1,12,0:0:0:0:
256,192,52632,1,0,0:0:0:0:
256,192,52857,1,8,0:0:0:0:
256,192,53083,1,4,0:0:0:0:
256,192,53534,1,0,0:0:0:0:
256,192,53985,1,8,0:0:0:0:
256,192,54436,1,8,0:0:0:0:
256,192,54662,1,0,0:0:0:0:
256,192,54775,1,0,0:0:0:0:
256,192,54887,1,0,0:0:0:0:
256,192,55113,1,8,0:0:0:0:
256,192,55338,1,0,0:0:0:0:
256,192,55790,1,8,0:0:0:0:
256,192,56692,1,0,0:0:0:0:
256,192,56917,1,8,0:0:0:0:
256,192,57030,1,8,0:0:0:0:
256,192,57143,1,8,0:0:0:0:
256,192,57369,1,8,0:0:0:0:
256,192,57820,1,8,0:0:0:0:
256,192,58271,1,8,0:0:0:0:
256,192,58496,1,0,0:0:0:0:
256,192,58722,1,8,0:0:0:0:
256,192,58947,1,8,0:0:0:0:
256,192,59173,1,0,0:0:0:0:
256,192,59624,1,8,0:0:0:0:
256,192,59850,1,8,0:0:0:0:
256,192,59963,1,8,0:0:0:0:
256,192,60075,1,8,0:0:0:0:
256,192,60301,1,4,0:0:0:0:
256,192,60752,1,0,0:0:0:0:
256,192,61203,1,8,0:0:0:0:
256,192,61429,1,8,0:0:0:0:
256,192,61654,1,0,0:0:0:0:
256,192,62105,1,0,0:0:0:0:
256,192,63007,1,8,0:0:0:0:
256,192,63458,1,8,0:0:0:0:
256,192,63910,1,0,0:0:0:0:
256,192,64361,1,0,0:0:0:0:
256,192,64812,1,8,0:0:0:0:
256,192,65038,1,8,0:0:0:0:
256,192,65263,1,0,0:0:0:0:
256,192,65714,1,8,0:0:0:0:
256,192,65940,1,0,0:0:0:0:
256,192,66166,1,0,0:0:0:0:
256,192,66391,1,8,0:0:0:0:
256,192,66842,1,0,0:0:0:0:
256,192,67068,1,8,0:0:0:0:
256,192,67519,1,4,0:0:0:0:
256,192,67970,1,0,0:0:0:0:
256,192,68421,1,8,0:0:0:0:
256,192,68647,1,8,0:0:0:0:
256,192,68872,1,0,0:0:0:0:
256,192,69323,1,0,0:0:0:0:
256,192,70225,1,8,0:0:0:0:
256,192,70676,1,8,0:0:0:0:
256,192,71128,1,0,0:0:0:0:
256,192,71579,1,8,0:0:0:0:
256,192,72030,1,0,0:0:0:0:
256,192,72256,1,0,0:0:0:0:
256,192,72481,1,8,0:0:0:0:
256,192,72932,1,0,0:0:0:0:
256,192,73384,1,0,0:0:0:0:
256,192,73609,1,8,0:0:0:0:
256,192,74060,1,8,0:0:0:0:
256,192,74286,1,8,0:0:0:0:
256,192,74737,1,0,0:0:0:0:
256,192,75414,1,8,0:0:0:0:
256,192,76541,1,0,0:0:0:0:
255,192,77218,1,8,0:0:0:0:
256,192,78346,1,0,0:0:0:0:
256,192,79023,1,8,0:0:0:0:
256,192,80150,1,0,0:0:0:0:
256,192,80827,1,8,0:0:0:0:
256,192,81955,1,0,0:0:0:0:
256,192,82068,12,0,84211,0:0:0:0:
