osu file format v14

[General]
AudioFilename: Ilonka Obilinovic - Masayume Chasing.mp3
AudioLeadIn: 0
PreviewTime: 44850
Countdown: 0
SampleSet: Normal
StackLeniency: 0.3
Mode: 1
LetterboxInBreaks: 0
WidescreenStoryboard: 0

[Editor]
Bookmarks: 2556,74737
DistanceSpacing: 1.2
BeatDivisor: 4
GridSize: 32
TimelineZoom: 1.1

[Metadata]
Title:Masayume Chasing
TitleUnicode:Masayume Chasing
Artist:Ilonka Obilinovic
ArtistUnicode:Ilonka Obilinovic
Creator:Gero
Version:Dekaane's Kantan
Source:FAIRY TAIL
Tags:ilonqueen フェアリーテイル (Fairy Tail) BoA 보아 正夢 まさゆめ Chasing Graspable Dreams Dream That Comes True Persiguiendo Sueños いしわたり 淳治 Junji Ishiwatari STEVEN LEE Caroline Gustavsson WHO'S BACK? Back? Opening 15 Sayonara J-Pop TV Size Version Short ♥ Cover Español Latino Americano Latin DakeDekaane Hanjamon
BeatmapID:699476
BeatmapSetID:312347

[Difficulty]
HPDrainRate:5
CircleSize:4
OverallDifficulty:4
ApproachRate:10
SliderMultiplier:1.4
SliderTickRate:2

[Events]
//Background and Video events
0,0,"BG.jpg",0,70
//Break Periods
//Storyboard Layer 0 (Background)
//Storyboard Layer 1 (Fail)
//Storyboard Layer 2 (Pass)
//Storyboard Layer 3 (Foreground)
//Storyboard Sound Samples

[TimingPoints]
2557,451.127819548872,4,1,0,70,1,0
45865,-100,4,1,0,70,0,1
74737,-100,4,1,0,70,0,0

[Colours]
Combo1 : 160,130,196
Combo2 : 228,201,107
Combo3 : 230,115,135
Combo4 : 204,159,111

[HitObjects]
256,192,2556,5,0,0:0:0:0:
256,192,6166,1,0,0:0:0:0:
256,192,9775,1,0,0:0:0:0:
256,192,11579,1,0,0:0:0:0:
256,192,13384,1,0,0:0:0:0:
256,192,15188,1,0,0:0:0:0:
256,192,16993,1,0,0:0:0:0:
256,192,17895,1,0,0:0:0:0:
256,192,18797,1,0,0:0:0:0:
256,192,19248,1,0,0:0:0:0:
256,192,19699,1,0,0:0:0:0:
256,192,20602,1,0,0:0:0:0:
256,192,21504,1,0,0:0:0:0:
256,192,22406,1,8,0:0:0:0:
256,192,24211,1,0,0:0:0:0:
256,192,25113,1,0,0:0:0:0:
256,192,26015,1,0,0:0:0:0:
256,192,26466,1,0,0:0:0:0:
256,192,26917,1,0,0:0:0:0:
256,192,27820,1,0,0:0:0:0:
256,192,28722,1,0,0:0:0:0:
256,192,29624,1,8,0:0:0:0:
256,192,31429,1,0,0:0:0:0:
256,192,31880,1,0,0:0:0:0:
256,192,32331,1,0,0:0:0:0:
256,192,33233,1,8,0:0:0:0:
256,192,35038,1,0,0:0:0:0:
256,192,35940,1,0,0:0:0:0:
256,192,36842,1,0,0:0:0:0:
256,192,37293,1,0,0:0:0:0:
256,192,37744,1,0,0:0:0:0:
256,192,38647,1,0,0:0:0:0:
256,192,39098,1,0,0:0:0:0:
256,192,39549,1,0,0:0:0:0:
256,192,40451,1,8,0:0:0:0:
256,192,42256,1,4,0:0:0:0:
256,192,45865,1,4,0:0:0:0:
256,192,46767,1,4,0:0:0:0:
256,192,47669,1,12,0:0:0:0:
256,192,48120,1,12,0:0:0:0:
256,192,48572,1,12,0:0:0:0:
256,192,49474,1,0,0:0:0:0:
256,192,50376,1,0,0:0:0:0:
256,192,51278,1,8,0:0:0:0:
256,192,51729,1,8,0:0:0:0:
256,192,52181,1,8,0:0:0:0:
256,192,53083,1,4,0:0:0:0:
256,192,53985,1,4,0:0:0:0:
256,192,54887,1,12,0:0:0:0:
256,192,55338,1,12,0:0:0:0:
256,192,55790,1,12,0:0:0:0:
256,192,56692,1,0,0:0:0:0:
256,192,57594,1,0,0:0:0:0:
256,192,58496,2,0,B|512:192|512:192|512:0|512:0,1,420
256,192,60301,1,4,0:0:0:0:
256,192,61654,1,8,0:0:0:0:
256,192,62105,1,0,0:0:0:0:
256,192,63008,1,8,0:0:0:0:
256,192,63459,1,8,0:0:0:0:
256,192,63910,1,0,0:0:0:0:
256,192,65263,1,8,0:0:0:0:
256,192,65714,2,0,B|512:192|512:192|512:0|512:0,1,420
256,192,67519,1,0,0:0:0:0:
256,192,68872,1,8,0:0:0:0:
256,192,69323,1,0,0:0:0:0:
256,192,70226,1,8,0:0:0:0:
256,192,70677,1,8,0:0:0:0:
256,192,71128,1,0,0:0:0:0:
256,192,71579,1,8,0:0:0:0:
256,192,72481,1,8,0:0:0:0:
256,192,72932,2,0,B|512:192|512:192|512:0|512:0,1,420
256,192,74737,1,4,0:0:0:0:
