osu file format v9

[General]
AudioFilename: Gold Streams.mp3
AudioLeadIn: 1015
PreviewTime: 57812
Countdown: 1
SampleSet: Soft
StackLeniency: 0.2
Mode: 0
LetterboxInBreaks: 1

[Editor]
DistanceSpacing: 1.1
BeatDivisor: 4
GridSize: 8

[Metadata]
Title:Gold Streams (Feat. Thomas Azier)
Artist:Ill Skillz
Creator:fartownik
Version:Hard
Source:
Tags:dubstep dnb drum n bass drumnbass

[Difficulty]
HPDrainRate:6
CircleSize:4
OverallDifficulty:6
ApproachRate:6
SliderMultiplier:1.4
SliderTickRate:1

[Events]
//Background and Video events
0,0,"goldbokeh.jpg"
//Break Periods
//Storyboard Layer 0 (Background)
//Storyboard Layer 1 (Fail)
//Storyboard Layer 2 (Pass)
//Storyboard Layer 3 (Foreground)
//Storyboard Sound Samples
//Background Colour Transformations
3,100,163,162,255

[TimingPoints]
-473,428.571428571429,4,2,1,66,1,0
1991,-100,4,1,2,66,0,0
2205,-100,4,2,1,66,0,0
3705,-100,4,1,2,66,0,0
3919,-100,4,2,1,66,0,0
5419,-100,4,1,2,66,0,0
5634,-100,4,2,1,66,0,0
7134,-100,4,1,2,66,0,0
7348,-100,4,2,1,66,0,0
8848,-100,4,1,2,66,0,0
9062,-100,4,2,1,66,0,0
10562,-100,4,1,2,66,0,0
10777,-100,4,2,1,66,0,0
12277,-100,4,1,2,66,0,0
12491,-100,4,2,1,66,0,0
13991,-100,4,1,2,66,0,0
14205,-100,4,2,1,66,0,0
14848,-133.333333333333,4,2,1,66,0,0
15491,-100,4,2,1,66,0,0
15705,-100,4,1,2,66,0,0
15919,-100,4,2,1,66,0,0
17419,-100,4,1,2,66,0,0
17634,-100,4,2,1,66,0,0
18277,-133.333333333333,4,2,1,66,0,0
19134,-100,4,1,2,66,0,0
19348,-100,4,2,1,66,0,0
19991,-133.333333333333,4,2,1,66,0,0
20848,-133.333333333333,4,1,2,66,0,0
21062,-133.333333333333,4,2,1,66,0,0
22348,-100,4,2,1,66,0,0
22562,-100,4,1,2,66,0,0
22777,-100,4,2,1,66,0,0
24277,-100,4,1,2,66,0,0
24491,-100,4,2,1,66,0,0
25991,-100,4,1,2,66,0,0
26205,-100,4,2,1,66,0,0
28562,-133.333333333333,4,2,1,66,0,0
29419,-133.333333333333,4,1,2,66,0,0
29634,-133.333333333333,4,2,1,66,0,0
31134,-100,4,1,2,66,0,0
31348,-100,4,2,1,66,0,0
32848,-133.333333333333,4,2,1,66,0,0
33705,-100,4,2,1,66,0,0
34616,-100,4,1,2,66,0,0
34723,-100,4,2,1,66,0,0
35419,-133.333333333333,4,2,1,66,0,0
36277,-133.333333333333,4,1,2,66,0,0
36491,-133.333333333333,4,2,1,66,0,0
37991,-100,4,1,2,66,0,0
38205,-100,4,2,1,66,0,0
39705,-100,4,1,2,66,0,0
39919,-100,4,2,1,66,0,0
41473,-100,4,1,2,66,0,0
41580,-100,4,2,1,66,0,0
42277,-133.333333333333,4,2,1,66,0,0
43134,-133.333333333333,4,1,2,66,0,0
43348,-133.333333333333,4,2,1,66,0,0
44848,-100,4,1,2,66,0,0
45062,-100,4,2,1,66,0,0
46562,-133.333333333333,4,1,2,66,0,0
46777,-133.333333333333,4,2,1,66,0,0
47419,-133.333333333333,4,2,1,66,0,0
48330,-133.333333333333,4,1,2,66,0,0
48491,-133.333333333333,4,2,1,66,0,0
49241,-133.333333333333,4,2,1,66,0,0
49991,-133.333333333333,4,1,2,66,0,0
50205,-133.333333333333,4,2,1,66,0,0
51705,-133.333333333333,4,1,2,66,0,0
51919,-100,4,2,1,66,0,0
53419,-100,4,1,2,66,0,0
53634,-100,4,2,1,66,0,0
54277,-200,4,2,1,66,0,0
58616,-100,4,1,2,66,0,0
59044,-200,4,1,2,66,0,0
59419,-100,4,1,2,66,0,0
59527,-100,4,2,1,66,0,1
59794,-100,4,2,1,5,0,1
59887,-100,4,2,1,66,0,1
60009,-100,4,2,1,5,0,1
60102,-100,4,2,1,66,0,1
60209,-100,4,2,1,5,0,1
60262,-100,4,1,2,66,0,1
60423,-100,4,2,1,66,0,1
62030,-200,4,1,2,66,0,1
62619,-100,4,2,1,66,0,1
63690,-100,4,1,2,66,0,1
63904,-100,4,2,1,66,0,1
65404,-200,4,1,2,66,0,1
65832,-200,4,1,2,66,0,1
66314,-100,4,2,1,66,0,1
66652,-100,4,2,1,5,0,1
66759,-100,4,2,1,66,0,1
66866,-100,4,2,1,5,0,1
66973,-100,4,2,1,66,0,1
67080,-100,4,2,1,5,0,1
67118,-100,4,1,2,66,0,1
67279,-100,4,2,1,66,0,1
68832,-100,4,1,2,66,0,1
69689,-100,4,2,1,66,0,1
70546,-100,4,1,2,66,0,1
70724,-100,4,2,1,66,0,1
72260,-100,4,1,2,66,0,1
73116,-100,4,2,1,66,0,1
73331,-100,4,2,1,66,0,1
73509,-100,4,2,1,5,0,1
73562,-100,4,2,1,66,0,1
73723,-100,4,2,1,5,0,1
73777,-100,4,2,1,66,0,1
73937,-100,4,2,1,5,0,1
73973,-100,4,1,2,66,0,1
74134,-100,4,2,1,66,0,1
75741,-100,4,1,2,66,0,1
76348,-100,4,2,1,66,0,1
77470,-100,4,1,2,66,0,1
77580,-100,4,2,1,66,0,1
79134,-100,4,1,2,66,0,1
79562,-200,4,1,2,66,0,1
79991,-100,4,2,1,66,0,1
80366,-100,4,2,1,5,0,1
80419,-100,4,2,1,66,0,1
80580,-100,4,2,1,5,0,1
80687,-100,4,2,1,66,0,1
80794,-100,4,2,1,5,0,1
80848,-100,4,1,2,66,0,1
81009,-100,4,2,1,66,0,1
82616,-100,4,1,2,66,0,1
83205,-100,4,2,1,66,0,1
84277,-100,4,1,2,66,0,1
84437,-100,4,2,1,66,0,1
85241,-100,4,2,1,66,0,0
85884,-200,4,2,1,66,0,0
86312,-100,4,2,1,66,0,0
94588,-100,4,1,2,66,0,0
94802,-100,4,2,1,66,0,0
96302,-100,4,2,1,66,0,0
96302,-100,4,1,2,66,0,0
96516,-100,4,2,1,66,0,0
98016,-100,4,1,2,66,0,0
98230,-100,4,2,1,66,0,0
99784,-100,4,1,2,66,0,0
99891,-100,4,2,1,66,0,0
100588,-133.333333333333,4,2,1,66,0,0
101445,-133.333333333333,4,1,2,66,0,0
101659,-133.333333333333,4,2,1,66,0,0
103159,-100,4,1,2,66,0,0
103373,-100,4,2,1,66,0,0
104873,-133.333333333333,4,1,2,66,0,0
105088,-100,4,2,1,66,0,0
106641,-100,4,1,2,66,0,0
106748,-100,4,2,1,66,0,0
107445,-133.333333333333,4,2,1,66,0,0
108302,-133.333333333333,4,1,2,66,0,0
108516,-133.333333333333,4,2,1,66,0,0
110016,-100,4,2,1,66,0,0
111730,-100,4,2,1,66,0,0
111945,-100,4,2,1,66,0,0
113445,-100,4,1,2,66,0,0
113659,-100,4,2,1,66,0,0
116927,-100,4,1,2,66,0,0
117302,-200,4,1,2,66,0,0
117730,-100,4,2,1,66,0,0
117838,-100,4,2,1,66,0,1
118105,-100,4,2,1,5,0,1
118213,-100,4,2,1,66,0,1
118320,-100,4,2,1,5,0,1
118373,-100,4,2,1,66,0,1
118534,-100,4,2,1,5,0,1
118588,-100,4,1,2,66,0,1
118588,-100,4,2,1,66,0,1
118748,-100,4,2,1,66,0,1
120302,-100,4,1,2,66,0,1
120945,-100,4,2,1,66,0,1
121909,-100,4,1,2,66,0,1
122177,-100,4,2,1,66,0,1
123730,-100,4,1,2,66,0,1
124159,-200,4,1,2,66,0,1
124588,-100,4,2,1,66,0,1
124963,-100,4,2,1,5,0,1
125070,-100,4,2,1,66,0,1
125177,-100,4,2,1,5,0,1
125230,-100,4,2,1,66,0,1
125391,-100,4,2,1,5,0,1
125445,-100,4,1,2,66,0,1
125605,-100,4,2,1,66,0,1
127159,-100,4,1,2,66,0,1
127802,-100,4,2,1,66,0,1
128873,-100,4,1,2,66,0,1
129034,-100,4,2,1,66,0,1
130588,-100,4,1,2,66,0,1
131445,-100,4,2,1,66,0,1
131820,-100,4,2,1,5,0,1
131927,-100,4,2,1,66,0,1
132034,-100,4,2,1,5,0,1
132141,-100,4,2,1,66,0,1
132302,-100,4,2,1,5,0,1
132355,-100,4,1,2,66,0,1
132463,-100,4,2,1,66,0,1
134070,-100,4,1,2,66,0,1
134659,-100,4,2,1,66,0,1
135623,-100,4,1,2,66,0,1
135891,-100,4,2,1,66,0,1
137445,-100,4,1,2,66,0,1
137873,-200,4,1,2,66,0,1
138302,-100,4,2,1,66,0,1
139159,-200,4,1,2,66,0,1
139320,-100,4,2,1,66,0,1
140927,-100,4,1,2,66,0,1
141570,-100,4,2,1,66,0,1
141677,-100,4,2,1,66,0,1
144730,-100,4,1,2,66,0,1
145266,-100,4,1,2,66,0,0

[Colours]
Combo1 : 255,0,204
Combo2 : 0,200,194
Combo3 : 4,36,255
Combo4 : 239,255,43

[HitObjects]
128,56,1241,2,0,B|88:56|56:72,1,70,8|0
104,128,1669,2,0,B|104:168|120:200,1,70
176,152,2098,2,0,B|216:152|248:136,1,70,8|0
257,132,2419,1,0
267,125,2527,1,0
304,56,2741,1,8
384,56,2955,6,0,B|424:56|456:72,1,70,8|0
408,128,3383,2,0,B|408:168|392:200,1,70
336,152,3812,2,0,B|296:152|264:136,1,70,8|0
328,224,4241,1,0
392,272,4455,6,0,B|428:287|464:285,1,70,8|8
312,320,5098,1,0
208,208,5527,1,8
184,136,5741,2,0,B|176:96,2,35
136,192,6169,6,0,B|99:207|63:205,1,70,8|8
408,112,7027,2,0,B|444:127|480:125,1,70,8|8
368,40,7455,1,0
328,104,7669,1,0
352,176,7884,1,8
424,192,8098,6,0,B|440:264,1,70,8|0
360,248,8527,2,0,B|376:320,1,70
296,304,8955,2,0,B|312:376,1,70,8|0
311,372,9277,1,0
311,372,9384,1,0
256,320,9598,1,8
200,372,9813,6,0,B|216:304,1,70,8|0
136,316,10241,2,0,B|152:248,1,70
72,260,10670,2,0,B|88:192,1,70,8|0
64,120,11098,1,0
112,56,11312,6,0,B|136:32|176:24,1,70,8|8
320,64,11955,1,0
344,216,12384,1,8
320,288,12598,2,0,B|304:328,2,35
392,280,13027,6,0,B|416:304|456:312,1,70,8|8
112,192,13884,2,0,B|88:216|48:224,1,70,8|8
128,120,14312,1,0
184,168,14527,1,0
168,240,14741,1,8
216,296,14955,6,0,B|248:344|312:336,1,104.999996870756,4|0
384,328,15598,1,0
312,304,15812,1,8
392,296,16027,1,0
320,272,16241,1,0
400,264,16455,1,0
328,240,16669,6,0,B|256:208|184:240,1,140,8|0
219,88,17527,2,0,B|256:95|291:88,1,70,8|0
303,87,17848,1,0
316,83,17955,1,0
376,32,18169,1,8
432,88,18384,6,0,B|456:144|432:192,1,104.999996870756,8|0
352,184,19027,1,0
424,216,19241,1,8
336,216,19455,1,0
408,248,19669,1,0
320,248,19884,1,0
392,280,20098,6,0,B|448:296|464:360,1,104.999996870756,8|0
352,216,20955,2,0,B|368:160|432:144,1,104.999996870756,8|0
320,280,21598,1,8
320,280,21812,6,0,B|240:248|240:152,1,157.499995306134,8|0
280,88,22669,1,8
216,128,22884,1,0
256,64,23098,1,0
192,104,23312,1,0
232,40,23527,6,0,B|272:-24|360:-24,1,140,8|0
160,40,24384,1,8
120,104,24598,1,0
144,176,24812,1,0
224,184,25027,1,8
176,248,25241,6,0,B|152:272|144:312,1,70,8|0
336,248,25669,2,0,B|360:272|368:312,1,70,8|0
256,240,26098,1,8
304,176,26312,1,0
384,184,26527,1,0
416,256,26741,1,0
336,248,26955,5,6
336,248,27384,5,2
336,248,27812,5,10
256,224,28027,1,10
176,248,28241,1,2
96,224,28455,1,10
156,168,28669,6,0,B|220:120|216:24,1,157.499995306134,12|0
296,32,29527,2,0,B|376:48,2,78.7499976530672,8|0|0
296,112,30384,2,0,B|341:179,2,78.7499976530672,8|0|0
216,112,31241,1,8
144,128,31455,1,0
216,144,31669,1,0
144,160,31884,1,8
216,176,32098,6,0,B|288:192,1,70,0|8
144,192,32527,2,0,B|72:208,1,70,0|8
192,256,32955,6,0,B|200:296|232:328,2,78.7499976530672,8|0|0
256,208,33812,5,6
256,208,34241,5,6
256,208,34669,5,10
328,184,34884,1,2
400,208,35098,1,2
472,184,35312,1,2
456,256,35527,6,0,B|432:336|344:360,1,157.499995306134,12|0
304,256,36384,2,0,B|280:336,2,78.7499976530672,8|0|0
208,256,37241,2,0,B|232:336,2,78.7499976530672,8|0|0
136,288,38098,1,8
88,232,38312,1,0
104,160,38527,6,0,B|104:128|120:88,2,70,8|8|8
184,24,39384,1,8
328,24,39812,1,8
400,48,40027,1,0
320,56,40241,1,0
392,88,40455,6,0,B|464:120|472:200,1,140,8|2
448,272,41098,6,0,B|240:304,1,210,6|2
168,280,41955,2,0,B|144:248|144:208,1,70,6|0
176,64,42384,6,0,B|232:128|224:216,1,157.499995306134,12|0
144,152,43241,2,0,B|64:144,2,78.7499976530672,8|0|0
144,232,44098,2,0,B|64:240,2,78.7499976530672,8|0|0
208,184,44955,1,8
264,240,45169,1,0
240,312,45384,1,0
160,304,45598,1,8
144,232,45812,6,0,B|80:200,1,70,0|8
208,184,46241,2,0,B|208:112,1,70,0|8
264,240,46669,2,0,B|312:240|352:216,2,78.7499976530672,8|0|0
408,272,47527,5,6
408,272,47955,5,6
408,272,48384,5,10
440,200,48598,1,2
408,128,48812,1,2
432,56,49027,1,2
352,72,49241,6,0,B|280:104|192:96,1,157.499995306134,12|0
144,32,50098,2,0,B|56:24,2,78.7499976530672,8|0|0
40,120,50955,2,0,B|128:112,2,78.7499976530672,8|0|0
104,192,51812,1,8
184,176,52027,1,0
248,216,52241,6,0,B|256:264|248:288,1,70,8|8
112,360,52884,2,0,B|104:312|112:288,1,70,8|8
176,256,53312,1,0
192,328,53527,1,8
264,344,53741,1,0
312,288,53955,1,0
296,216,54169,1,0
224,200,54384,6,8,B|184:192|152:176,1,70
272,144,55241,2,8,B|280:104|296:72,1,70,8|8
296,216,56098,6,0,B|320:224|328:232,1,35,8|8
216,216,56527,2,0,B|192:224|184:232,1,35,8|8
384,184,56955,2,0,B|408:192|416:200,1,35,8|8
128,184,57384,2,0,B|104:192|96:200,1,35,8|8
200,128,57812,6,0,B|216:120,3,17.5,8|8|8|8
312,128,58241,2,0,B|296:120,3,17.5,8|8|8|8
256,72,58669,5,8
256,192,58884,5,8
256,304,59098,6,0,B|248:320|248:320|264:328|264:328|248:336|248:336|256:352|256:352,1,70,8|2
168,344,59741,5,2
104,304,59955,1,2
80,232,60169,1,2
104,160,60384,6,0,B|112:152|112:152|120:160|120:160|128:144|128:144|136:152|136:152|136:136|136:136|144:136|144:136|152:128|152:128|176:144|176:144|184:104|184:104|224:136|224:136|256:72,1,280,10|10
328,40,61455,1,2
344,40,61562,1,2
360,40,61669,1,2
416,104,61884,1,2
368,168,62098,6,0,B|344:192,1,35,8|8
344,192,62527,2,0,B|368:216,1,35,8|8
424,280,62955,5,12
424,280,63384,1,8
352,304,63598,1,0
280,280,63812,6,0,B|264:272|264:272|256:280|256:280|240:264|240:264|232:280|232:280|200:256|200:256|168:296|168:296|96:192,1,280,10|14
104,40,65098,1,10
152,104,65312,1,2
224,64,65527,6,0,B|256:80,1,35,8|8
256,80,65955,2,0,B|288:64,1,35,8|0
