osu file format v5

[General]
AudioFilename: BLUEBIRD(NARUTO).mp3
AudioLeadIn: 0
PreviewTime: -1
Countdown: 0
SampleSet: Normal
StackLeniency: 0.2
Mode: 0
LetterboxInBreaks: 1

[Editor]
Bookmarks: 1495,1594,26166,26364,39390,60903,83403,105114,107877,140245,142811,143403,145772,149719,153074,186232,188798,189390,191167
DistanceSpacing: 1
BeatDivisor: 2
GridSize: 32

[Metadata]
Title:BLUEBIRD
Artist:Ikimonogakari
Creator:Akino
Version:Junior Mature Wolf
Source:NARUTO
Tags:

[Difficulty]
HPDrainRate:5
CircleSize:4
OverallDifficulty:4
SliderMultiplier:1.8
SliderTickRate:1

[Events]
//Background and Video events
0,0,"2309235856_8685dff61b_o.jpg"
//Break Periods
2,39195,50110
2,89129,100276
2,139459,151394
//Storyboard Layer 0 (Background)
//Storyboard Layer 1 (Fail)
//Storyboard Layer 2 (Pass)
//Storyboard Layer 3 (Foreground)
//Storyboard Sound Samples
//Background Colour Transformations
3,100,163,162,255

[TimingPoints]
-83,394.736842105263,4,1,0,100,1,0

[Colours]
Combo1 : 255,0,0
Combo2 : 255,128,0
Combo3 : 0,128,0
Combo4 : 0,0,255

[HitObjects]
64,64,26166,1,0
128,96,26364,1,0
192,64,26561,1,0
256,96,26759,2,0,B|384:96|480:192|480:288,1,270
384,288,27745,1,0
288,320,28140,1,0
192,288,28535,1,0
96,320,28930,1,0
96,192,29324,5,0
96,128,29522,1,0
160,64,29916,2,0,B|256:64|352:128,2,180
256,160,31101,1,0
320,224,31298,1,0
416,224,31495,2,0,B|480:160|480:32,2,180
448,320,32680,5,0
352,320,33074,2,0,B|128:320|32:256,1,270
96,192,34061,2,0,B|160:224|288:256,1,180
320,192,34851,2,0,B|192:160|128:128,1,180
64,64,35640,5,0
128,64,35838,1,0
256,64,36232,2,0,B|416:64|448:160,2,180
416,256,37614,1,0
480,320,38009,1,0
480,320,38206,2,0,B|256:352|64:288,1,360
256,64,51430,5,0
192,96,51627,1,0
64,160,52022,2,0,B|192:288|288:288,2,180
64,288,53206,1,0
64,288,53403,1,0
256,192,53995,1,2
256,192,54193,1,2
256,320,54588,5,0
320,288,54785,1,0
448,224,55180,2,0,B|320:96|224:96,2,180
448,96,56364,1,0
448,96,56561,1,0
256,192,57153,1,2
256,192,57351,1,2
256,64,57745,5,0
192,96,57942,1,0
64,160,58337,2,0,B|192:288|288:288,2,180
64,288,59521,1,0
64,288,59718,1,0
256,192,60310,1,2
256,192,60508,1,2
160,128,60903,6,0,B|256:64|352:128,1,180
448,192,61693,2,0,B|384:256|256:288,1,180
192,288,62482,2,0,B|128:192|192:64,1,180
256,192,63272,1,2
256,192,63469,1,2
256,64,64061,5,0
320,96,64258,1,0
448,160,64653,2,0,B|320:288|224:288,2,180
448,288,65837,1,0
448,288,66034,1,0
256,192,66626,1,2
256,192,66824,1,2
256,320,67219,1,0
192,288,67416,1,0
64,224,67811,2,0,B|192:96|288:96,2,180
64,96,68995,1,0
64,96,69192,1,0
256,192,69784,1,2
256,192,69982,1,2
256,64,70376,5,0
320,96,70573,1,0
448,160,70968,2,0,B|320:288|224:288,2,180
448,288,72152,1,0
448,288,72349,1,0
256,192,72941,1,2
256,192,73139,1,2
352,128,73534,2,0,B|256:64|160:128,1,180
64,192,74324,2,0,B|128:256|256:288,1,180
320,288,75113,2,0,B|384:192|320:64,1,180
256,192,75903,1,2
256,192,76100,1,2
160,128,76693,6,0,B|256:64|352:128,1,180
448,192,77483,2,0,B|384:256|256:288,1,180
192,288,78272,2,0,B|128:192|192:64,1,180
256,192,79062,1,2
256,192,79259,1,2
352,128,79851,2,0,B|256:64|160:128,1,180
64,192,80641,2,0,B|128:256|256:288,1,180
320,288,81430,2,0,B|384:192|320:64,1,180
256,192,82220,1,2
256,192,82417,1,2
256,64,83403,5,0
352,128,83798,1,0
352,256,84193,1,0
192,256,84588,1,0
160,96,84982,2,0,B|32:128|64:320,1,180
32,320,85772,2,0,B|160:352|288:352,1,180
320,352,86561,2,0,B|480:320|448:160,3,180
448,160,88140,1,0
384,64,88535,1,0
352,160,88930,1,0
256,64,101956,5,0
320,96,102153,1,0
448,160,102548,2,0,B|448:288|256:320,1,270
128,288,103535,1,0
128,288,103732,1,0
34,177,104127,1,8
111,101,104423,1,8
192,171,104719,1,8
256,64,105114,5,0
320,96,105311,1,0
448,160,105706,2,0,B|448:288|256:320,1,270
128,288,106693,1,0
128,288,106890,1,0
34,177,107285,1,8
111,101,107581,1,8
192,171,107877,1,8
256,299,108272,5,0
256,299,108469,1,0
256,299,108666,1,0
326,283,108864,2,0,B|428:257|464:147,1,180
402,120,109456,1,0
262,84,109851,1,0
122,48,110245,1,0
87,342,111035,5,0
158,342,111232,2,0,B|332:343|447:279,1,270
409,148,112219,1,0
409,148,112416,1,0
275,94,112811,1,0
275,94,113009,1,0
176,199,113403,1,0
48,266,113798,1,8
47,194,113995,1,8
47,121,114193,1,8
151,52,114588,5,0
216,81,114785,1,0
281,51,114982,1,0
353,52,115180,2,0,B|451:94|472:193,1,180
397,192,115969,2,0,B|264:216|153:193,1,180
159,145,116561,1,0
22,191,116956,1,2
85,224,117153,1,2
149,256,117351,1,2
151,332,117745,5,0
216,303,117942,1,0
281,333,118139,1,0
353,332,118337,2,0,B|451:290|472:191,1,180
397,192,119126,2,0,B|264:168|153:191,1,180
159,239,119718,1,0
22,193,120113,1,8
85,160,120310,1,8
149,128,120508,1,8
151,52,120903,5,0
216,81,121100,1,0
281,51,121297,1,0
353,52,121495,2,0,B|451:94|472:193,1,180
397,192,122284,2,0,B|264:216|153:193,1,180
159,145,122876,1,0
22,191,123271,1,2
85,224,123468,1,2
149,256,123666,1,2
351,332,124061,6,0,B|263:355|148:344,1,180
32,308,124851,2,0,B|10:211|72:127,1,180
188,210,125640,1,0
332,213,126035,1,0
446,125,126430,1,8
446,125,126627,1,8
446,125,126824,1,8
361,52,127219,5,0
296,81,127416,1,0
231,51,127613,1,0
159,52,127811,2,0,B|61:94|40:193,1,180
115,192,128600,2,0,B|248:216|359:193,1,180
353,145,129192,1,0
490,191,129587,1,2
427,224,129784,1,2
363,256,129982,1,2
361,332,130376,5,0
296,303,130573,1,0
231,333,130770,1,0
159,332,130968,2,0,B|61:290|40:191,1,180
115,192,131757,2,0,B|248:168|359:191,1,180
353,239,132349,1,0
490,193,132744,1,8
427,160,132941,1,8
363,128,133139,1,8
361,52,133534,5,0
296,81,133731,1,0
231,51,133928,1,0
159,52,134126,2,0,B|61:94|40:193,1,180
115,192,134915,2,0,B|248:216|359:193,1,180
353,145,135507,1,0
490,191,135902,1,2
427,224,136099,1,2
363,256,136297,1,2
161,332,136692,6,0,B|249:355|364:344,1,180
480,308,137482,2,0,B|502:211|440:127,1,180
324,210,138271,1,0
180,213,138666,1,0
66,125,139061,1,10
66,125,139258,1,14
384,64,152877,5,0
384,64,153074,2,0,B|160:32|128:128|128:192|256:192|352:224|416:288|416:352|224:352|96:288,1,720
128,224,155048,1,0
448,288,155443,1,0
384,64,155838,1,0
384,64,156035,5,0
384,64,156232,2,0,B|160:32|128:128|128:192|256:192|352:224|416:288|416:352|224:352|96:288,1,720
128,224,158206,1,0
448,288,158601,1,0
480,128,159193,5,0
480,128,159390,2,0,B|384:224|160:256,1,270
320,96,160377,1,2
320,96,160574,1,2
224,96,160969,2,0,B|96:96|0:192|32:320,1,270
128,320,161956,1,2
128,320,162153,1,2
256,352,162351,5,2
320,224,162548,1,8
416,160,162811,1,8
320,96,163074,1,8
192,32,163338,1,8
64,96,163601,1,8
160,160,163864,1,8
64,224,164127,2,2,B|183:284|320:288|416:288,2,270
256,192,165706,12,2,166495
128,64,166693,5,0
192,96,166890,1,0
256,64,167088,1,0
352,64,167285,2,0,B|416:128|448:224,1,180
352,224,168074,1,8
352,224,168272,1,8
416,320,168666,1,0
224,320,169061,1,2
160,288,169259,1,2
96,320,169456,1,2
128,64,169851,5,0
192,96,170048,1,0
256,64,170246,1,0
352,64,170443,2,0,B|416:128|448:224,1,180
352,224,171232,1,8
352,224,171430,1,8
416,320,171824,1,0
224,320,172219,1,2
160,288,172417,1,2
96,320,172614,1,2
128,64,173009,5,0
192,96,173206,1,0
256,64,173404,1,0
352,64,173601,2,0,B|416:128|448:224,1,180
480,288,174390,1,8
416,288,174588,1,8
352,320,174785,1,0
352,256,174982,1,0
224,320,175377,1,2
160,288,175575,1,2
96,320,175772,1,2
96,192,176166,5,0
96,128,176364,1,0
160,160,176561,1,0
256,160,176956,1,0
320,192,177153,1,0
320,128,177351,1,0
160,32,177745,2,0,B|352:32,1,180
448,32,178535,2,0,B|448:224,1,180
384,320,179324,5,0
320,288,179521,1,0
256,320,179719,1,0
160,320,179916,2,0,B|96:256|64:160,1,180
160,160,180705,1,8
160,160,180903,1,8
96,64,181297,1,0
288,64,181692,1,2
352,96,181890,1,2
416,64,182087,1,2
384,320,182482,5,0
320,288,182679,1,0
256,320,182877,1,0
160,320,183074,2,0,B|96:256|64:160,1,180
160,160,183863,1,8
160,160,184061,1,8
96,64,184455,1,0
288,64,184850,1,2
352,96,185048,1,2
416,64,185245,1,2
384,320,185640,5,0
320,288,185837,1,0
256,320,186035,1,0
160,320,186232,2,0,B|96:256|64:160,1,180
32,96,187021,1,8
96,96,187219,1,8
160,64,187416,1,0
160,128,187613,1,0
288,64,188008,1,2
352,96,188206,1,2
416,64,188403,1,2
416,192,188797,5,0
416,256,188995,1,0
352,224,189192,1,0
256,224,189587,1,0
192,192,189784,1,0
192,256,189982,1,0
352,352,190376,2,0,B|160:352,1,180
64,352,191166,2,0,B|64:160,1,180
128,128,191956,5,0
128,192,192154,1,0
192,160,192351,1,0
256,224,192746,5,0
320,192,192943,1,0
384,160,193141,1,0
352,256,193535,6,0,B|448:256,2,90
288,320,194325,6,0,B|128:320,1,90
256,192,195114,12,0,198666
