osu file format v5

[General]
AudioFilename: BLUEBIRD(NARUTO).mp3
AudioLeadIn: 0
PreviewTime: -1
Countdown: 0
SampleSet: Normal
StackLeniency: 0.2
Mode: 0
LetterboxInBreaks: 1

[Editor]
Bookmarks: 1495,1594,26166,26364,39390,60903,83403,105114,107877,140245,142811,143403,145772,149719,153074,186232,188798,189390,191167
DistanceSpacing: 0.800000011920929
BeatDivisor: 2
GridSize: 32

[Metadata]
Title:BLUEBIRD
Artist:Ikimonogakari
Creator:Akino
Version:Beginner Wolfy
Source:NARUTO
Tags:

[Difficulty]
HPDrainRate:3
CircleSize:4
OverallDifficulty:3
SliderMultiplier:1.5
SliderTickRate:1

[Events]
//Background and Video events
0,0,"2309235856_8685dff61b_o.jpg"
//Break Periods
2,39195,50342
2,89129,100276
2,139459,151394
//Storyboard Layer 0 (Background)
//Storyboard Layer 1 (Fail)
//Storyboard Layer 2 (Pass)
//Storyboard Layer 3 (Foreground)
//Storyboard Sound Samples
//Background Colour Transformations
3,100,163,162,255

[TimingPoints]
-83,394.736842105263,4,1,0,100,1,0

[Colours]
Combo1 : 255,0,0
Combo2 : 255,128,0
Combo3 : 0,128,0
Combo4 : 0,0,255

[HitObjects]
64,96,26166,2,0,B|288:160,1,225
288,64,27153,1,0
384,64,27548,1,0
448,128,27943,1,0
480,224,28338,2,2,B|352:224|288:352,1,225
224,320,29324,6,0,B|64:352|0:256,1,225
64,192,30311,1,0
32,96,30706,1,0
128,96,31101,1,0
224,64,31495,2,2,B|480:64,1,225
448,192,32482,6,0,B|416:288|288:352,1,225
288,192,33469,1,0
192,256,33864,1,0
96,320,34259,1,0
96,192,34653,1,0
96,64,35048,1,2
96,64,35245,1,2
192,128,35640,6,0,B|448:128,1,225
448,224,36627,1,0
320,224,37022,1,0
224,288,37416,1,0
96,320,38009,1,2
96,320,38207,2,2,B|32:256|64:160|128:160,1,150
96,96,51430,6,0,B|352:96,1,225
416,96,52416,1,0
320,192,52811,1,0
416,192,53403,1,2
416,288,54588,6,0,B|160:288,1,225
96,288,55574,1,0
192,192,55969,1,0
96,192,56561,1,2
96,192,56956,1,2
96,96,57745,6,0,B|352:96,1,225
416,96,58731,1,0
320,192,59126,1,0
416,192,59718,1,2
448,288,60903,6,8,B|352:320|256:256,1,150
192,288,61693,2,8,B|96:320|0:256,1,150
96,192,62482,1,8
224,128,62877,1,8
352,192,63272,2,8,B|448:192,1,75
416,96,64061,6,0,B|160:96,1,225
96,96,65047,1,0
192,192,65442,1,0
96,192,66034,1,2
96,288,67219,2,0,B|352:288,1,225
416,288,68205,1,0
320,192,68600,1,0
416,192,69192,1,2
416,192,69587,1,2
416,96,70376,6,0,B|160:96,1,225
96,96,71362,1,0
192,192,71757,1,0
96,192,72349,1,2
64,288,73534,2,8,B|160:320|256:256,1,150
320,288,74324,2,8,B|416:320|512:256,1,150
416,192,75113,1,8
288,128,75508,1,8
160,192,75903,2,8,B|64:192,1,75
64,96,76693,6,2,B|160:64|256:128,1,150
320,96,77483,2,2,B|416:64|512:128,1,150
416,192,78272,1,2
288,256,78667,1,2
160,192,79062,2,2,B|64:192,1,75
64,288,79851,2,2,B|160:320|256:256,1,150
320,288,80641,2,2,B|416:320|512:256,1,150
416,192,81430,1,2
288,128,81825,1,2
160,192,82220,2,2,B|64:192,1,75
64,288,83403,5,0
192,288,83798,2,0,B|352:288,1,150
448,288,84588,1,0
448,192,84982,1,0
320,192,85377,2,0,B|128:192,1,150
64,192,86166,1,0
96,64,86561,1,0
192,96,86956,1,0
288,64,87351,1,0
384,96,87745,1,0
448,160,88140,2,2,B|448:352|192:320,1,300
256,96,102153,5,0
160,64,102548,2,2,B|64:160|64:288,1,225
160,320,103732,1,0
288,288,104127,1,0
448,288,104719,1,0
480,160,105114,6,2,B|352:256|224:128,1,225
320,64,106298,1,0
160,64,106890,1,0
64,160,107285,2,2,B|64:320|224:352,1,225
256,256,108272,6,2,B|416:224|480:320,1,225
448,192,109456,2,8,B|352:96|288:64,2,150
384,32,111035,6,2,B|96:32|96:96|96:192|480:160|448:288|256:288|64:320,1,750
64,224,114785,5,0
64,128,115180,2,0,B|96:64|224:64,1,150
320,64,115969,1,0
256,128,116561,1,0
160,160,116956,2,8,B|192:256|288:224,1,150
448,160,117943,5,0
448,256,118338,2,0,B|416:320|288:320,1,150
192,320,119127,1,0
256,256,119719,1,0
352,224,120114,2,8,B|320:128|224:160,1,150
64,224,121101,5,0
64,128,121495,2,0,B|96:64|224:64,1,150
320,64,122284,1,0
256,128,122876,1,0
160,160,123271,2,8,B|192:256|288:224,1,150
384,192,124061,6,0,B|448:256|352:352,1,150
256,320,124851,1,0
128,320,125245,1,0
64,160,125640,1,0
160,64,126035,1,0
288,64,126430,1,2
288,64,126627,1,2
448,160,127416,5,0
448,256,127811,2,0,B|416:320|288:320,1,150
192,320,128600,1,0
256,256,129192,1,0
352,224,129587,2,8,B|320:128|224:160,1,150
64,224,130574,5,0
64,128,130969,2,0,B|96:64|224:64,1,150
320,64,131758,1,0
256,128,132350,1,0
160,160,132745,2,8,B|192:256|288:224,1,150
448,160,133732,5,0
448,256,134126,2,0,B|416:320|288:320,1,150
192,320,134915,1,0
256,256,135507,1,0
352,224,135902,2,2,B|320:128|224:160,1,150
128,192,136692,6,0,B|64:128|160:32,1,150
256,64,137482,1,0
384,64,137876,1,0
448,224,138271,1,0
352,320,138666,1,0
224,320,139061,1,2
224,320,139258,1,2
64,64,153074,6,2,B|32:160|96:256|256:288|352:96|480:160|480:352,1,600
320,320,155048,1,0
192,320,155443,1,0
64,320,156232,6,2,B|32:224|96:128|256:96|352:288|480:224|480:32,1,600
352,64,158206,1,0
256,64,158601,1,0
96,96,159193,5,0
96,96,159390,2,0,B|96:192|192:288,1,150
146,234,159982,1,2
416,96,160772,1,0
416,96,160969,2,0,B|416:192|320:288,1,150
366,234,161561,1,2
256,192,162548,12,14,165509
256,192,165903,5,0
256,192,166298,1,0
64,96,166890,5,0
64,96,167285,2,0,B|224:96,1,150
320,96,168074,2,0,B|522:96,1,150
470,96,168666,1,0
416,192,169456,1,2
448,288,170048,5,0
448,288,170443,2,0,B|288:288,1,150
192,288,171232,2,0,B|-10:288,1,150
42,288,171824,1,0
96,192,172614,1,2
64,96,173206,5,0
64,96,173601,2,0,B|224:96,1,150
320,96,174390,2,0,B|522:96,1,150
470,96,174982,1,0
416,192,175772,1,2
416,288,176166,6,0,B|256:224,1,150
288,320,176956,2,0,B|128:256,1,150
64,288,177745,2,0,B|64:192|128:160,1,150
256,192,178535,1,10
256,192,178732,1,10
448,96,179522,5,0
448,96,179916,2,0,B|288:96,1,150
192,96,180705,2,0,B|-10:96,1,150
42,96,181297,1,0
96,192,182087,1,2
64,288,182680,5,0
64,288,183074,2,0,B|224:288,1,150
320,288,183863,2,0,B|522:288,1,150
470,288,184455,1,0
416,192,185245,1,2
448,96,185838,5,0
448,96,186232,2,0,B|288:96,1,150
192,96,187021,2,0,B|-10:96,1,150
42,96,187613,1,0
96,192,188403,1,2
96,288,188798,6,0,B|256:224,1,150
224,320,189588,2,0,B|384:256,1,150
448,288,190377,2,0,B|448:192|384:160,1,150
256,192,191167,1,10
256,192,191364,1,10
256,192,191956,12,14,198666
