osu file format v7

[General]
AudioFilename: ikimono gakari-seishun line.mp3
AudioLeadIn: 1996
PreviewTime: 56078
Countdown: 1
SampleSet: Normal
StackLeniency: 0.7
Mode: 0
LetterboxInBreaks: 1

[Editor]
Bookmarks: 410,13560,26711,39862,49519,56300,69451,83012,89177,102327,111985,118766,131916,146300
DistanceSpacing: 1
BeatDivisor: 4
GridSize: 16

[Metadata]
Title:Seishun Line
Artist:Ikimono Gakari
Creator:hutka
Version:Hard
Source:Ohkiku Furikabu
Tags:Jpop

[Difficulty]
HPDrainRate:5
CircleSize:5
OverallDifficulty:7
SliderMultiplier:1.6
SliderTickRate:1

[Events]
//Background and Video events
0,0,"Back Ground.jpg"
//Break Periods
2,20521,23325
2,84014,85791
//Storyboard Layer 0 (Background)
//Storyboard Layer 1 (Fail)
//Storyboard Layer 2 (Pass)
//Storyboard Layer 3 (Foreground)
//Storyboard Sound Samples
//Background Colour Transformations
3,100,163,162,255

[TimingPoints]
390,410.958904109589,4,2,0,50,1,0
13457,-100,4,1,0,70,0,0
56289,-100,4,1,0,70,0,1
65326,-100,4,1,0,70,0,0
69440,-100,4,1,0,70,0,1
78477,-100,4,1,0,70,0,0
83823,-100,4,2,0,30,0,0
83926,-100,4,1,0,70,0,0
118755,-100,4,1,0,70,0,1
127792,-100,4,1,0,70,0,0
131905,-100,4,1,0,70,0,1
140942,-100,4,1,0,70,0,0
141460,-200,4,1,0,70,0,0
141974,-100,4,1,0,70,0,0
146289,-100,4,2,0,30,0,0

[Colours]
Combo1 : 128,128,128
Combo2 : 128,128,64

[HitObjects]
112,128,390,2,0,B|288:128,1,160,2|0
432,128,1211,2,0,B|464:208|432:288,1,160,2|0
272,288,2033,2,0,B|96:288,2,160,2|0|2
272,128,3266,1,0
272,128,3677,2,0,B|96:128,2,160,2|0|2
432,128,4910,1,0
432,128,5321,2,0,B|464:208|432:304,1,160,2|0
352,288,5937,2,0,B|240:288,1,80,0|2
192,288,6348,5,0
192,288,6554,1,0
192,288,6759,1,2
32,288,7170,1,0
32,288,7376,1,0
32,288,7581,1,2
32,128,7992,1,0
32,128,8198,1,0
32,128,8403,1,2
192,128,8814,1,0
192,128,9020,1,0
192,128,9225,1,2
352,128,9636,6,0,B|448:128,2,80,0|0|0
352,208,10253,1,2
192,208,10663,1,2
352,208,11074,1,2
272,208,11280,1,0
192,208,11485,2,0,B|96:208,1,80,2|0
256,208,11896,12,4,13540
128,160,14362,6,0,B|32:160,2,80
208,160,14979,1,4
368,160,15390,2,0,B|400:192|368:240,1,80
208,240,16006,2,0,B|112:240,2,80
368,240,16828,5,4
48,240,17650,1,0
48,240,17855,1,0
48,80,18266,1,4
208,80,18677,2,0,B|256:48|304:96,1,80
368,80,19088,2,0,B|416:80,4,40
368,80,19705,1,0
368,159,19910,6,0,B|368:212,2,40
368,159,20321,1,0
128,128,24225,6,0,B|80:128,4,40
128,208,24842,2,0,B|208:240|288:208,1,160,4|0
288,48,25663,2,0,B|368:16|448:48,1,160,4|0
496,112,26280,1,0
384,224,26691,6,0,B|480:224,2,80,4|0|0
384,144,27307,1,0
384,144,27513,2,0,B|256:144,1,120
224,144,27924,1,0
144,144,28129,5,0
144,144,28335,2,0,B|48:144,2,80
144,224,28951,1,0
224,224,29157,1,0
224,224,29362,2,0,B|272:224,2,40
144,224,29773,5,0
144,224,29979,2,0,B|112:288|144:352,1,120,4|0
138,340,30390,1,0
208,288,30595,1,0
208,288,30800,2,0,B|336:288,1,120
368,288,31211,1,0
368,288,31417,1,0
448,208,31622,5,0
368,128,31828,1,0
288,208,32033,1,0
288,208,32136,2,0,B|192:208,1,80
208,208,32444,2,0,B|112:208,2,80
48,48,33266,5,4
48,128,33472,1,0
48,48,33677,2,0,B|224:48,1,160
288,48,34294,2,0,B|336:48,2,40
288,128,34705,6,0,B|384:128,1,80
368,208,35116,2,0,B|272:208,1,80
208,208,35526,1,0
208,208,35732,2,0,B|80:208,1,120
48,208,36143,1,0
48,288,36348,5,0
48,288,36554,2,0,B|176:288,1,120,4|0
208,288,36965,1,0
288,288,37170,1,0
288,288,37376,2,0,B|320:224|272:160,1,120
256,144,37787,1,0
176,144,37992,1,0
176,144,38198,2,0,B|48:144,1,120
16,144,38609,1,0
16,224,38814,5,0
16,224,38917,1,0
16,224,39020,1,0
96,224,39225,2,0,B|96:272,5,40
96,304,39842,6,0,B|272:304,1,160,4|8
416,304,40663,1,0
416,304,40869,1,0
416,224,41074,1,8
416,224,41280,1,0
416,144,41485,2,0,B|320:144,3,80,0|0|8|0
256,144,42307,1,0
256,144,42513,6,0,B|224:192|272:240,1,80,0|8
336,224,42924,1,0
336,224,43129,2,0,B|192:224,1,120,4|0
176,224,43540,1,8
96,224,43746,1,0
96,224,43951,2,0,B|64:160|112:96,1,120,4|0
128,80,44362,1,8
208,80,44568,1,0
208,80,44773,2,0,B|288:48|368:80,2,160,2|2|2
208,160,45800,6,0,B|208:256,2,80,0|2|0
288,160,46417,2,0,B|368:192|448:160,2,160,4|8|0
208,160,47444,2,0,B|112:160,3,80,0|8|0|0
48,160,48266,2,0,B|16:208|64:256,1,80,0|8
128,240,48677,2,0,B|160:288|112:336,1,80
48,320,49088,5,0
48,320,49294,1,0
48,320,49499,2,0,B|304:320,1,240,2|0
128,160,50526,1,0
128,160,50732,2,0,B|304:160,2,160,0|2|0
48,80,51759,2,0,B|16:112|0:160|16:208|64:240,1,160
128,160,52376,1,0
128,160,52581,2,0,B|80:160,2,40,2|0|0
224,64,52992,6,0,B|304:32|384:64,1,160,0|0
304,160,53609,2,0,B|304:336,1,160,0|0
304,320,54225,1,0
304,320,54431,1,0
176,320,54636,5,4
96,320,54842,2,0,B|48:320,4,40
176,320,55458,2,0,B|224:320,2,40
96,320,55869,1,0
96,95,56280,5,2
320,96,56691,1,8
96,95,57102,1,0
320,96,57513,1,8
208,288,57924,5,2
208,64,58335,1,8
208,288,58746,1,0
208,64,59157,1,8
96,256,59568,5,2
320,256,59979,1,8
96,256,60389,1,2
320,256,60800,1,8
208,64,61211,2,0,B|208:240,1,160,2|0
208,336,61828,1,8
320,144,62239,5,0
400,144,62444,1,0
400,224,62650,2,0,B|320:256|224:224,1,160,4|0
240,144,63266,1,0
240,144,63472,2,0,B|160:112|80:144,1,160,4|0
48,208,64088,1,0
48,208,64294,2,0,B|128:240|224:208,1,160,4|0
240,144,64910,1,0
240,144,65116,1,4
384,80,65526,5,0
384,80,65732,1,0
384,80,65937,2,0,B|480:80|496:144|480:208|368:208,1,240,2|0
240,144,66965,1,0
240,144,67170,2,0,B|192:144|176:208|192:272|272:257,1,160,0|2
384,208,67992,6,0,B|480:208,2,80
304,208,68609,2,0,B|256:208,7,40
223,208,69431,5,2
448,208,69842,1,8
336,16,70253,1,0
336,240,70663,1,8
192,64,71074,5,2
112,272,71485,1,8
304,160,71896,1,0
80,160,72307,1,8
272,272,72718,5,2
464,160,73129,1,8
272,48,73540,1,2
272,272,73951,1,8
80,160,74362,2,0,B|256:160,1,160,2|0
352,160,74979,1,8
160,272,75389,5,0
160,272,75595,1,0
160,272,75800,2,0,B|240:304|320:272,1,160,4|0
240,240,76417,1,0
240,240,76622,2,0,B|240:64,1,160,4|0
160,48,77239,1,0
160,48,77444,2,0,B|240:16|320:48,1,160,4|0
240,80,78061,1,0
240,80,78266,1,4
128,192,78677,5,0
128,192,78883,1,0
128,192,79088,2,0,B|304:192,1,160,4|0
368,192,79705,2,0,B|400:272|368:352,1,160,8|0
288,352,80321,1,0
288,272,80526,1,8
288,272,80732,2,2,B|112:272,1,160,0|0
256,208,81554,12,0,83814
256,192,86691,6,0,B|256:240,4,40
208,128,87307,2,0,B|160:128|144:192|160:256|240:256,1,160,4|0
304,128,88129,2,0,B|352:128|368:192|352:256|272:256,1,160,4|4
312,248,88746,1,0
416,128,89157,5,4
416,128,89362,2,0,B|416:192,2,40
416,48,89773,2,0,B|304:48,1,80
256,48,90184,2,0,B|192:48,2,40
256,128,90595,5,0
176,128,90800,2,0,B|144:176|192:224,1,80
256,208,91211,2,0,B|288:256|240:304,1,80
176,288,91622,1,0
176,288,91828,2,0,B|176:336,2,40
96,288,92239,5,0
176,288,92444,2,0,B|304:288,1,120,4|0
336,288,92855,1,0
400,224,93061,1,0
336,160,93266,2,0,B|208:160,1,120
176,160,93677,1,0
64,160,93883,5,0
64,272,94088,1,0
64,160,94294,1,0
64,48,94499,1,0
64,48,94602,2,0,B|160:48,1,80
144,48,94910,2,0,B|240:48,2,80
368,48,95732,5,4
368,128,95937,2,0,B|416:128,2,40
288,128,96348,1,0
288,208,96554,1,0
288,208,96759,2,0,B|240:208,2,40
368,208,97170,5,0
368,208,97376,2,0,B|400:256|352:304,1,80
288,288,97787,2,0,B|192:288,1,80
128,288,98198,1,0
128,288,98403,2,0,B|80:288,2,40
128,176,98814,5,0
128,64,99020,2,0,B|192:32|272:80,1,120,4|0
243,65,99431,1,0
352,64,99636,1,0
352,176,99842,2,0,B|288:208|208:160,1,120
236,174,100253,1,0
128,176,100458,1,0
128,288,100663,5,0
128,288,100869,2,0,B|80:288,2,40
240,288,101280,2,0,B|240:336,2,40
352,288,101691,2,0,B|352:240,5,40
352,208,102307,6,0,B|256:208,1,80,4|0
224,144,102718,2,0,B|128:144,2,80,8|0|0
256,64,103335,1,0
336,48,103540,1,8
400,96,103746,1,0
432,160,103951,2,0,B|464:208|416:256,1,80
352,240,104362,2,0,B|320:288|368:336,1,80,8|0
192,320,104979,6,0,B|288:320,2,80,0|8|0
112,288,105595,2,0,B|80:224|128:144,1,120,4|0
144,144,106006,1,8
208,96,106211,1,0
288,112,106417,2,0,B|320:176|288:240,1,120
272,256,106828,1,8
208,304,107033,1,0
208,176,107239,5,2
464,176,107650,1,2
208,176,108061,1,2
336,176,108266,5,0
368,256,108472,1,2
304,320,108677,1,0
304,320,108883,2,0,B|224:352|144:320,1,160,4|8
96,256,109499,1,0
96,256,109705,1,0
112,176,109910,5,0
176,112,110116,1,8
256,96,110321,1,0
336,128,110526,2,0,B|368:176|336:224,3,80,0|0|8|0
128,208,111554,5,0
128,208,111759,1,0
128,208,111965,2,0,B|400:208,1,240,2|0
160,144,112992,1,0
64,208,113198,1,0
160,272,113403,1,0
256,208,113609,2,0,B|512:208,1,240,2|0
368,32,114636,1,0
368,32,114842,1,0
368,32,115047,6,0,B|416:32,2,40,0|0|0
240,32,115458,2,0,B|192:112|240:192,1,160,4|0
336,112,116074,2,0,B|64:112,1,240,4|0
96,112,116896,1,4
96,224,117102,5,0
208,224,117307,2,0,B|272:224,4,40
96,224,117924,2,0,B|32:224,2,40
208,224,118335,1,0
400,320,118746,5,2
176,320,119157,1,8
176,96,119568,1,0
400,96,119979,1,8
288,288,120390,5,2
80,208,120800,1,8
288,112,121211,1,0
496,208,121622,1,8
288,112,122033,5,2
176,304,122444,1,8
400,304,122855,1,2
288,112,123266,1,8
288,112,123677,2,0,B|288:368,1,240,2|8
288,352,124499,1,0
208,272,124705,5,0
208,272,124910,1,0
128,272,125116,2,0,B|80:192|128:112,1,160,4|0
160,192,125732,1,0
160,192,125937,2,0,B|336:192,1,160,4|0
320,112,126554,1,0
320,112,126759,2,0,B|368:192|320:272,1,160,4|0
272,320,127376,1,0
272,320,127581,1,4
432,320,127992,5,0
432,320,128198,1,0
432,320,128403,2,0,B|176:320,1,240,2|0
80,208,129431,1,0
80,208,129636,1,0
256,64,130047,6,0,B|336:32|416:64,1,160,2|0
416,176,130663,2,0,B|464:176,2,40
352,272,131074,2,0,B|352:320,2,40
288,176,131485,2,0,B|240:176,2,40
208,272,131896,5,2
64,64,132307,1,8
320,64,132718,1,0
64,64,133129,1,8
64,320,133540,5,2
320,320,133951,1,8
320,64,134362,1,0
64,64,134773,1,8
192,288,135184,5,2
192,32,135595,1,8
416,160,136006,1,2
160,160,136417,1,8
416,160,136828,2,0,B|240:160,1,160,2|0
256,160,137444,1,8
96,160,137855,5,0
192,160,138061,1,0
96,160,138266,2,0,B|48:240|96:320,1,160,4|0
144,240,138883,1,0
192,160,139088,2,0,B|240:240|192:320,1,160,4|0
144,240,139705,1,0
144,240,139910,2,0,B|144:64,1,160,4|0
144,80,140526,1,0
144,80,140732,1,4
304,80,141143,5,0
304,80,141348,1,0
304,80,141554,2,0,B|400:80,1,80
464,80,142170,2,0,B|512:160|448:256,1,160,8|0
384,240,142787,1,0
384,240,142992,1,8
384,240,143198,2,2,B|208:240,1,160,0|0
128,144,143814,5,0
224,48,144020,1,0
320,144,144225,1,0
224,48,144431,1,0
224,48,144533,1,0
224,48,144636,1,0
224,48,144739,1,0
224,48,144842,1,0
224,48,144944,1,0
256,208,145047,12,0,146280
