osu file format v14

[General]
AudioFilename: Netsujou no Spectrum.mp3
AudioLeadIn: 0
PreviewTime: 58196
Countdown: 0
SampleSet: Soft
StackLeniency: 0.7
Mode: 0
LetterboxInBreaks: 1
WidescreenStoryboard: 0

[Editor]
Bookmarks: 26508,31196
DistanceSpacing: 1
BeatDivisor: 4
GridSize: 4
TimelineZoom: 1

[Metadata]
Title:Netsujou no Spectrum
TitleUnicode:熱情のスペクトラム
Artist:Ikimono Gakari
ArtistUnicode:いきものがかり
Creator:Raisa12
Version:Normal
Source:七つの大罪
Tags:Nanatsu no Taizai Opening tv size the seven deadly sins
BeatmapID:533750
BeatmapSetID:220414

[Difficulty]
HPDrainRate:4
CircleSize:3.5
OverallDifficulty:5
ApproachRate:5
SliderMultiplier:1.1
SliderTickRate:1

[Events]
//Background and Video events
0,0,"BG.jpg",0,0
Video,0,"OP.avi"
//Break Periods
2,26708,29996
//Storyboard Layer 0 (Background)
//Storyboard Layer 1 (Fail)
//Storyboard Layer 2 (Pass)
//Storyboard Layer 3 (Foreground)
//Storyboard Sound Samples

[TimingPoints]
1196,375,4,2,1,45,1,0
11696,-100,4,2,1,80,0,0
13571,-100,4,2,2,80,0,0
13946,-100,4,2,1,80,0,0
16571,-100,4,2,2,80,0,0
16946,-100,4,2,1,80,0,0
19571,-100,4,2,2,80,0,0
19758,-100,4,2,1,80,0,0
31196,-100,4,2,3,70,0,0
43196,-100,4,2,1,80,0,0
43571,-100,4,2,2,80,0,0
43946,-100,4,2,1,80,0,0
49571,-100,4,2,2,80,0,0
49946,-100,4,2,1,80,0,0
58196,-100,4,2,1,80,0,1
58571,-100,4,2,2,80,0,1
58946,-100,4,2,1,80,0,1
64571,-100,4,2,2,80,0,1
64946,-100,4,2,1,80,0,1
69821,-100,4,2,1,80,0,0
70196,-100,4,2,1,80,0,1
70571,-100,4,2,2,80,0,1
70946,-100,4,2,1,80,0,1
82196,-100,4,2,1,80,0,0
82571,-100,4,2,2,80,0,0
82946,-100,4,2,1,80,0,0
84821,-100,4,2,2,80,0,0
85008,-100,4,2,1,80,0,0
86696,-100,4,2,2,80,0,0
87071,-100,4,2,1,80,0,0
88196,-100,4,2,1,5,0,0

[Colours]
Combo1 : 245,255,64
Combo2 : 102,205,255
Combo3 : 192,192,192
Combo4 : 155,155,255
Combo5 : 255,64,64

[HitObjects]
144,72,1196,6,0,L|20:60,2,110,2|0|2,0:0|0:0|0:0,0:0:0:0:
224,132,2321,1,0,0:0:0:0:
244,228,2696,2,0,P|316:160|276:48,1,220,2|2,0:0|0:0,0:0:0:0:
188,40,3821,1,0,0:0:0:0:
224,132,4196,6,0,P|319:151|449:195,1,220,2|2,0:0|0:0,0:0:0:0:
424,288,5321,1,0,0:0:0:0:
324,300,5696,2,0,P|228:280|98:236,1,220,2|2,0:0|0:0,0:0:0:0:
60,156,6821,1,0,0:0:0:0:
84,60,7196,6,0,P|141:52|201:86,1,110,2|0,0:0|0:0,0:0:0:0:
256,144,7946,2,0,P|313:151|373:117,1,110,2|0,0:0|0:0,0:0:0:0:
440,72,8696,2,0,L|468:184,2,110,2|0|2,0:0|0:0|0:0,0:0:0:0:
340,88,9821,1,0,0:0:0:0:
256,144,10196,6,0,B|154:171|136:113|30:145,1,220,2|2,0:0|0:0,0:0:0:0:
12,240,11321,1,0,0:0:0:0:
64,324,11696,6,0,L|192:336,1,110,0|0,1:0|0:0,0:0:0:0:
256,276,12446,2,0,L|384:264,1,110,2|0,0:0|0:0,0:0:0:0:
444,208,13196,6,0,P|459:104|373:44,1,220,4|2,0:0|0:0,0:0:0:0:
304,116,14321,2,0,L|194:126,1,110,8|2,0:0|0:0,0:0:0:0:
124,196,15071,2,0,P|115:249|136:299,2,110,8|2|8,0:0|0:0|0:0,0:0:0:0:
194,126,16196,6,0,L|413:106,1,220,2|2,0:0|0:0,0:0:0:0:
488,172,17321,1,8,0:0:0:0:
468,268,17696,6,0,P|428:308|376:316,1,110,4|12,0:0|0:0,0:0:0:0:
340,224,18446,1,4,0:0:0:0:
252,268,18821,1,8,0:0:0:0:
192,192,19196,6,0,L|4:169,2,165,4|4|8,0:0|1:0|0:0,0:0:0:0:
252,268,20696,1,4,0:0:0:0:
328,328,21071,2,0,P|348:277|339:223,1,110,8|4,0:0|0:0,0:0:0:0:
396,144,21821,5,8,0:0:0:0:
408,92,22008,1,0,0:0:0:0:
376,44,22196,2,0,L|266:54,1,110,2|8,0:0|0:0,0:0:0:0:
224,144,22946,2,0,L|114:133,1,110,2|8,0:0|0:0,0:0:0:0:
36,192,23696,2,0,P|20:295|106:355,1,220,2|4,0:0|0:0,0:0:0:0:
256,192,25008,12,4,26508,1:0:0:0:
144,56,31196,6,0,L|272:44,1,110,2|0,0:0|0:0,0:0:0:0:
352,52,31946,1,2,0:0:0:0:
416,128,32321,1,8,0:0:0:0:
404,228,32696,6,0,P|364:268|312:276,1,110,2|0,0:0|0:0,0:0:0:0:
236,212,33446,2,0,P|182:221|144:260,1,110,2|8,0:0|0:0,0:0:0:0:
116,300,34008,1,0,0:0:0:0:
84,340,34196,6,0,L|64:121,1,220,2|2,0:0|0:0,0:0:0:0:
112,36,35321,2,0,L|240:24,1,110,8|2,0:0|0:0,0:0:0:0:
296,92,36071,2,0,L|424:104,1,110,0|2,0:0|0:0,0:0:0:0:
452,116,36633,1,0,0:0:0:0:
480,156,36821,1,8,0:0:0:0:
484,204,37008,6,0,P|448:275|371:297,1,165,0|0,0:0|0:0,0:0:0:0:
296,232,37946,2,0,L|186:242,1,110,2|8,0:0|0:0,0:0:0:0:
104,188,38696,1,2,0:0:0:0:
144,96,39071,2,0,L|253:85,1,110,0|2,0:0|0:0,0:0:0:0:
340,36,39821,1,8,0:0:0:0:
420,96,40196,6,0,P|433:150|415:206,1,110,2|8,0:0|0:0,0:0:0:0:
320,216,40946,2,0,P|297:265|253:297,1,110,2|8,0:0|0:0,0:0:0:0:
160,328,41696,1,2,0:0:0:0:
104,248,42071,2,0,L|94:138,1,110,8|10,0:0|0:0,0:0:0:0:
116,44,42821,1,0,0:0:0:0:
200,100,43196,6,0,P|299:130|371:53,1,220,4|0,0:0|0:0,0:0:0:0:
468,80,44321,1,8,0:0:0:0:
436,172,44696,2,0,L|426:282,1,110,2|8,0:0|0:0,0:0:0:0:
340,332,45446,1,2,0:0:0:0:
268,264,45821,1,8,0:0:0:0:
184,312,46196,6,0,L|74:302,1,110,2|8,0:0|0:0,0:0:0:0:
28,216,46946,2,0,P|28:160|60:116,1,110,2|8,0:0|0:0,0:0:0:0:
156,100,47696,2,0,L|266:90,2,110,4|0|2,0:0|1:0|0:0,0:0:0:0:
108,188,48821,1,0,1:0:0:0:
106,286,49196,6,0,P|19:227|33:124,1,220,4|0,0:0|0:0,0:0:0:0:
108,188,50321,2,0,L|218:178,1,110,8|2,0:0|0:0,0:0:0:0:
266,91,51071,2,0,L|376:101,1,110,8|2,0:0|0:0,0:0:0:0:
460,152,51821,1,8,0:0:0:0:
488,248,52196,6,0,P|473:300|431:334,1,110,4|8,0:0|0:0,0:0:0:0:
332,324,52946,1,8,0:0:0:0:
296,232,53321,2,0,L|186:222,1,110,8|8,0:0|0:0,0:0:0:0:
116,152,54071,2,0,P|116:96|148:52,1,110,8|8,0:0|0:0,0:0:0:0:
244,44,54821,1,8,0:0:0:0:
292,132,55196,1,0,1:0:0:0:
256,192,55383,12,0,57821,0:0:0:0:
208,88,58196,6,0,P|104:82|53:174,1,220,4|2,0:0|0:0,0:0:0:0:
96,264,59321,1,8,0:0:0:0:
188,228,59696,2,0,P|242:227|286:258,1,110,2|8,0:0|0:0,0:0:0:0:
368,316,60446,2,0,P|412:347|466:346,1,110,2|8,0:0|0:0,0:0:0:0:
508,256,61196,6,0,L|496:129,1,110,2|8,0:0|0:0,0:0:0:0:
436,72,61946,1,2,0:0:0:0:
344,40,62321,1,8,0:0:0:0:
272,108,62696,2,0,L|144:120,1,110,2|8,0:0|0:0,0:0:0:0:
84,180,63446,2,0,P|70:232|91:282,1,110,2|8,0:0|0:0,0:0:0:0:
132,316,64008,1,8,0:0:0:0:
180,324,64196,6,0,B|275:339|275:339|313:339|353:327|384:279,1,220,4|0,0:0|0:0,0:0:0:0:
292,244,65321,2,0,L|183:227,1,110,8|4,0:0|1:0,0:0:0:0:
168,128,66071,1,8,0:0:0:0:
244,64,66446,1,2,0:0:0:0:
332,112,66821,6,0,L|441:129,1,110,8|4,0:0|1:0,0:0:0:0:
496,212,67571,1,8,0:0:0:0:
492,312,67946,2,0,P|449:345|395:346,1,110,8|8,0:0|0:0,0:0:0:0:
320,280,68696,2,0,P|265:281|223:314,1,110,10|8,0:0|0:0,0:0:0:0:
128,344,69446,1,8,0:0:0:0:
64,268,69821,1,4,0:0:0:0:
92,172,70196,6,0,L|311:152,1,220,4|2,0:0|0:0,0:0:0:0:
348,60,71321,1,8,0:0:0:0:
248,64,71696,2,0,L|138:74,1,110,2|8,0:0|0:0,0:0:0:0:
64,140,72446,2,0,P|50:192|71:242,1,110,2|8,0:0|0:0,0:0:0:0:
172,244,73196,5,2,0:0:0:0:
208,336,73571,2,0,L|317:346,1,110,8|4,0:0|0:0,0:0:0:0:
416,344,74321,1,8,0:0:0:0:
460,256,74696,2,0,P|476:201|459:152,1,110,4|12,0:0|0:0,0:0:0:0:
364,132,75446,1,4,0:0:0:0:
320,44,75821,1,8,0:0:0:0:
220,56,76196,6,0,L|95:40,1,110,4|8,1:2|0:0,0:0:0:0:
64,60,76758,1,4,1:0:0:0:
64,60,76946,2,0,P|41:108|49:161,1,110,0|8,0:0|0:0,0:0:0:0:
144,184,77696,2,0,P|193:161|246:171,1,110,4|8,0:0|0:0,0:0:0:0:
324,236,78446,1,4,0:0:0:0:
256,304,78821,1,2,0:0:0:0:
208,308,79008,1,0,0:0:0:0:
168,280,79196,6,0,L|53:265,1,110,0|8,1:0|0:0,0:0:0:0:
24,172,79946,2,0,P|26:118|58:76,1,110,0|8,0:0|0:0,0:0:0:0:
156,52,80696,1,4,0:0:0:0:
448,320,82196,6,0,L|229:340,1,220,4|8,0:0|0:0,0:0:0:0:
188,312,83133,2,0,P|171:260|187:208,1,110,2|0,0:0|1:0,0:0:0:0:
312,132,84071,1,8,0:0:0:0:
244,60,84446,6,0,L|56:37,2,165,2|4|8,0:0|1:0|0:0,0:0:0:0:
312,132,85946,2,0,L|381:140,1,55,0|2,1:0|0:0,0:0:0:0:
448,196,86508,2,0,P|478:295|401:367,1,220,4|4,0:0|1:0,0:0:0:0:
316,320,87633,1,4,0:0:0:0:
256,192,88196,12,0,89508,0:0:0:0:
