osu file format v14

[General]
AudioFilename: Netsujou no Spectrum.mp3
AudioLeadIn: 0
PreviewTime: 58196
Countdown: 0
SampleSet: Soft
StackLeniency: 0.7
Mode: 0
LetterboxInBreaks: 1
WidescreenStoryboard: 0

[Editor]
DistanceSpacing: 1
BeatDivisor: 4
GridSize: 4
TimelineZoom: 1

[Metadata]
Title:Netsujou no Spectrum
TitleUnicode:熱情のスペクトラム
Artist:Ikimono Gakari
ArtistUnicode:いきものがかり
Creator:Raisa12
Version:Insane
Source:七つの大罪
Tags:Nanatsu no Taizai Opening tv size the seven deadly sins
BeatmapID:542529
BeatmapSetID:220414

[Difficulty]
HPDrainRate:7
CircleSize:4
OverallDifficulty:8
ApproachRate:9
SliderMultiplier:1.85
SliderTickRate:1

[Events]
//Background and Video events
0,0,"BG.jpg",0,0
Video,0,"OP.avi"
//Break Periods
//Storyboard Layer 0 (Background)
//Storyboard Layer 1 (Fail)
//Storyboard Layer 2 (Pass)
//Storyboard Layer 3 (Foreground)
//Storyboard Sound Samples

[TimingPoints]
1196,375,4,2,1,80,1,0
1196,-133.333333333333,4,2,1,45,0,0
11508,-100,4,2,1,80,0,0
13196,-100,4,2,1,80,0,1
13289,-100,4,2,1,80,0,0
23696,-133.333333333333,4,2,1,80,0,0
25196,-100,4,2,1,80,0,0
27071,-100,4,2,1,80,0,0
31196,-100,4,2,3,70,0,0
43196,-100,4,2,1,80,0,0
58196,-100,4,2,1,80,0,1
69821,-100,4,2,1,80,0,0
70196,-100,4,2,1,80,0,1
82196,-100,4,2,1,80,0,0
88289,-100,4,2,1,5,0,0

[Colours]
Combo1 : 245,255,64
Combo2 : 102,205,255
Combo3 : 192,192,192
Combo4 : 155,155,255
Combo5 : 255,64,64

[HitObjects]
72,108,1196,6,0,L|224:100,1,138.750005292893,2|0,0:0|0:0,0:0:0:0:
292,124,1758,1,0,0:0:0:0:
343,191,1946,2,0,P|347:226|335:258,1,69.3750026464463,2|0,0:0|0:0,0:0:0:0:
243,326,2321,2,0,P|240:292|252:260,1,69.3750026464463,0|0,0:0|0:0,0:0:0:0:
343,191,2696,1,2,0:0:0:0:
236,52,3446,6,0,L|97:59,1,138.750005292893,2|0,0:0|0:0,0:0:0:0:
40,116,4008,1,0,0:0:0:0:
30,260,4196,6,0,P|90:229|108:164,1,138.750005292893,2|0,0:0|0:0,0:0:0:0:
188,140,4758,1,0,0:0:0:0:
240,208,4946,2,0,L|312:204,1,69.3750026464463,2|0,0:0|0:0,0:0:0:0:
429,271,5321,2,0,L|360:268,1,69.3750026464463,0|0,0:0|0:0,0:0:0:0:
492,216,5696,1,2,0:0:0:0:
120,340,6821,6,0,L|51:337,2,69.3750026464463,0|0|2,0:0|0:0|0:0,0:0:0:0:
188,292,7383,2,0,P|199:259|195:225,1,69.3750026464463,0|0,0:0|0:0,0:0:0:0:
116,248,7758,1,0,0:0:0:0:
216,144,7946,1,2,0:0:0:0:
228,136,8321,6,0,L|297:139,1,69.3750026464463,0|0,0:0|0:0,0:0:0:0:
425,77,8696,2,0,L|356:80,1,69.3750026464463,2|0,0:0|0:0,0:0:0:0:
312,220,9071,2,0,L|381:223,1,69.3750026464463,0|0,0:0|0:0,0:0:0:0:
425,77,9446,1,2,0:0:0:0:
492,232,9821,5,0,0:0:0:0:
448,304,10008,1,0,0:0:0:0:
364,296,10196,6,0,L|225:303,1,138.750005292893,2|0,0:0|0:0,0:0:0:0:
148,276,10758,1,0,0:0:0:0:
184,200,10946,2,0,P|224:140|200:68,1,138.750005292893
144,128,11508,1,0,1:0:0:0:
120,132,11602,1,0,0:0:0:0:
96,136,11696,1,0,1:0:0:0:
296,44,11883,5,0,1:0:0:0:
316,28,12258,2,0,L|407:39,1,92.5,0|2,1:0|0:0,0:0:0:0:
368,280,12633,1,4,0:0:0:0:
364,296,13008,5,0,0:0:0:0:
364,296,13102,1,0,0:0:0:0:
364,296,13196,2,0,L|159:321,1,185,4|8,0:0|0:0,0:0:0:0:
92,292,13758,1,0,0:0:0:0:
76,200,13946,2,0,P|79:153|127:91,1,92.5,2|0,0:0|0:0,0:0:0:0:
213,52,14321,2,0,P|210:98|189:139,1,92.5,8|0,0:0|0:0,0:0:0:0:
76,200,14696,5,2,0:0:0:0:
92,292,14883,1,0,0:0:0:0:
92,292,14977,1,0,0:0:0:0:
92,292,15071,1,8,0:0:0:0:
228,232,15258,1,0,0:0:0:0:
312,192,15446,2,0,L|404:185,1,92.5,2|0,0:0|0:0,0:0:0:0:
272,313,15821,2,0,L|180:320,1,92.5,8|0,0:0|0:0,0:0:0:0:
76,200,16196,5,2,0:0:0:0:
164,168,16383,1,0,0:0:0:0:
164,168,16477,1,0,0:0:0:0:
164,168,16571,2,0,P|209:165|253:180,1,92.5,8|0,0:0|0:0,0:0:0:0:
416,108,16946,1,4,0:0:0:0:
354,264,17133,2,0,L|348:172,1,92.5,0|8,0:0|0:0,0:0:0:0:
296,96,17508,1,0,0:0:0:0:
276,77,17602,1,0,0:0:0:0:
256,58,17696,6,0,L|164:51,1,92.5,4|0,0:0|0:0,0:0:0:0:
44,147,18071,2,0,L|136:140,1,92.5,12|8,0:0|0:0,0:0:0:0:
248,196,18446,1,4,0:0:0:0:
160,228,18634,2,0,L|152:288,1,46.25,8|0,0:0|0:0,0:0:0:0:
213,369,18821,2,0,L|220:324,1,46.25,8|0,0:0|0:0,0:0:0:0:
288,272,19008,1,8,0:0:0:0:
415,204,19196,6,0,P|469:134|439:51,1,185,4|8,0:0|0:0,0:0:0:0:
380,121,19758,1,4,1:2:0:0:
324,193,19946,2,0,L|232:200,1,92.5,2|0,0:0|0:0,0:0:0:0:
104,123,20321,2,0,L|196:116,1,92.5,8|0,0:0|0:0,0:0:0:0:
260,260,20696,5,4,0:0:0:0:
324,192,20883,1,0,0:0:0:0:
196,116,21071,1,12,0:0:0:0:
184,208,21258,1,0,0:0:0:0:
288,108,21446,1,2,0:0:0:0:
304,92,21821,6,0,L|396:85,1,92.5,8|0,0:0|0:0,0:0:0:0:
488,84,22196,2,0,P|518:167|464:237,1,185,4|8,0:0|0:0,0:0:0:0:
376,268,22758,1,0,0:0:0:0:
324,192,22946,1,8,0:0:0:0:
324,192,23039,1,0,0:0:0:0:
324,192,23133,1,0,3:0:0:0:
324,192,23227,1,0,0:0:0:0:
284,216,23321,5,8,0:0:0:0:
240,220,23414,1,0,0:0:0:0:
200,200,23508,1,0,3:0:0:0:
168,168,23602,1,0,0:0:0:0:
164,120,23696,2,0,P|105:85|39:110,1,138.750005292893,4|0,0:0|0:0,0:0:0:0:
32,132,24446,5,8,3:0:0:0:
92,292,24633,1,4,3:0:0:0:
328,56,25196,6,0,P|414:52|468:148,1,185,4|0,1:2|1:0,1:0:0:0:
424,208,25758,1,0,0:0:0:0:
424,208,25852,1,0,0:0:0:0:
424,208,25946,1,8,0:0:0:0:
340,248,26133,1,0,0:0:0:0:
276,180,26321,1,0,0:0:0:0:
100,320,26508,5,4,0:0:0:0:
92,292,27071,1,0,1:0:0:0:
128,116,27258,1,0,0:0:0:0:
128,116,27352,1,0,0:0:0:0:
129,116,27446,2,0,L|136:208,1,92.5,8|0,0:0|0:0,0:0:0:0:
180,40,27821,1,8,0:0:0:0:
296,148,28008,5,4,1:0:0:0:
303,163,28571,2,0,P|339:192|384:191,1,92.5,8|0,0:0|0:0,0:0:0:0:
428,212,28852,1,0,0:0:0:0:
471,236,28946,2,0,L|464:144,1,92.5,8|0,0:0|0:0,0:0:0:0:
428,320,29321,1,2,0:0:0:0:
369,100,29508,5,4,1:0:0:0:
355,86,29883,1,4,1:0:0:0:
341,72,30258,1,4,1:0:0:0:
326,58,30633,2,0,L|234:51,1,92.5,4|0,1:0|0:0,0:0:0:0:
164,112,31008,1,0,0:0:0:0:
86,245,31196,6,0,P|73:201|80:156,1,92.5,2|0,0:0|0:0,0:0:0:0:
234,51,31571,1,0,0:0:0:0:
164,112,31758,1,0,0:0:0:0:
326,58,31946,2,0,L|418:65,1,92.5,2|0,0:0|0:0,0:0:0:0:
492,231,32321,2,0,L|400:224,1,92.5,8|0,0:0|0:0,0:0:0:0:
234,51,32696,6,0,L|326:58,1,92.5,2|0,0:0|0:0,0:0:0:0:
436,144,33071,1,0,0:0:0:0:
304,228,33258,1,0,0:0:0:0:
326,58,33446,2,0,P|344:99|342:145,1,92.5,2|0,0:0|0:0,0:0:0:0:
164,112,33821,1,8,0:0:0:0:
233,50,34008,1,0,0:0:0:0:
305,294,34196,6,0,P|366:229|344:144,1,185,2|0,0:0|0:0,0:0:0:0:
326,58,34758,1,0,0:0:0:0:
164,111,34946,2,0,P|119:125|74:117,1,92.5,2|0,0:0|0:0,0:0:0:0:
255,115,35321,2,0,P|269:160|261:205,1,92.5,8|0,0:0|0:0,0:0:0:0:
140,344,35696,5,2,0:0:0:0:
208,280,35883,1,0,0:0:0:0:
296,308,36071,2,0,L|388:301,1,92.5,0|0,0:0|0:0,0:0:0:0:
240,192,36446,2,0,L|148:199,1,92.5,2|0,0:0|0:0,0:0:0:0:
72,252,36821,1,8,0:0:0:0:
220,100,37008,1,0,0:0:0:0:
328,216,37196,5,2,0:0:0:0:
240,192,37383,1,0,0:0:0:0:
288,36,37571,2,0,L|380:29,1,92.5,0|0,0:0|0:0,0:0:0:0:
220,100,37946,2,0,L|128:107,1,92.5,2|0,0:0|0:0,0:0:0:0:
112,288,38321,1,8,0:0:0:0:
56,168,38508,1,0,0:0:0:0:
228,207,38696,6,0,P|271:194|316:201,1,92.5,2|0,0:0|0:0,0:0:0:0:
134,196,39071,2,0,P|120:153|127:107,1,92.5,0|0,0:0|0:0,0:0:0:0:
168,24,39446,1,2,0:0:0:0:
312,116,39633,1,0,0:0:0:0:
228,208,39821,1,8,0:0:0:0:
312,340,40008,5,0,0:0:0:0:
312,340,40102,1,0,0:0:0:0:
312,340,40196,2,0,P|408:352|472:288,1,185,2|8,0:0|0:0,0:0:0:0:
424,216,40758,1,0,0:0:0:0:
312,340,40946,2,0,L|220:347,1,92.5,2|0,0:0|0:0,0:0:0:0:
72,235,41321,2,0,L|164:228,1,92.5,8|0,0:0|0:0,0:0:0:0:
312,116,41696,5,2,0:0:0:0:
248,260,41883,1,0,0:0:0:0:
248,260,41977,1,0,0:0:0:0:
248,260,42071,2,0,P|261:304|254:349,1,92.5,8|0,0:0|0:0,0:0:0:0:
332,208,42446,1,10,0:0:0:0:
336,116,42633,1,8,0:3:0:0:
480,152,42821,1,8,0:3:0:0:
420,80,43008,1,0,0:0:0:0:
248,260,43196,6,0,L|43:285,1,185,4|8,0:0|0:0,0:0:0:0:
76,192,43758,1,0,0:0:0:0:
92,100,43946,2,0,L|183:88,1,92.5,2|0,0:0|0:0,0:0:0:0:
316,188,44321,1,8,0:0:0:0:
276,104,44508,1,0,0:0:0:0:
256,260,44696,6,0,L|165:272,1,92.5,2|0,0:0|0:0,0:0:0:0:
120,256,44977,1,0,0:0:0:0:
92,216,45071,2,0,P|92:170|116:131,1,92.5,8|0,0:0|0:0,0:0:0:0:
268,172,45446,2,0,P|230:196|185:196,1,92.5,2|0,0:0|0:0,0:0:0:0:
145,43,45821,2,0,P|184:67|204:109,1,92.5,8|0,0:0|0:0,0:0:0:0:
36,288,46196,5,2,0:0:0:0:
36,288,46383,1,0,0:0:0:0:
112,344,46571,2,0,L|203:335,1,92.5,8|0,0:0|0:0,0:0:0:0:
351,268,46946,2,0,L|260:260,1,92.5,2|0,0:0|0:0,0:0:0:0:
164,140,47321,1,8,0:0:0:0:
172,232,47509,1,0,0:0:0:0:
96,80,47696,6,0,P|135:54|180:49,1,92.5,4|0,0:0|0:0,0:0:0:0:
394,148,48071,2,0,P|355:173|310:179,1,92.5,0|0,1:0|0:0,0:0:0:0:
96,80,48446,2,0,P|135:54|180:49,1,92.5,2|0,0:0|0:0,0:0:0:0:
224,64,48727,1,0,0:0:0:0:
256,100,48821,2,0,L|347:88,1,92.5,0|0,1:0|0:0,0:0:0:0:
427,230,49196,6,0,P|476:156|440:76,1,185,4|8,0:0|0:0,0:0:0:0:
348,88,49758,1,0,0:0:0:0:
332,180,49946,2,0,L|241:192,1,92.5,2|0,0:0|0:0,0:0:0:0:
113,264,50321,2,0,L|204:276,1,92.5,8|0,0:0|0:0,0:0:0:0:
348,88,50696,5,2,0:0:0:0:
332,180,50883,1,0,0:0:0:0:
332,180,50977,1,0,0:0:0:0:
332,180,51071,2,0,L|241:192,1,92.5,8|0,0:0|0:0,0:0:0:0:
97,304,51446,2,0,L|188:316,1,92.5,2|0,0:0|0:0,0:0:0:0:
272,280,51821,1,8,0:0:0:0:
408,233,52009,1,0,0:0:0:0:
255,75,52196,6,0,P|191:56|134:92,1,138.75,4|0,0:0|0:0,0:0:0:0:
140,140,52571,2,0,L|48:133,1,92.5,8|0,0:0|0:0,0:0:0:0:
160,232,52946,2,0,L|309:243,1,138.75,8|0,0:0|0:0,0:0:0:0:
336,215,53321,2,0,P|347:171|332:128,1,92.5,8|0,0:0|0:0,0:0:0:0:
134,92,53696,5,8,0:0:0:0:
160,232,53883,1,0,0:0:0:0:
68,156,54071,1,8,0:0:0:0:
244,196,54258,1,0,0:0:0:0:
200,336,54446,1,8,0:0:0:0:
312,132,54633,1,0,0:0:0:0:
276,284,54821,1,8,0:0:0:0:
403,135,55008,5,0,0:0:0:0:
403,135,55102,1,0,0:0:0:0:
403,135,55196,2,0,P|427:222|384:301,1,185,0|0,1:0|0:0,1:0:0:0:
231,179,55758,2,0,P|207:92|251:14,1,185,0|0,1:0|0:0,1:0:0:0:
244,272,56321,2,0,L|152:265,1,92.5,0|0,1:0|0:0,0:0:0:0:
80,320,56696,6,0,L|8:314,1,46.25,0|0,1:0|0:0,0:0:0:0:
312,132,57258,6,0,L|383:126,1,46.25,0|0,1:0|0:0,0:0:0:0:
436,136,57446,2,0,P|456:156|472:192,1,46.25,2|0,0:0|0:0,0:0:0:0:
412,232,57633,2,0,P|404:259|381:291,1,46.25,0|0,0:0|0:0,0:0:0:0:
336,328,57821,1,2,0:0:0:0:
308,328,57914,1,0,0:0:0:0:
284,316,58008,1,0,0:0:0:0:
268,292,58102,1,0,0:0:0:0:
272,264,58196,6,0,P|193:219|106:243,1,185,4|8,0:0|0:0,1:0:0:0:
80,156,58758,1,0,0:0:0:0:
124,72,58946,2,0,L|214:54,1,92.5,2|0,0:0|0:0,0:0:0:0:
378,154,59321,2,0,L|288:172,1,92.5,8|0,0:0|0:0,0:0:0:0:
172,308,59696,5,2,0:0:0:0:
208,144,59883,1,0,0:0:0:0:
208,144,59977,1,0,0:0:0:0:
208,144,60071,1,8,0:0:0:0:
152,216,60258,1,0,0:0:0:0:
288,100,60446,2,0,P|333:97|374:118,1,92.5,2|0,0:0|0:0,0:0:0:0:
344,288,60821,1,8,0:0:0:0:
392,208,61008,1,0,0:0:0:0:
256,260,61196,6,0,L|165:272,1,92.5,2|0,0:0|0:0,0:0:0:0:
92,216,61571,2,0,P|92:170|116:131,1,92.5,8|0,0:0|0:0,0:0:0:0:
268,172,61946,2,0,P|230:196|185:196,1,92.5,2|0,0:0|0:0,0:0:0:0:
145,43,62321,2,0,P|184:67|204:109,1,92.5,8|0,0:0|0:0,0:0:0:0:
36,288,62696,5,2,0:0:0:0:
116,132,62883,1,0,0:0:0:0:
252,184,63071,1,8,0:0:0:0:
92,216,63258,1,0,0:0:0:0:
204,104,63446,1,2,0:0:0:0:
336,148,63633,1,0,0:0:0:0:
224,272,63821,1,8,0:0:0:0:
145,43,64008,5,8,0:0:0:0:
145,43,64102,1,0,0:0:0:0:
145,43,64196,2,0,P|200:20|248:32,1,92.5,4|0,0:0|0:0,0:0:0:0:
336,148,64571,1,8,0:0:0:0:
316,56,64758,1,0,0:0:0:0:
252,184,64946,2,0,P|176:215|110:199,1,138.75,2|0,0:0|0:0,0:0:0:0:
108,160,65321,2,0,L|17:172,1,92.5,8|8,0:0|0:0,0:0:0:0:
320,240,65696,6,0,L|506:215,2,185,4|8|2,1:0|0:0|0:0,0:0:0:0:
240,196,66633,1,0,0:0:0:0:
316,328,66821,1,8,0:0:0:0:
180,268,67008,1,0,0:0:0:0:
180,268,67102,1,0,0:0:0:0:
180,268,67196,1,4,1:0:0:0:
224,348,67383,1,0,0:0:0:0:
291,118,67571,6,0,P|227:99|170:135,1,138.75,8|0,0:0|0:0,0:0:0:0:
176,183,67946,2,0,L|84:176,1,92.5,8|0,0:0|0:0,0:0:0:0:
368,64,68321,2,0,L|460:57,1,92.5,8|0,0:0|0:0,0:0:0:0:
256,228,68696,6,0,L|261:304,2,46.25,10|0|0,0:0|0:0|0:0,0:0:0:0:
48,160,69071,2,0,L|51:113,2,46.25,10|0|0,0:0|0:0|0:0,0:0:0:0:
204,76,69446,1,10,0:0:0:0:
116,44,69633,1,0,0:0:0:0:
256,228,69821,1,12,0:0:0:0:
267,247,70196,6,0,P|304:275|349:278,1,92.5,4|0,0:0|0:0,1:0:0:0:
412,212,70571,1,8,0:0:0:0:
300,356,70758,1,0,0:0:0:0:
231,162,70946,2,0,P|195:136|149:132,1,92.5,2|0,0:0|0:0,0:0:0:0:
100,276,71321,1,8,0:0:0:0:
76,188,71508,1,0,0:0:0:0:
268,76,71696,5,2,0:0:0:0:
412,108,71883,1,0,0:0:0:0:
412,108,71977,1,0,0:0:0:0:
412,108,72071,1,8,0:0:0:0:
352,36,72258,1,0,0:0:0:0:
376,192,72446,2,0,L|358:282,1,92.5,2|0,0:0|0:0,0:0:0:0:
186,366,72821,2,0,L|204:276,1,92.5,8|0,0:0|0:0,0:0:0:0:
336,108,73196,5,2,0:0:0:0:
284,228,73383,1,0,0:0:0:0:
284,228,73477,1,0,0:0:0:0:
284,228,73571,1,8,0:0:0:0:
252,140,73758,1,0,0:0:0:0:
128,44,73946,1,4,0:0:0:0:
160,132,74133,1,0,0:0:0:0:
80,180,74321,2,0,L|98:270,1,92.5,8|0,0:0|0:0,0:0:0:0:
252,140,74696,6,0,L|270:50,1,92.5,4|0,0:0|0:0,0:0:0:0:
360,284,75071,2,0,L|378:374,1,92.5,4|0,0:0|0:0,0:0:0:0:
444,248,75446,1,12,0:0:0:0:
437,201,75539,1,0,0:0:0:0:
430,154,75633,1,8,0:3:0:0:
423,109,75727,1,0,0:0:0:0:
416,64,75821,2,0,P|370:57|328:74,1,92.5,8|0,0:0|0:0,0:0:0:0:
224,228,76196,5,4,1:2:0:0:
172,104,76383,1,0,0:0:0:0:
80,120,76571,1,8,0:0:0:0:
240,44,76758,1,0,1:2:0:0:
72,212,76946,2,0,P|65:258|82:300,1,92.5,0|0,0:0|0:0,0:0:0:0:
223,228,77321,2,0,P|231:182|214:140,1,92.5,8|0,0:0|0:0,0:0:0:0:
176,308,77696,5,4,0:0:0:0:
316,204,77883,1,0,0:0:0:0:
316,356,78071,1,8,0:0:0:0:
372,280,78258,1,0,0:0:0:0:
214,140,78446,6,0,L|122:128,1,92.5,4|0,0:0|0:0,0:0:0:0:
44,176,78821,1,8,0:0:0:0:
256,56,79008,1,0,0:0:0:0:
340,92,79196,1,0,1:0:0:0:
214,140,79383,1,0,0:0:0:0:
148,204,79571,6,0,P|136:232|146:271,1,46.25,8|0,0:0|0:0,0:0:0:0:
152,280,79757,1,0,0:0:0:0:
184,300,79852,1,0,0:0:0:0:
220,312,79946,1,8,0:0:0:0:
256,316,80039,1,0,0:0:0:0:
292,312,80133,1,0,0:0:0:0:
328,300,80226,1,0,0:0:0:0:
360,280,80321,2,0,P|377:237|371:192,1,92.5,8|0,0:0|0:0,0:0:0:0:
256,56,80696,5,4,0:0:0:0:
256,56,81446,5,8,3:0:0:0:
148,204,81633,1,8,3:0:0:0:
372,44,82196,6,0,P|452:84|432:204,1,185,4|8,0:0|0:0,0:0:0:0:
396,240,82758,1,0,0:0:0:0:
396,240,82852,1,0,0:0:0:0:
396,240,82946,1,0,1:0:0:0:
428,328,83133,1,2,0:0:0:0:
148,204,83508,5,4,0:0:0:0:
412,296,84071,1,0,1:0:0:0:
376,120,84258,1,0,0:0:0:0:
376,120,84352,1,0,0:0:0:0:
375,120,84446,2,0,L|368:212,1,92.5,0|2,1:0|0:0,0:0:0:0:
324,44,84821,1,8,0:0:0:0:
208,152,85008,5,4,1:0:0:0:
192,176,85571,2,0,P|135:144|79:173,1,92.5,8|0,0:0|0:0,0:0:0:0:
72,172,85852,1,0,0:0:0:0:
32,196,85946,2,0,L|25:104,1,92.5,0|2,1:0|0:0,0:0:0:0:
68,20,86321,1,0,0:0:0:0:
128,240,86508,5,4,1:0:0:0:
142,254,86883,1,4,1:0:0:0:
156,268,87258,1,4,1:0:0:0:
170,282,87633,2,0,L|368:298,1,185,4|0,0:0|0:0,0:0:0:0:
440,264,88196,1,4,0:0:0:0:
256,192,88289,12,0,89508,0:0:0:0:
