osu file format v14

[General]
AudioFilename: Netsujou no Spectrum.mp3
AudioLeadIn: 0
PreviewTime: 58196
Countdown: 0
SampleSet: Soft
StackLeniency: 0.7
Mode: 0
LetterboxInBreaks: 1
WidescreenStoryboard: 0

[Editor]
DistanceSpacing: 1
BeatDivisor: 4
GridSize: 4
TimelineZoom: 1

[Metadata]
Title:Netsujou no Spectrum
TitleUnicode:熱情のスペクトラム
Artist:Ikimono Gakari
ArtistUnicode:いきものがかり
Creator:Raisa12
Version:Hard
Source:七つの大罪
Tags:Nanatsu no Taizai Opening tv size the seven deadly sins
BeatmapID:515805
BeatmapSetID:220414

[Difficulty]
HPDrainRate:5
CircleSize:4
OverallDifficulty:6
ApproachRate:7
SliderMultiplier:1.6
SliderTickRate:1

[Events]
//Background and Video events
0,0,"BG.jpg",0,0
Video,0,"OP.avi"
//Break Periods
//Storyboard Layer 0 (Background)
//Storyboard Layer 1 (Fail)
//Storyboard Layer 2 (Pass)
//Storyboard Layer 3 (Foreground)
//Storyboard Sound Samples

[TimingPoints]
1196,375,4,2,1,80,1,0
1196,-133.333333333333,4,2,1,45,0,0
11508,-133.333333333333,4,2,1,80,0,0
13196,-100,4,2,1,80,0,0
26508,-100,4,2,1,80,0,0
31196,-100,4,2,3,70,0,0
43196,-100,4,2,1,80,0,0
58196,-100,4,2,1,80,0,1
69821,-100,4,2,1,80,0,0
70196,-100,4,2,1,80,0,1
82196,-100,4,2,1,80,0,0
88196,-100,4,2,1,5,0,0

[Colours]
Combo1 : 245,255,64
Combo2 : 102,205,255
Combo3 : 192,192,192
Combo4 : 155,155,255
Combo5 : 255,64,64

[HitObjects]
48,132,1196,6,0,P|44:193|84:236,1,120.000004577637,2|0,0:0|0:0,0:0:0:0:
192,308,1946,2,0,P|196:247|156:204,1,120.000004577637,2|0,0:0|0:0,0:0:0:0:
200,80,2696,1,2,0:0:0:0:
464,56,3446,6,0,L|440:180,1,120.000004577637,2|0,0:0|0:0,0:0:0:0:
372,288,4196,2,0,L|348:164,1,120.000004577637,2|0,0:0|0:0,0:0:0:0:
303,46,4946,2,0,P|242:42|199:82,1,120.000004577637,2|0,0:0|0:0,0:0:0:0:
160,205,5696,1,2,0:0:0:0:
276,328,6821,6,0,L|352:324,1,60.0000022888184
412,348,7196,2,0,P|440:292|416:224,1,120.000004577637,2|0,0:0|0:0,0:0:0:0:
360,196,7758,1,0,0:0:0:0:
296,244,7946,2,0,L|167:250,1,120.000004577637,2|0,0:0|0:0,0:0:0:0:
100,228,8508,1,0,0:0:0:0:
64,156,8696,6,0,P|70:126|88:103,1,60.0000022888184,2|0,0:0|0:0,0:0:0:0:
100,228,9071,2,0,P|93:257|75:280,1,60.0000022888184,0|0,0:0|0:0,0:0:0:0:
140,160,9446,2,0,L|263:153,1,120.000004577637,2|0,0:0|0:0,0:0:0:0:
336,148,10008,1,0,0:0:0:0:
372,80,10196,6,0,P|410:128|402:186,1,120.000004577637,2|0,0:0|0:0,0:0:0:0:
384,260,10758,1,0,0:0:0:0:
344,328,10946,2,0,L|219:323,1,120.000004577637,2|0,0:0|0:0,0:0:0:0:
152,292,11508,1,0,1:0:0:0:
124,295,11602,1,0,1:0:0:0:
93,299,11696,1,0,1:0:0:0:
28,252,11883,6,0,P|23:188|62:138,1,120.000004577637,0|0,1:0|1:0,0:0:0:0:
124,108,12446,1,2,0:0:0:0:
204,108,12633,2,0,B|268:122|275:88|345:105,1,120.000004577637,0|0,1:0|0:0,0:0:0:0:
400,76,13196,6,0,P|440:148|396:240,1,160,4|8,0:0|0:0,0:0:0:0:
372,284,13758,1,0,0:0:0:0:
292,276,13946,2,0,L|206:281,1,80,2|0,0:0|0:0,0:0:0:0:
116,209,14321,2,0,L|196:204,1,80,8|0,0:0|0:0,0:0:0:0:
60,268,14696,6,0,P|36:228|88:132,1,160,2|8,0:0|0:0,0:0:0:0:
160,132,15258,1,0,0:0:0:0:
201,63,15446,2,0,P|163:53|124:61,1,80,2|0,0:0|0:0,0:0:0:0:
243,129,15821,2,0,P|280:139|320:131,1,80,8|0,0:0|0:0,0:0:0:0:
160,132,16196,6,0,L|139:289,1,160,2|8,0:0|0:0,0:0:0:0:
192,352,16758,1,0,0:0:0:0:
260,308,16946,2,0,P|300:284|396:336,1,160,2|8,0:0|0:0,0:0:0:0:
468,304,17508,1,0,0:0:0:0:
448,228,17696,6,0,L|443:148,2,80,4|0|12,0:0|0:0|0:0,0:0:0:0:
388,284,18258,1,8,0:0:0:0:
312,260,18446,2,0,P|274:270|235:262,1,80,4|0,0:0|0:0,0:0:0:0:
172,212,18821,2,0,P|133:203|94:216,1,80,8|0,0:0|0:0,0:0:0:0:
136,280,19196,5,4,0:0:0:0:
192,336,19383,2,0,L|271:331,1,80,0|8,0:0|0:0,0:0:0:0:
312,260,19758,1,4,1:0:0:0:
352,188,19946,1,2,0:0:0:0:
272,52,20321,6,0,L|192:57,1,80,8|0,0:0|0:0,0:0:0:0:
140,120,20696,2,0,P|129:158|138:197,2,80,4|0|12,0:0|0:0|0:0,0:0:0:0:
212,160,21258,1,0,0:0:0:0:
244,232,21446,2,0,B|317:249|325:210|405:229,1,160,2|8,0:0|0:0,0:0:0:0:
440,300,22008,1,0,0:0:0:0:
360,300,22196,6,0,P|327:266|354:161,1,160,2|8,0:0|0:0,0:0:0:0:
392,96,22758,1,0,0:0:0:0:
336,40,22946,2,0,L|256:45,1,80,2|0,0:0|0:0,0:0:0:0:
196,100,23321,2,0,L|116:95,1,80,8|0,0:0|0:0,0:0:0:0:
36,84,23696,1,4,0:0:0:0:
28,92,24446,5,8,3:0:0:0:
197,99,24633,1,4,3:0:0:0:
256,192,25008,12,4,26508,1:0:0:0:
232,284,27071,6,0,P|172:332|64:320,1,160,8|2,0:0|0:0,0:0:0:0:
36,276,27633,1,0,0:0:0:0:
68,204,27821,2,0,L|73:124,1,80,8|4,0:0|1:0,0:0:0:0:
296,40,28571,6,0,P|374:40|436:89,1,160,8|2,0:0|0:0,0:0:0:0:
460,164,29133,1,0,0:0:0:0:
452,244,29321,1,8,0:0:0:0:
398,303,29508,5,4,1:0:0:0:
278,191,29883,1,4,1:0:0:0:
418,321,30258,1,4,1:0:0:0:
254,168,30633,1,4,1:0:0:0:
48,44,31196,6,0,L|37:123,1,80,2|0,0:0|0:0,0:0:0:0:
88,188,31571,2,0,L|98:267,1,80,0|0,0:0|0:0,0:0:0:0:
148,332,31946,2,0,P|186:340|224:329,1,80,2|0,0:0|0:0,0:0:0:0:
272,264,32321,1,8,0:0:0:0:
308,134,32508,6,0,P|235:108|174:155,1,160,0|0,0:0|0:0,0:0:0:0:
248,188,33071,1,0,0:0:0:0:
308,134,33258,2,0,P|298:95|308:56,1,80,0|2,0:0|0:0,0:0:0:0:
380,96,33633,2,0,P|388:134|378:173,1,80,0|8,0:0|0:0,0:0:0:0:
424,240,34008,1,0,0:0:0:0:
424,240,34102,1,0,0:0:0:0:
424,240,34196,6,0,B|396:261|357:252|357:252|368:312|316:344,1,160,2|0,0:0|0:0,0:0:0:0:
256,304,34758,1,0,0:0:0:0:
180,332,34946,2,0,B|142:310|153:250|153:250|114:259|86:238,1,160,2|8,0:0|0:0,0:0:0:0:
132,172,35508,1,0,0:0:0:0:
112,96,35696,6,0,L|188:73,1,80,2|0,0:0|0:0,0:0:0:0:
256,116,36071,1,0,0:0:0:0:
324,72,36259,2,0,L|400:94,1,80,0|2,0:0|0:0,0:0:0:0:
456,152,36633,2,0,P|463:190|452:228,1,80,0|8,0:0|0:0,0:0:0:0:
372,346,37008,6,0,B|329:349|329:349|285:353|254:345|229:305,1,160,0|0,0:0|0:0,0:0:0:0:
301,269,37570,2,0,L|380:264,1,80,0|0,0:0|0:0,0:0:0:0:
392,184,37946,1,2,0:0:0:0:
396,104,38133,1,0,0:0:0:0:
324,72,38321,1,8,0:0:0:0:
252,204,38508,6,0,P|213:231|113:188,1,160,0|0,0:0|0:0,0:0:0:0:
108,112,39071,1,0,0:0:0:0:
32,132,39258,2,0,L|14:210,1,80,0|2,0:0|0:0,0:0:0:0:
76,264,39633,2,0,L|93:342,1,80,0|8,0:0|0:0,0:0:0:0:
172,356,40008,1,0,0:0:0:0:
116,194,40196,6,0,L|137:35,1,160,2|8,0:0|0:0,0:0:0:0:
212,12,40758,1,0,0:0:0:0:
240,88,40946,2,0,L|219:247,1,160,2|8,0:0|0:0,0:0:0:0:
252,320,41508,2,0,P|287:338|326:337,1,80,0|2,0:0|0:0,0:0:0:0:
396,296,41883,1,0,0:0:0:0:
428,220,42071,6,0,L|423:140,1,80,8|0,0:0|0:0,0:0:0:0:
420,100,42352,1,0,0:0:0:0:
420,100,42446,2,0,P|384:81|345:83,1,80,10|0,0:0|0:0,0:0:0:0:
296,148,42821,2,0,P|260:168|221:167,1,80,0|0,0:0|0:0,0:0:0:0:
240,88,43196,6,0,B|162:69|154:108|81:91,1,160,4|8,0:0|0:0,0:0:0:0:
20,140,43758,1,0,0:0:0:0:
16,220,43946,2,0,L|102:215,1,80,2|0,0:0|0:0,0:0:0:0:
192,287,44321,2,0,L|112:292,1,80,8|0,0:0|0:0,0:0:0:0:
248,228,44696,6,0,P|272:268|220:364,1,160,2|8,0:0|0:0,0:0:0:0:
192,287,45258,2,0,P|171:252|168:213,1,80,0|2,0:0|0:0,0:0:0:0:
172,132,45633,1,0,0:0:0:0:
240,88,45821,1,8,0:0:0:0:
168,52,46008,1,0,0:0:0:0:
312,128,46196,6,0,P|352:152|448:100,1,160,2|8,0:0|0:0,0:0:0:0:
372,76,46758,1,0,0:0:0:0:
302,44,46946,2,0,P|264:59|239:89,1,80,2|0,0:0|0:0,0:0:0:0:
172,132,47321,2,0,L|93:137,1,80,8|0,0:0|0:0,0:0:0:0:
44,248,47696,5,4,0:0:0:0:
188,316,48071,1,0,1:0:0:0:
240,164,48446,1,2,0:0:0:0:
328,296,48821,2,0,L|407:301,1,80,0|0,1:0|0:0,0:0:0:0:
264,244,49196,6,0,L|185:239,1,80,4|0,0:0|0:0,0:0:0:0:
104,228,49571,1,8,0:0:0:0:
64,156,49758,1,0,0:0:0:0:
88,80,49946,2,0,L|174:75,1,80,2|0,0:0|0:0,0:0:0:0:
264,147,50321,2,0,L|184:152,1,80,8|0,0:0|0:0,0:0:0:0:
320,88,50696,6,0,P|344:128|292:224,1,160,2|8,0:0|0:0,0:0:0:0:
248,284,51258,1,0,0:0:0:0:
248,284,51446,2,0,L|168:289,1,80,2|0,0:0|0:0,0:0:0:0:
312,220,51821,2,0,L|392:215,1,80,8|2,0:0|0:0,0:0:0:0:
456,164,52196,6,0,P|461:105|424:60,1,120.000004577637,4|0,0:0|0:0,0:0:0:0:
392,88,52571,2,0,L|312:93,1,80,8|0,0:0|0:0,0:0:0:0:
260,32,52946,2,0,P|216:37|185:62,1,80,8|0,0:0|0:0,0:0:0:0:
160,132,53321,1,8,0:0:0:0:
200,204,53508,1,0,0:0:0:0:
92,88,53696,6,0,L|95:7,1,80,8|0,0:0|0:0,0:0:0:0:
29,153,54071,2,0,L|25:233,1,80,8|0,0:0|0:0,0:0:0:0:
84,288,54446,2,0,P|123:292|157:273,1,80,8|0,0:0|0:0,0:0:0:0:
273,189,54821,2,0,P|234:185|200:203,1,80,8|0,0:0|0:0,0:0:0:0:
196,344,55196,1,0,1:0:0:0:
256,192,55383,12,4,56696,1:0:0:0:
256,200,57258,5,4,1:0:0:0:
472,89,58196,6,0,P|410:40|332:40,1,160,4|8,0:0|0:0,0:0:0:0:
256,68,58758,1,0,0:0:0:0:
295,140,58946,2,0,P|284:178|257:207,1,80,2|0,0:0|0:0,0:0:0:0:
144,292,59321,2,0,P|153:253|180:224,1,80,8|0,0:0|0:0,0:0:0:0:
256,68,59696,6,0,L|415:89,1,160,2|8,0:0|0:0,0:0:0:0:
428,168,60258,1,0,0:0:0:0:
491,216,60446,2,0,B|473:242|434:248|434:248|460:288|440:336,1,160,2|8,0:0|0:0,0:0:0:0:
372,296,61008,1,0,0:0:0:0:
304,256,61196,6,0,L|225:261,1,80,2|0,0:0|0:0,0:0:0:0:
160,308,61571,1,8,0:0:0:0:
70,194,61758,2,0,L|88:272,1,80,0|2,0:0|0:0,0:0:0:0:
132,140,62133,2,0,L|149:62,1,80,0|8,0:0|0:0,0:0:0:0:
228,48,62508,1,0,0:0:0:0:
172,210,62696,6,0,L|193:369,1,160,2|8,0:0|0:0,0:0:0:0:
272,348,63258,1,0,0:0:0:0:
292,272,63446,2,0,L|271:113,1,160,2|8,0:0|0:0,0:0:0:0:
304,40,64008,1,8,0:0:0:0:
304,40,64102,1,0,0:0:0:0:
304,40,64196,6,0,P|343:39|377:59,1,80,4|0,0:0|0:0,0:0:0:0:
424,203,64571,1,8,0:0:0:0:
424,124,64758,1,0,0:0:0:0:
376,268,64946,2,0,P|317:273|272:236,1,120.000004577637,2|0,0:0|0:0,0:0:0:0:
284,196,65321,2,0,L|204:191,1,80,8|8,0:0|0:0,0:0:0:0:
140,140,65696,6,0,P|125:64|179:9,2,160,4|8|2,1:0|0:0|0:0,0:0:0:0:
204,188,66633,1,0,0:0:0:0:
272,232,66821,2,0,L|368:240,1,80,8|0,0:0|0:0,0:0:0:0:
388,228,67102,1,0,0:0:0:0:
388,228,67196,6,0,P|397:189|385:152,1,80,4|0,1:0|0:0,0:0:0:0:
332,91,67571,2,0,P|279:117|223:103,1,120.000004577637,8|0,0:0|0:0,0:0:0:0:
216,64,67946,2,0,L|136:70,1,80,8|0,0:0|0:0,0:0:0:0:
80,128,68321,2,0,P|66:165|74:204,1,80,8|0,0:0|0:0,0:0:0:0:
96,236,68602,1,0,0:0:0:0:
96,236,68696,5,10,0:0:0:0:
172,264,68883,1,0,0:0:0:0:
204,188,69071,2,0,L|282:205,1,80,8|0,0:0|0:0,0:0:0:0:
394,297,69446,2,0,L|316:280,1,80,8|0,0:0|0:0,0:0:0:0:
284,124,69821,1,12,0:0:0:0:
273,101,70196,6,0,P|212:53|133:54,1,160,4|8,0:0|0:0,0:0:0:0:
76,108,70758,1,0,0:0:0:0:
108,180,70946,2,0,L|113:260,1,80,2|0,0:0|0:0,0:0:0:0:
197,360,71321,2,0,L|192:280,1,80,8|0,0:0|0:0,0:0:0:0:
288,180,71696,6,0,P|363:195|418:141,1,160,2|8,0:0|0:0,0:0:0:0:
396,64,72258,1,0,0:0:0:0:
324,28,72446,2,0,L|132:60,1,160,2|8,0:0|0:0,0:0:0:0:
124,124,73008,1,0,0:0:0:0:
144,204,73196,6,0,L|224:209,1,80,2|0,0:0|0:0,0:0:0:0:
360,259,73571,2,0,L|280:264,1,80,8|0,0:0|0:0,0:0:0:0:
416,200,73946,1,4,0:0:0:0:
480,244,74133,1,0,0:0:0:0:
468,324,74321,1,8,0:0:0:0:
388,336,74508,1,0,0:0:0:0:
440,124,74696,6,0,L|462:47,2,80,4|0|12,0:0|0:0|0:0,0:0:0:0:
416,200,75258,1,0,0:0:0:0:
360,260,75446,2,0,P|307:286|251:272,1,120.000004577637,4|0,0:0|0:0,0:0:0:0:
244,233,75821,2,0,L|164:239,1,80,8|0,0:0|0:0,0:0:0:0:
100,192,76196,6,0,P|85:116|139:61,1,160,4|8,1:2|0:0,0:0:0:0:
204,108,76758,2,0,P|242:115|280:104,1,80,0|0,1:0|0:0,0:0:0:0:
344,56,77133,1,0,0:0:0:0:
403,110,77321,2,0,P|410:149|399:188,1,80,8|0,0:0|0:0,0:0:0:0:
340,292,77696,6,0,L|181:313,1,160,4|8,0:0|0:0,0:0:0:0:
100,304,78258,1,0,0:0:0:0:
84,224,78446,2,0,P|56:152|101:89,1,160,4|8,0:0|0:0,0:0:0:0:
176,120,79008,1,0,0:0:0:0:
176,120,79102,1,0,0:0:0:0:
176,120,79196,6,0,L|256:115,1,80,0|0,1:0|0:0,0:0:0:0:
336,104,79571,1,8,0:0:0:0:
380,172,79758,1,0,0:0:0:0:
356,248,79946,2,0,L|276:253,1,80,2|0,0:0|0:0,0:0:0:0:
216,308,80321,2,0,L|136:303,1,80,8|0,0:0|0:0,0:0:0:0:
56,292,80696,5,4,0:0:0:0:
47,301,81446,1,8,3:0:0:0:
216,308,81633,1,8,3:0:0:0:
288,76,82196,6,0,P|366:76|428:125,1,160,4|8,0:0|0:0,0:0:0:0:
452,200,82758,1,0,0:0:0:0:
452,200,82852,1,0,0:0:0:0:
452,200,82946,2,0,L|434:278,1,80,0|2,1:0|0:0,0:0:0:0:
292,348,83508,6,0,L|133:327,1,160,0|0,1:0|0:0,0:0:0:0:
64,288,84071,1,8,0:0:0:0:
60,208,84258,1,0,0:0:0:0:
60,208,84352,1,0,0:0:0:0:
60,208,84446,2,0,P|55:168|70:132,1,80,0|2,1:0|0:0,0:0:0:0:
184,20,85008,6,0,L|343:41,1,160,4|0,1:0|0:0,0:0:0:0:
424,32,85571,1,8,0:0:0:0:
464,100,85758,1,0,0:0:0:0:
464,100,85852,1,0,0:0:0:0:
464,100,85946,2,0,P|477:138|470:176,1,80,0|2,1:0|0:0,0:0:0:0:
449,193,86508,5,4,0:0:0:0:
321,296,86883,1,4,1:0:0:0:
470,176,87258,1,4,1:0:0:0:
295,317,87633,1,4,0:0:0:0:
256,192,88196,12,0,89508,0:0:0:0:
