osu file format v14

[General]
AudioFilename: Netsujou no Spectrum.mp3
AudioLeadIn: 0
PreviewTime: 58196
Countdown: 0
SampleSet: Soft
StackLeniency: 0.7
Mode: 0
LetterboxInBreaks: 1
WidescreenStoryboard: 0

[Editor]
Bookmarks: 26508,31196
DistanceSpacing: 1
BeatDivisor: 4
GridSize: 4
TimelineZoom: 1

[Metadata]
Title:Netsujou no Spectrum
TitleUnicode:熱情のスペクトラム
Artist:Ikimono Gakari
ArtistUnicode:いきものがかり
Creator:Raisa12
Version:Easy
Source:七つの大罪
Tags:Nanatsu no Taizai Opening tv size the seven deadly sins
BeatmapID:517046
BeatmapSetID:220414

[Difficulty]
HPDrainRate:3
CircleSize:3
OverallDifficulty:2
ApproachRate:3
SliderMultiplier:0.9
SliderTickRate:1

[Events]
//Background and Video events
0,0,"BG.jpg",0,0
Video,0,"OP.avi"
//Break Periods
2,26708,29756
//Storyboard Layer 0 (Background)
//Storyboard Layer 1 (Fail)
//Storyboard Layer 2 (Pass)
//Storyboard Layer 3 (Foreground)
//Storyboard Sound Samples

[TimingPoints]
1196,375,4,2,1,45,1,0
11696,-100,4,2,1,80,0,0
13571,-100,4,2,2,80,0,0
13946,-100,4,2,1,80,0,0
15071,-100,4,2,2,80,0,0
15446,-100,4,2,1,80,0,0
16571,-100,4,2,2,80,0,0
16946,-100,4,2,1,80,0,0
19571,-100,4,2,2,80,0,0
19758,-100,4,2,1,80,0,0
22571,-100,4,2,2,80,0,0
22946,-100,4,2,1,80,0,0
31196,-100,4,2,3,80,0,0
32321,-100,4,2,2,80,0,0
32696,-100,4,2,3,70,0,0
43196,-100,4,2,1,80,0,0
43571,-100,4,2,2,80,0,0
43946,-100,4,2,1,80,0,0
45071,-100,4,2,2,80,0,0
45446,-100,4,2,1,80,0,0
49571,-100,4,2,2,80,0,0
49946,-100,4,2,1,80,0,0
58196,-100,4,2,1,80,0,1
58571,-100,4,2,2,80,0,1
58946,-100,4,2,1,80,0,1
60071,-100,4,2,2,80,0,1
60446,-100,4,2,1,80,0,1
63071,-100,4,2,2,80,0,1
63446,-100,4,2,1,80,0,1
64571,-100,4,2,2,80,0,1
64946,-100,4,2,1,80,0,1
66071,-100,4,2,2,80,0,1
66446,-100,4,2,1,80,0,1
69821,-100,4,2,1,80,0,0
70196,-100,4,2,1,80,0,1
72071,-100,4,2,2,80,0,1
72446,-100,4,2,1,80,0,1
73571,-100,4,2,2,80,0,1
73946,-100,4,2,1,80,0,1
74321,-100,4,2,2,80,0,1
74696,-100,4,2,1,80,0,1
76571,-100,4,2,2,80,0,1
76758,-100,4,2,1,80,0,1
79571,-100,4,2,2,80,0,1
79946,-100,4,2,1,80,0,1
80321,-100,4,2,2,80,0,1
80696,-100,4,2,1,80,0,1
82196,-100,4,2,1,80,0,0
85946,-100,4,2,2,80,0,0
86133,-100,4,2,1,80,0,0
86696,-100,4,2,2,80,0,0
87446,-100,4,2,1,80,0,0

[Colours]
Combo1 : 245,255,64
Combo2 : 102,205,255
Combo3 : 192,192,192
Combo4 : 155,155,255
Combo5 : 255,64,64

[HitObjects]
152,44,1196,6,0,P|59:75|40:159,1,180,2|2,0:0|0:0,0:0:0:0:
64,232,2321,1,0,0:0:0:0:
104,312,2696,2,0,L|287:303,1,180,2|2,0:0|0:0,0:0:0:0:
328,224,3821,1,0,0:0:0:0:
416,204,4196,6,0,P|448:111|394:44,1,180,2|2,0:0|0:0,0:0:0:0:
316,28,5321,1,0,0:0:0:0:
248,88,5696,2,0,B|168:110|154:64|70:89,1,180,2|2,0:0|0:0,0:0:0:0:
24,168,6821,1,0,0:0:0:0:
52,252,7196,6,0,P|80:296|124:308,1,90,2|0,0:0|0:0,0:0:0:0:
200,276,7946,1,2,0:0:0:0:
252,200,8321,2,0,L|352:212,2,90,0|2|0,0:0|0:0|0:0,0:0:0:0:
164,184,9446,1,2,0:0:0:0:
300,68,10196,6,0,P|397:57|450:125,1,180,2|2,0:0|0:0,0:0:0:0:
436,204,11321,2,0,L|388:296,1,90,0|0,0:0|1:0,0:0:0:0:
308,256,12071,2,0,L|216:304,1,90,0|2,0:0|0:0,0:0:0:0:
144,268,12821,1,0,0:0:0:0:
84,200,13196,6,0,B|117:169|168:178|168:178|158:130|191:87,1,180,4|0,0:0|0:0,0:0:0:0:
256,152,14321,1,8,0:0:0:0:
328,96,14696,2,0,B|353:133|340:181|340:181|392:175|423:208,1,180,2|0,0:0|0:0,0:0:0:0:
468,284,15821,1,8,0:0:0:0:
396,336,16196,6,0,L|208:320,1,180,2|2,0:0|0:0,0:0:0:0:
128,304,17321,1,8,0:0:0:0:
64,240,17696,1,4,0:0:0:0:
44,152,18071,2,0,P|96:83|183:86,1,180,12|8,0:0|0:0,0:0:0:0:
268,120,19196,6,0,L|412:103,2,135,4|4|8,0:0|1:0|0:0,0:0:0:0:
196,176,20696,2,0,P|176:224|184:268,1,90,4|8,0:0|0:0,0:0:0:0:
256,312,21446,1,2,0:0:0:0:
332,260,21821,1,8,0:0:0:0:
416,292,22196,6,0,L|456:104,1,180,2|0,0:0|0:0,0:0:0:0:
420,32,23321,1,8,0:0:0:0:
348,88,23696,2,0,L|160:128,1,180,2|4,0:0|0:0,0:0:0:0:
256,192,25008,12,0,26508,0:0:0:0:
400,120,31196,6,0,P|360:142|311:143,1,90,2|0,0:0|0:0,0:0:0:0:
248,88,31946,2,0,P|165:62|96:115,1,180,2|2,0:0|0:0,0:0:0:0:
56,196,33071,2,0,L|40:300,2,90,0|2|8,0:0|0:0|0:0,0:0:0:0:
96,116,34196,6,0,B|134:141|143:172|143:202|143:202|128:296,1,180,2|2,0:0|0:0,0:0:0:0:
212,320,35321,2,0,P|256:332|312:312,1,90,8|2,0:0|0:0,0:0:0:0:
300,232,36071,1,0,0:0:0:0:
368,176,36446,2,0,P|412:164|468:184,1,90,2|8,0:0|0:0,0:0:0:0:
412,256,37196,6,0,L|411:70,1,180,2|2,0:0|0:0,0:0:0:0:
332,32,38321,1,8,0:0:0:0:
272,96,38696,2,0,P|232:118|183:119,1,90,2|0,0:0|0:0,0:0:0:0:
132,48,39446,1,2,0:0:0:0:
52,84,39821,6,0,P|38:129|32:188,1,90,8|2,0:0|0:0,0:0:0:0:
116,208,40571,2,0,P|130:253|136:312,1,90,8|2,0:0|0:0,0:0:0:0:
212,344,41321,2,0,B|295:363|304:318|396:340,1,180,8|8,0:0|0:0,0:0:0:0:
456,276,42446,1,10,0:0:0:0:
424,192,42821,1,0,0:0:0:0:
364,128,43196,6,0,B|331:159|337:211|337:211|289:198|252:223,1,180,4|0,0:0|0:0,0:0:0:0:
180,276,44321,1,8,0:0:0:0:
137,357,44696,2,0,P|92:282|126:202,1,180,2|2,0:0|0:0,0:0:0:0:
200,152,45821,2,0,L|236:56,1,90,8|2,0:0|0:0,0:0:0:0:
312,108,46571,6,0,L|396:76,1,90,8|0,0:0|0:0,0:0:0:0:
480,112,47321,1,8,0:0:0:0:
496,200,47696,2,0,P|487:243|459:277,2,90,4|0|2,0:0|1:0|0:0,0:0:0:0:
404,204,48821,1,0,1:0:0:0:
364,284,49196,6,0,B|278:305|269:260|186:279,1,180,4|0,0:0|0:0,0:0:0:0:
112,224,50321,2,0,P|66:220|15:248,1,90,8|2,0:0|0:0,0:0:0:0:
81,310,51071,2,0,L|52:127,1,180,8|8,0:0|0:0,0:0:0:0:
88,48,52196,5,4,0:0:0:0:
164,96,52571,2,0,P|204:118|253:119,1,90,8|8,0:0|0:0,0:0:0:0:
288,40,53321,1,8,0:0:0:0:
352,96,53696,2,0,P|397:98|436:120,1,90,8|8,0:0|0:0,0:0:0:0:
476,200,54446,2,0,L|492:304,1,90,8|8,0:0|0:0,0:0:0:0:
432,360,55196,1,0,1:0:0:0:
256,192,55383,12,4,56696,1:0:0:0:
228,136,58196,6,0,P|135:167|116:251,1,180,4|2,0:0|0:0,0:0:0:0:
124,328,59321,1,8,0:0:0:0:
212,316,59696,2,0,B|288:328|288:328|318:328|349:319|374:281,1,180,2|0,0:0|0:0,0:0:0:0:
296,236,60821,6,0,L|188:220,2,90,8|2|8,0:0|0:0|0:0,0:0:0:0:
376,192,61946,2,0,P|395:150|386:92,1,90,0|8,0:0|0:0,0:0:0:0:
332,40,62696,2,0,B|246:19|237:64|154:45,1,180,2|0,0:0|0:0,0:0:0:0:
76,88,63821,1,8,0:0:0:0:
56,176,64196,6,0,P|45:273|113:326,1,180,4|0,0:0|0:0,0:0:0:0:
192,312,65321,1,8,0:0:0:0:
204,224,65696,2,0,P|301:213|354:281,1,180,4|2,1:0|0:0,0:0:0:0:
436,240,66821,6,0,P|445:193|445:134,1,90,8|4,0:0|1:0,0:0:0:0:
364,112,67571,2,0,P|365:67|374:23,2,90,8|8|8,0:0|0:0|0:0,0:0:0:0:
312,184,68696,1,10,0:0:0:0:
260,256,69071,2,0,L|68:276,1,180,8|4,0:0|0:0,0:0:0:0:
32,200,70196,5,4,0:0:0:0:
80,124,70571,2,0,L|259:105,1,180,8|8,0:0|0:0,0:0:0:0:
324,168,71696,2,0,P|326:254|257:306,1,180,2|0,0:0|0:0,0:0:0:0:
248,216,72821,1,8,0:0:0:0:
244,128,73196,6,0,B|268:89|299:80|329:79|329:79|405:90,2,180,2|4|4,0:0|0:0|0:0,0:0:0:0:
248,216,75071,2,0,B|285:241|333:228|333:228|327:280|360:311,1,180,12|8,0:0|0:0,0:0:0:0:
421,245,76196,6,0,L|449:103,2,135,4|4|8,1:2|1:0|0:0,0:0:0:0:
360,312,77696,2,0,P|312:332|268:324,1,90,4|8,0:0|0:0,0:0:0:0:
276,236,78446,2,0,P|231:232|191:251,1,90,2|8,0:0|0:0,0:0:0:0:
162,336,79196,6,0,P|110:292|130:184,2,180,0|0|4,1:0|0:0|0:0,0:0:0:0:
428,92,82196,6,0,L|324:102,1,90,4|8,0:0|0:0,0:0:0:0:
260,60,82946,2,0,L|125:74,2,135,0|4|8,1:0|1:0|0:0,0:0:0:0:
340,100,84446,2,0,P|348:177|312:228,1,135,0|4,1:0|1:0,0:0:0:0:
244,336,85571,6,0,L|108:328,1,135,8|4,0:0|0:0,0:0:0:0:
49,260,86508,2,0,P|42:126|147:44,1,270,4|4,0:0|1:0,0:0:0:0:
256,192,88196,12,0,89508,0:0:0:0:
