osu file format v5

[General]
AudioFilename: Naruto_Shippuuden_-_Blue_Bird.mp3
AudioLeadIn: 0
PreviewTime: 50597
Countdown: 1
SampleSet: Normal
StackLeniency: 0.7
Mode: 0
LetterboxInBreaks: 1

[Editor]
Bookmarks: 14106,26738,47264,83580,89895,110421,140422
DistanceSpacing: 0.899999976158142
BeatDivisor: 4
GridSize: 8

[Metadata]
Title:Blue Bird
Artist:Ikimono Gakari
Creator:buraimaster1234
Version:Normal
Source:Naruto Shippuuden
Tags:naruto shippuuden anime

[Difficulty]
HPDrainRate:3
CircleSize:3
OverallDifficulty:4
SliderMultiplier:1.1
SliderTickRate:1

[Events]
//Background and Video events
0,0,"naruto.jpg"
//Break Periods
//Storyboard Layer 0 (Background)
//Storyboard Layer 1 (Fail)
//Storyboard Layer 2 (Pass)
//Storyboard Layer 3 (Foreground)
//Storyboard Sound Samples
//Background Colour Transformations
3,100,11,11,17

[TimingPoints]
1475,394.736842105263,4,1,0,100,1,0
26146,-100,4,2,0,100,0,0
47264,392.156862745098,4,1,0,100,1,0
52790,394.736842105263,4,1,0,85,1,0
53776,-100,4,1,0,65,0,0
54170,-100,4,1,0,50,0,0
54566,-100,4,1,0,55,0,0
54763,-100,4,1,0,65,0,0
54960,-100,4,1,0,80,0,0
55157,-100,4,1,0,100,0,0
55651,-100,4,1,1,100,0,0
56046,-100,4,1,0,100,0,0
59697,-100,4,1,0,85,0,0
60091,-100,4,1,0,60,0,0
60485,-100,4,1,0,75,0,0
60882,-100,4,1,0,70,0,0
61079,-100,4,1,0,100,0,0
61276,-100,4,1,0,70,0,0
61868,-100,4,1,0,100,0,0
62066,-100,4,1,0,70,0,0
62657,-100,4,1,0,100,0,0
65421,-100,4,1,0,85,0,0
66408,-100,4,1,0,65,0,0
66802,-100,4,1,0,50,0,0
67196,-100,4,1,0,55,0,0
67393,-100,4,1,0,65,0,0
67590,-100,4,1,0,80,0,0
67787,-100,4,1,0,100,0,0
68283,-100,4,1,1,100,0,0
68677,-100,4,1,0,100,0,0
72329,-100,4,1,0,85,0,0
72723,-100,4,1,0,60,0,0
73117,-100,4,1,0,75,0,0
73513,-100,4,1,0,70,0,0
73710,-100,4,1,0,100,0,0
73907,-100,4,1,0,70,0,0
74499,-100,4,1,0,100,0,0
74696,-100,4,1,0,70,0,0
75288,-100,4,1,0,100,0,0
76671,-100,4,1,0,70,0,0
76868,-100,4,1,0,100,0,0
77065,-100,4,1,0,70,0,0
77657,-100,4,1,0,100,0,0
77854,-100,4,1,0,70,0,0
78446,-100,4,1,0,100,0,0
89303,-100,4,2,0,100,0,0
110422,392.156862745098,4,1,0,100,1,0
115127,-100,4,1,0,100,0,0
115948,394.736842105263,4,1,0,85,1,0
116934,-100,4,1,0,65,0,0
117328,-100,4,1,0,50,0,0
117722,-100,4,1,0,55,0,0
117919,-100,4,1,0,65,0,0
118116,-100,4,1,0,80,0,0
118313,-100,4,1,0,100,0,0
118809,-100,4,1,1,100,0,0
119203,-100,4,1,0,100,0,0
122855,-100,4,1,0,85,0,0
123249,-100,4,1,0,60,0,0
123643,-100,4,1,0,75,0,0
124040,-100,4,1,0,70,0,0
124237,-100,4,1,0,100,0,0
124434,-100,4,1,0,70,0,0
125026,-100,4,1,0,100,0,0
125223,-100,4,1,0,70,0,0
125815,-100,4,1,0,100,0,0
128184,-100,4,1,0,100,0,1
129566,-100,4,1,0,85,0,1
129960,-100,4,1,0,100,0,1
134105,-100,4,1,0,100,0,0
134499,-100,4,1,0,100,0,1
135882,-100,4,1,0,85,0,1
136276,-100,4,1,0,100,0,1
136671,-100,4,1,0,70,0,1
136868,-100,4,1,0,100,0,1
137065,-100,4,1,0,70,0,1
137657,-100,4,1,0,100,0,1
137854,-100,4,1,0,70,0,1
138446,-100,4,1,0,100,0,1
140224,-100,4,1,0,100,0,0
152855,-200,4,1,0,70,0,0
153053,-200,4,1,0,60,0,0
155421,-200,4,2,0,60,0,0
155766,-200,4,1,0,60,0,0
156013,-200,4,1,0,75,0,0
156210,-200,4,1,0,60,0,0
158579,-200,4,2,0,60,0,0
158924,-200,4,1,0,60,0,0
159171,-100,4,1,0,100,0,0
159368,-100,4,1,0,85,0,0
159763,-100,4,1,0,100,0,0
160158,-100,4,1,0,80,0,0
160552,-100,4,1,0,60,0,0
160749,-100,4,1,0,100,0,0
160946,-100,4,1,0,85,0,0
161340,-100,4,1,0,100,0,0
161734,-100,4,1,0,80,0,0
162128,-100,4,1,0,60,0,0
162329,-100,4,1,0,100,0,0
167263,-100,4,1,0,100,0,1
168645,-100,4,1,0,85,0,1
169040,-100,4,1,0,60,0,1
169434,-100,4,1,0,75,0,1
169829,-100,4,1,0,81,0,1
170026,-100,4,1,0,87,0,1
170223,-100,4,1,0,94,0,1
170420,-100,4,1,0,100,0,1
174961,-100,4,1,0,85,0,1
175355,-100,4,1,0,60,0,1
175749,-100,4,1,0,75,0,1
176145,-100,4,1,0,70,0,1
176342,-100,4,1,0,100,0,1
176539,-100,4,1,0,70,0,1
177130,-100,4,1,0,100,0,1
177327,-100,4,1,0,70,0,1
177918,-100,4,1,0,100,0,1
179105,-100,4,1,0,100,0,0
180289,-100,4,1,0,100,0,1
181671,-100,4,1,0,85,0,1
182065,-100,4,1,0,100,0,1
186211,-100,4,1,0,100,0,0
186605,-100,4,1,0,100,0,1
187987,-100,4,1,0,85,0,1
188381,-100,4,1,0,100,0,1
188776,-100,4,1,0,70,0,1
188973,-100,4,1,0,100,0,1
189170,-100,4,1,0,70,0,1
189762,-100,4,1,0,100,0,1
189959,-100,4,1,0,70,0,1
190551,-100,4,1,0,100,0,1
191934,-100,4,1,0,70,0,1
192131,-100,4,1,0,100,0,1
192328,-100,4,1,0,70,0,1
192921,-100,4,1,0,100,0,1
193118,-100,4,1,0,70,0,1
193710,-100,4,1,0,100,0,1

[Colours]
Combo1 : 236,211,40
Combo2 : 187,236,40
Combo3 : 89,236,40

[HitObjects]
472,32,13909,2,0,B|248:32,1,220,0|8
144,32,15093,1,8
32,32,15488,2,0,B|32:256,1,220,0|8
32,360,16672,1,8
184,360,17067,6,0,B|184:192,1,165,0|8
184,136,17856,2,4,B|184:64|256:64,2,110
288,160,19040,2,12,B|176:160,1,110,12|12
64,160,19830,1,12
40,32,20224,6,0,B|264:32,1,220,4|8
368,32,21408,1,8
480,32,21803,2,0,B|480:256,1,220,4|8
480,360,22987,1,8
328,360,23382,6,0,B|328:192,1,165,4|8
328,136,24171,2,4,B|328:64|256:64,2,110
224,160,25356,2,12,B|336:160,1,110,12|12
448,160,26146,1,0
448,160,26343,5,0
448,272,26738,2,0,B|336:272,1,110,0|8
256,344,27527,2,0,B|144:344,1,110,0|8
64,272,28317,2,0,B|56:216|64:160,1,110,0|8
64,163,28909,2,0,B|72:89|152:97,1,110
192,96,29501,5,8
304,96,29896,2,0,B|424:96,1,110,0|8
416,216,30685,2,0,B|320:160,1,110,2|4
312,320,31474,2,0,B|248:304|200:352,1,110,0|8
209,343,32067,2,0,B|184:280|112:272,1,110,2|0
128,274,32659,5,0
64,272,33053,2,0,B|176:272,1,110,0|8
256,344,33842,2,0,B|368:344,1,110,0|8
448,272,34632,2,0,B|456:216|448:160,1,110,0|8
448,163,35224,2,0,B|440:89|360:97,1,110
320,96,35816,5,8
208,96,36211,2,0,B|88:96,1,110,0|8
96,216,37001,2,0,B|192:160,1,110,2|4
200,320,37789,2,0,B|264:304|312:352,1,110,0|8
303,343,38382,2,0,B|328:280|400:272,1,110,2|0
432,248,38974,6,0,B|504:216|456:144,1,110,0|4
320,104,39764,2,0,B|248:80|200:136,5,110,2|0|2|0|2|0
176,160,41935,1,2
120,176,42132,2,0,B|56:192|136:240|88:256|24:256,1,110,0|2
184,344,42922,2,0,B|256:352|288:288,3,110,2|0|2|2
312,224,44402,2,0,B|328:168|384:200,1,82.5,2|6
472,112,45093,5,0
432,64,45290,1,2
296,64,45685,1,14
160,64,46080,1,2
96,64,46277,1,10
96,192,46672,1,14
224,192,47067,1,12
256,192,47852,12,4,50793
256,272,51185,5,2
16,272,51969,6,2,B|16:160,1,110,2|10
16,32,52790,2,2,B|128:32,1,110,2|8
184,32,53382,2,4,B|184:144,2,110,6|12|12
392,32,54763,5,8
392,152,55158,2,2,B|392:264,2,110,6|10|6
272,152,56342,2,0,B|48:152,2,220,12|12|0
392,152,58316,2,2,B|336:208|392:256|496:240|376:336,1,220,2|10
208,360,59697,2,4,B|152:392|88:360,1,110,6|12
16,280,60487,1,12
200,192,60882,6,0,B|312:192,2,110,4|4|0
80,192,62066,5,4
80,72,62461,6,0,B|80:16,2,55,4|2|6
80,192,63250,6,2,B|112:272|112:272|200:264,1,165,6|2
344,248,64237,5,8
496,272,64632,6,2,B|496:160,1,110,2|10
496,32,65421,2,2,B|384:32,1,110,2|8
328,32,66013,2,4,B|328:144,2,110,6|12|12
120,32,67394,5,8
120,152,67789,2,2,B|120:264,2,110,6|10|6
240,152,68973,2,0,B|464:152,2,220,12|12|0
120,152,70947,2,2,B|176:208|120:256|16:240|136:336,1,220,2|10
304,360,72328,2,0,B|360:392|424:360,1,110,6|12
496,280,73118,1,12
312,192,73513,6,0,B|200:192,2,110,4|4|0
432,192,74697,5,4
432,72,75092,6,0,B|432:16,2,55,4|2|6
312,72,75882,6,2,B|240:32|240:32|168:88,1,165,6|2
127,127,76671,6,0,B|94:150|111:188,2,55,4|10|4
216,255,77461,6,0,B|239:288|277:272,2,55,4|10|4
344,167,78250,6,0,B|377:144|361:106,2,55,4|10|4
236,146,79039,6,10,C|229:122|261:99|261:99|288:76|269:25,1,165,14|10
256,192,79829,12,0,83382
