osu file format v6

[General]
AudioFilename: Naruto_Shippuuden_-_Blue_Bird.mp3
AudioLeadIn: 0
PreviewTime: 50597
Countdown: 1
SampleSet: Normal
StackLeniency: 0.7
Mode: 0
LetterboxInBreaks: 1

[Editor]
Bookmarks: 14106,26738,47264,83580,89896,110422,140422,153053,167263,198842
DistanceSpacing: 1.10000002384186
BeatDivisor: 4
GridSize: 8

[Metadata]
Title:Blue Bird
Artist:Ikimono Gakari
Creator:buraimaster1234
Version:Insane
Source:Naruto Shippuuden
Tags:naruto shippuuden anime

[Difficulty]
HPDrainRate:9
CircleSize:5
OverallDifficulty:8
SliderMultiplier:1.8
SliderTickRate:2

[Events]
//Background and Video events
0,0,"naruto.jpg"
//Break Periods
2,83582,88553
2,140424,152105
//Storyboard Layer 0 (Background)
//Storyboard Layer 1 (Fail)
//Storyboard Layer 2 (Pass)
//Storyboard Layer 3 (Foreground)
//Storyboard Sound Samples
//Background Colour Transformations
3,100,11,11,17

[TimingPoints]
1475,394.736842105263,4,1,0,100,1,0
26146,-100,4,2,0,100,0,0
47264,392.156862745098,4,1,0,100,1,0
52790,394.736842105263,4,1,0,85,1,0
53776,-100,4,1,0,65,0,0
54170,-100,4,1,0,50,0,0
54566,-100,4,1,0,55,0,0
54763,-100,4,1,0,65,0,0
54960,-100,4,1,0,80,0,0
55157,-100,4,1,0,100,0,0
55651,-100,4,1,1,100,0,0
56046,-100,4,1,0,100,0,0
59697,-100,4,1,0,85,0,0
60091,-100,4,1,0,60,0,0
60485,-100,4,1,0,75,0,0
60882,-100,4,1,0,70,0,0
61079,-100,4,1,0,100,0,0
61276,-100,4,1,0,70,0,0
61868,-100,4,1,0,100,0,0
62066,-100,4,1,0,70,0,0
62657,-100,4,1,0,100,0,0
65421,-100,4,1,0,85,0,0
66408,-100,4,1,0,65,0,0
66802,-100,4,1,0,50,0,0
67196,-100,4,1,0,55,0,0
67393,-100,4,1,0,65,0,0
67590,-100,4,1,0,80,0,0
67787,-100,4,1,0,100,0,0
68283,-100,4,1,1,100,0,0
68677,-100,4,1,0,100,0,0
72329,-100,4,1,0,85,0,0
72723,-100,4,1,0,60,0,0
73117,-100,4,1,0,75,0,0
73513,-100,4,1,0,70,0,0
73710,-100,4,1,0,100,0,0
73907,-100,4,1,0,70,0,0
74499,-100,4,1,0,100,0,0
74696,-100,4,1,0,70,0,0
75288,-100,4,1,0,100,0,0
76671,-100,4,1,0,70,0,0
76868,-100,4,1,0,100,0,0
77065,-100,4,1,0,70,0,0
77657,-100,4,1,0,100,0,0
77854,-100,4,1,0,70,0,0
78446,-100,4,1,0,100,0,0
89303,-100,4,2,0,100,0,0
110422,392.156862745098,4,1,0,100,1,0
115127,-100,4,1,0,100,0,0
115948,394.736842105263,4,1,0,85,1,0
116934,-100,4,1,0,65,0,0
117328,-100,4,1,0,50,0,0
117722,-100,4,1,0,55,0,0
117919,-100,4,1,0,65,0,0
118116,-100,4,1,0,80,0,0
118313,-100,4,1,0,100,0,0
118809,-100,4,1,1,100,0,0
119203,-100,4,1,0,100,0,0
122855,-100,4,1,0,85,0,0
123249,-100,4,1,0,60,0,0
123643,-100,4,1,0,75,0,0
124040,-100,4,1,0,70,0,0
124237,-100,4,1,0,100,0,0
124434,-100,4,1,0,70,0,0
125026,-100,4,1,0,100,0,0
125223,-100,4,1,0,70,0,0
125815,-100,4,1,0,100,0,0
128184,-100,4,1,0,100,0,1
129566,-100,4,1,0,85,0,1
129960,-100,4,1,0,100,0,1
134105,-100,4,1,0,100,0,0
134499,-100,4,1,0,100,0,1
135882,-100,4,1,0,85,0,1
136276,-100,4,1,0,100,0,1
136671,-100,4,1,0,70,0,1
136868,-100,4,1,0,100,0,1
137065,-100,4,1,0,70,0,1
137657,-100,4,1,0,100,0,1
137854,-100,4,1,0,70,0,1
138446,-100,4,1,0,100,0,1
140224,-100,4,1,0,100,0,0
152855,-200,4,1,0,80,0,0
153053,-200,4,1,0,60,0,0
153448,-200,4,1,0,50,0,0
154040,-200,4,2,0,55,0,0
154237,-200,4,1,0,60,0,0
154434,-200,4,2,0,65,0,0
154631,-200,4,1,0,70,0,0
154828,-200,4,2,0,75,0,0
155025,-200,4,1,0,80,0,0
155224,-200,4,2,0,80,0,0
155766,-200,4,1,0,80,0,0
156013,-200,4,1,0,80,0,0
156210,-200,4,1,0,60,0,0
156605,-200,4,1,0,50,0,0
157196,-200,4,2,0,55,0,0
157393,-200,4,1,0,60,0,0
157590,-200,4,2,0,65,0,0
157787,-200,4,1,0,70,0,0
157984,-200,4,2,0,75,0,0
158181,-200,4,1,0,80,0,0
158378,-200,4,2,0,80,0,0
158924,-200,4,1,0,80,0,0
159171,-100,4,1,0,100,0,0
159368,-100,4,1,0,85,0,0
159763,-100,4,1,0,100,0,0
160158,-100,4,1,0,80,0,0
160552,-100,4,1,0,60,0,0
160749,-100,4,1,0,100,0,0
160946,-100,4,1,0,85,0,0
161340,-100,4,1,0,100,0,0
161734,-100,4,1,0,80,0,0
162128,-100,4,1,0,60,0,0
162329,-100,4,1,0,100,0,0
164303,-100,4,1,0,85,0,0
165092,-100,4,1,0,100,0,0
167263,-100,4,1,0,100,0,1
168645,-100,4,1,0,85,0,1
169040,-100,4,1,0,60,0,1
169434,-100,4,1,0,75,0,1
169829,-100,4,1,0,81,0,1
170026,-100,4,1,0,87,0,1
170223,-100,4,1,0,94,0,1
170420,-100,4,1,0,100,0,1
174961,-100,4,1,0,85,0,1
175355,-100,4,1,0,60,0,1
175749,-100,4,1,0,75,0,1
176145,-100,4,1,0,70,0,1
176342,-100,4,1,0,100,0,1
176539,-100,4,1,0,70,0,1
177130,-100,4,1,0,100,0,1
177327,-100,4,1,0,70,0,1
177918,-100,4,1,0,100,0,1
179105,-100,4,1,0,100,0,0
180289,-100,4,1,0,100,0,1
181671,-100,4,1,0,85,0,1
182065,-100,4,1,0,100,0,1
186211,-100,4,1,0,100,0,0
186605,-100,4,1,0,100,0,1
187987,-100,4,1,0,85,0,1
188381,-100,4,1,0,100,0,1
188776,-100,4,1,0,70,0,1
188973,-100,4,1,0,100,0,1
189170,-100,4,1,0,70,0,1
189762,-100,4,1,0,100,0,1
189959,-100,4,1,0,70,0,1
190551,-100,4,1,0,100,0,1
191934,-100,4,1,0,70,0,1
192131,-100,4,1,0,100,0,1
192328,-100,4,1,0,70,0,1
192921,-100,4,1,0,100,0,1
193118,-100,4,1,0,70,0,1
193710,-100,4,1,0,100,0,1

[Colours]
Combo1 : 236,211,40
Combo2 : 187,236,40
Combo3 : 89,236,40

[HitObjects]
96,184,13909,2,0,B|288:184,1,180
368,184,14501,1,8
368,272,14698,2,0,B|224:280|224:192,1,180
224,104,15290,1,0
288,40,15488,2,0,B|225:154|112:72,1,180,0|0
64,144,16080,1,8
16,216,16277,2,0,B|-11:343|144:312,1,180,0|0
160,232,16869,2,0,B|192:184|240:216,1,90,0|0
288,296,17264,1,0
328,320,17363,1,0
368,296,17461,1,0
424,216,17659,5,8
416,120,17856,1,0
400,72,17955,1,0
352,64,18053,1,0
264,64,18251,1,0
176,64,18448,1,0
80,64,18646,2,4,B|32:64,4,45
80,160,19238,1,8
80,256,19435,2,4,B|80:304,4,45
168,256,20027,1,8
416,184,20224,6,0,B|224:184,1,180,4|0
144,184,20817,1,8
144,272,21014,2,0,B|288:280|288:192,1,180,4|0
288,104,21606,1,8
224,40,21803,2,0,B|287:154|400:72,1,180,4|0
448,144,22396,1,8
496,216,22593,2,0,B|523:343|368:312,1,180,4|0
352,232,23185,2,0,B|320:184|272:216,1,90,8|4
224,296,23580,1,0
184,320,23678,1,0
144,296,23777,1,0
88,216,23975,5,8
96,120,24172,1,4
112,72,24271,1,0
160,64,24369,1,0
248,64,24567,1,0
336,64,24764,1,8
432,64,24961,2,4,B|480:64,4,45
432,160,25553,1,8
432,256,25751,2,4,B|432:304,4,45,4|4|4|4|0
432,160,26343,5,0
384,78,26540,1,0
288,64,26738,2,0,B|230:75|232:136,1,90,0|0
304,184,27132,1,8
392,280,27330,2,0,B|358:386|240:344,1,180,0|0
200,264,27922,1,8
72,296,28119,2,0,B|4:198|120:144,1,180,0|0
200,160,28711,1,8
208,32,28909,2,0,B|320:-7|360:96,1,180,0|0
440,184,29501,5,8
464,272,29698,1,2
400,336,29896,2,0,B|304:336,1,90,0|4
216,336,30290,1,8
104,216,30488,2,0,B|296:216,1,180,2|4
376,216,31080,1,8
504,112,31277,2,0,B|408:112,1,90,2|0
264,184,31672,2,0,B|360:184,1,90,4|8
240,64,32067,2,0,B|129:60|80:184,1,180,2|0
80,264,32659,5,0
134,336,32856,1,0
224,320,33053,2,0,B|282:309|280:248,1,90,0|0
208,200,33448,1,8
120,104,33646,2,0,B|154:-2|272:40,1,180,0|0
312,120,34238,1,8
440,88,34435,2,0,B|508:186|392:240,1,180,2|2
312,224,35027,1,8
304,352,35225,2,0,B|192:391|152:288,1,180,2|2
72,200,35817,5,8
48,112,36014,1,2
112,48,36211,2,0,B|208:48,1,90,0|4
296,48,36606,1,8
408,168,36803,2,0,B|216:168,1,180,2|4
136,168,37396,1,8
8,272,37593,2,0,B|104:272,1,90,2|0
248,200,37988,2,0,B|152:200,1,90,4|8
272,320,38382,2,0,B|383:324|432:200,1,180,2|0
416,128,38974,5,0
356,49,39172,1,2
256,32,39369,1,4
80,336,39764,1,2
432,336,40159,1,0
256,32,40553,1,2
256,216,40948,2,0,B|240:281|256:360,2,135,0|2|0
56,176,41935,5,0
154,192,42132,1,0
232,254,42330,1,2
256,352,42527,1,2
432,48,42922,1,0
80,48,43317,1,2
432,48,43711,1,2
256,168,44106,2,0,B|272:103|256:24,2,135,0|2|2
128,160,45093,5,0
80,240,45290,1,0
128,320,45488,1,2
176,240,45685,1,14
256,192,45882,1,0
336,144,46080,1,2
384,64,46277,1,10
432,144,46474,1,0
384,224,46672,1,14
208,112,47067,1,12
256,192,47852,12,4,50205
408,296,50597,5,12
352,224,50793,1,12
264,200,50989,1,6
192,256,51185,1,2
104,264,51381,5,0
48,192,51577,1,0
80,104,51773,1,0
160,56,51969,2,2,B|256:232,1,180,2|10
472,56,52790,2,2,B|336:184,1,180,2|8
320,264,53382,2,4,B|353:348|353:348|386:262,2,180,6|12|12
104,264,54566,5,0
48,192,54763,1,8
80,104,54961,1,0
160,56,55158,2,2,B|271:16|336:128,1,180,6|10
432,288,55947,2,2,B|405:394|248:344,1,180,6|8
207,313,56539,2,0,B|225:206|343:241,1,180,0|10
421,196,57132,2,10,B|553:158|429:28,1,180,10|10
352,56,57724,5,0
312,136,57921,1,8
232,184,58118,1,0
136,184,58316,2,2,B|45:191|21:102|128:64,1,180,2|10
240,200,59105,2,2,B|331:193|355:282|248:320,1,180,2|8
184,328,59697,2,4,B|69:347|16:248,1,180,6|12
416,96,60487,1,12
151,95,60882,6,0,B|107:67|57:97,2,90,4|2|4
176,176,61671,6,0,B|176:231|224:256,2,90,4|2|4
232,112,62461,6,0,B|279:88|278:30,2,90,4|2|6
352,56,63250,5,2
352,144,63447,2,2,B|352:336,1,180,6|2
432,280,64040,5,0
456,192,64237,1,8
432,104,64434,1,0
352,56,64632,2,2,B|256:232,1,180,2|10
40,56,65421,2,2,B|176:184,1,180,2|8
192,264,66013,2,4,B|159:348|159:348|126:262,2,180,6|12|12
408,264,67198,5,0
464,192,67395,1,8
432,104,67593,1,0
352,56,67790,2,2,B|241:16|176:128,1,180,6|10
80,288,68579,2,2,B|107:394|264:344,1,180,6|8
305,313,69171,2,0,B|287:206|169:241,1,180,0|10
91,196,69764,2,10,B|-41:158|83:28,1,180,10|10
160,56,70356,5,0
200,136,70553,1,8
280,184,70750,1,0
376,184,70948,2,2,B|467:191|491:102|384:64,1,180,2|10
272,200,71737,2,2,B|181:193|157:282|264:320,1,180,2|8
328,328,72329,2,4,B|443:347|496:248,1,180,6|12
96,96,73119,1,12
360,95,73513,6,0,B|404:67|454:97,2,90,4|2|4
336,176,74302,6,0,B|336:231|288:256,2,90,4|2|4
279,112,75092,6,0,B|232:88|233:30,2,90,4|2|6
112,64,75882,5,2
64,144,76079,2,2,B|24:232|88:320,1,180,6|2
256,128,76671,5,4
304,48,76868,5,10
208,48,77066,5,4
392,232,77461,5,4
344,312,77658,5,10
440,312,77856,5,4
120,232,78250,5,4
168,312,78447,5,10
72,312,78645,5,14
400,64,79040,5,10
448,144,79237,2,2,B|488:232|424:320,1,180,14|10
256,192,79829,12,0,83382
416,136,89303,5,0
432,224,89500,1,0
392,304,89697,2,0,B|336:376|216:352,1,180
144,320,90290,1,8
80,192,90487,2,0,B|136:264|256:240,1,180,0|0
328,208,91079,1,8
416,96,91276,2,0,B|360:24|240:48,1,180
168,80,91869,1,8
56,168,92066,2,0,B|-8:240|64:336,1,180,0|0
144,216,92658,5,8
184,136,92855,1,2
264,96,93053,2,0,B|304:144|264:184,1,90,0|4
224,256,93447,1,8
328,352,93645,2,0,B|424:392|504:320,1,180,2|4
464,240,94237,1,8
360,136,94434,2,0,B|312:96|264:152,1,90,2|0
152,248,94829,2,0,B|200:288|248:232,1,90,4|8
216,104,95224,2,0,B|112:56|64:160,1,180,2|0
64,240,95816,5,0
104,320,96013,1,0
192,344,96211,2,0,B|248:360|288:336,1,90
368,320,96606,1,8
432,192,96803,2,0,B|376:264|256:240,1,180,0|0
184,208,97395,1,8
96,96,97592,2,0,B|152:24|272:48,1,180,2|2
344,80,98185,1,8
456,168,98382,2,0,B|520:240|448:336,1,180,2|2
368,216,98974,5,8
328,136,99171,1,2
248,96,99369,2,0,B|208:144|248:184,1,90,0|4
288,256,99763,1,8
184,352,99961,2,0,B|88:392|8:320,1,180,2|4
48,240,100553,1,8
152,136,100750,2,0,B|200:96|248:152,1,90,2|0
360,248,101145,2,0,B|312:288|264:232,1,90,4|8
296,104,101540,2,0,B|400:56|448:160,1,180,2|0
416,256,102132,5,0
356,335,102329,1,2
256,352,102526,1,4
80,48,102921,1,2
256,352,103316,1,0
432,48,103711,1,2
304,208,104105,2,0,B|288:143|304:64,2,135,0|2|0
56,208,105092,5,0
154,192,105289,1,0
232,130,105487,1,2
256,32,105684,1,2
432,336,106079,1,0
80,48,106474,1,2
432,48,106868,1,2
208,176,107263,2,0,B|224:241|208:320,2,135,0|2|2
256,96,108250,5,0
336,48,108447,1,0
416,96,108645,1,2
336,144,108842,1,14
256,192,109040,1,0
176,240,109237,1,2
96,288,109434,1,10
176,336,109632,1,0
256,288,109829,1,14
176,144,110224,1,12
256,192,111010,12,0,111794
368,272,112186,6,4,B|366:295|352:320,10,45,6|4|6|4|4|4|6|4|4|4|6
288,232,113363,1,6
408,88,113755,1,12
352,160,113951,1,12
264,184,114147,1,6
176,200,114343,1,2
104,264,114539,5,0
48,192,114735,1,0
80,104,114931,1,0
160,56,115127,2,2,B|256:232,1,180,2|10
472,56,115948,2,2,B|336:184,1,180,2|8
320,264,116540,2,4,B|353:348|353:348|386:262,2,180,6|12|12
104,264,117724,5,0
48,192,117921,1,8
80,104,118119,1,0
160,56,118316,2,2,B|271:16|336:128,1,180,6|10
432,288,119105,2,2,B|405:394|248:344,1,180,6|8
207,313,119697,2,0,B|225:206|343:241,1,180,0|10
421,196,120290,2,2,B|553:158|429:28,1,180,10|10
352,56,120882,5,0
312,136,121079,1,8
232,184,121276,1,0
136,184,121474,2,2,B|45:191|21:102|128:64,1,180,2|10
240,200,122263,2,2,B|331:193|355:282|248:320,1,180,2|8
184,328,122855,2,4,B|69:347|16:248,1,180,6|12
416,96,123645,1,12
151,95,124040,6,0,B|107:67|57:97,2,90,4|2|4
176,176,124829,6,0,B|176:231|224:256,2,90,4|2|4
232,112,125619,6,0,B|279:88|278:30,2,90,4|2|6
360,216,126408,5,2
432,168,126605,2,2,B|384:96|296:112|272:216,1,180,6|2
248,256,127198,5,0
176,312,127395,1,8
88,312,127592,1,0
24,248,127790,2,0,B|-24:168|24:72,1,180,2|14
112,280,128579,2,2,B|64:200|112:104,1,180,2|14
192,80,129171,2,0,B|272:16|360:80,1,180,0|8
272,304,129961,1,12
464,192,130355,5,0
384,152,130553,1,2
304,192,130750,1,0
224,152,130948,2,2,B|128:152|48:200,1,180,2|10
88,280,131540,1,0
168,320,131737,2,2,B|272:360|320:256,1,180,2|8
272,184,132329,2,4,B|311:80|432:120,1,180,4|14
384,200,132921,2,2,B|328:304|224:256,1,180,10|6
48,192,133513,5,0
128,152,133711,1,10
208,192,133908,1,0
288,152,134105,2,0,B|384:160|464:104,1,180,2|14
280,248,134895,2,2,B|184:240|104:296,1,180,2|14
40,232,135487,2,0,B|-16:152|48:56,1,180,0|8
288,328,136276,1,12
304,151,136671,6,0,B|348:123|398:153,2,90,4|2|4
223,168,137461,6,0,B|176:144|177:86,2,90,4|2|4
280,232,138250,6,0,B|283:284|232:312,2,90,4|2|6
256,192,139040,12,4,140224
36,44,152855,5,0
40,48,153053,1,0
256,320,153448,1,0
476,44,153842,1,0
400,80,154040,5,0
392,176,154237,1,0
296,112,154434,1,0
312,256,154632,1,0
184,152,154829,1,0
224,352,155026,1,0
40,200,155224,1,0
224,352,155421,1,4
476,44,156013,5,0
472,48,156211,1,0
256,320,156606,1,0
36,44,157000,1,0
112,80,157198,5,0
120,176,157395,1,0
216,112,157592,1,0
200,256,157790,1,0
328,152,157987,1,0
288,352,158184,1,0
472,200,158382,1,0
288,352,158579,1,4
36,44,159171,5,0
40,48,159369,1,0
224,152,159763,1,0
120,296,160158,1,0
256,344,160553,1,0
476,44,160750,5,0
472,48,160948,1,0
288,152,161342,1,0
392,296,161737,1,0
256,344,162132,1,0
256,96,162329,5,0
184,40,162526,2,0,B|135:100|198:163,2,135,0|0|0
328,152,163316,2,0,B|377:92|314:29,2,135,0|0|0
256,192,164105,1,0
168,344,164303,5,4
256,368,164500,1,0
344,344,164697,1,4
120,280,165092,5,4
256,256,165290,1,0
392,280,165486,1,4
256,192,165882,5,8
256,192,166079,1,8
320,256,166276,1,6
408,248,166474,1,2
472,184,166671,5,0
464,96,166869,1,0
400,32,167066,1,0
312,40,167263,2,2,B|217:58|181:161,1,180,2|10
56,344,168053,2,2,B|151:326|187:223,1,180,2|8
184,152,168645,2,0,B|243:56|338:126,1,180,6|8
69,77,169434,1,12
183,230,169829,5,0
217,315,170026,1,8
310,331,170224,1,0
402,325,170421,2,2,B|506:296|485:184,1,180,6|10
109,58,171211,2,2,B|6:88|27:200,1,180,6|8
56,280,171803,2,0,B|160:251|139:139,1,180,0|10
193,70,172395,2,10,B|269:-4|356:69,1,180,10|10
270,101,172987,5,0
200,158,173184,1,8
285,185,173381,1,0
376,184,173579,2,2,B|467:191|491:102|384:64,1,180,2|10
272,200,174368,2,2,B|181:193|157:282|264:320,1,180,2|8
328,328,174960,2,4,B|443:347|496:248,1,180,6|12
96,96,175750,1,12
360,95,176145,6,0,B|404:67|454:97,2,90,4|2|4
336,176,176934,6,0,B|336:231|288:256,2,90,4|2|4
279,112,177724,6,0,B|232:88|233:30,2,90,4|2|6
372,248,178513,5,2
284,248,178711,2,2,B|100:248,1,180,6|2
40,184,179303,5,0
48,96,179501,1,0
112,32,179698,1,0
200,40,179895,2,0,B|295:58|331:161,1,180,2|14
456,344,180685,2,2,B|361:326|325:223,1,180,2|14
328,152,181276,2,0,B|269:56|174:126,1,180,0|8
443,77,182066,1,12
328,230,182461,5,0
294,315,182658,1,8
201,331,182856,1,0
109,325,183053,2,2,B|6:296|27:184,1,180,6|10
402,58,183843,2,2,B|506:88|485:200,1,180,6|8
455,280,184435,2,0,B|352:251|373:139,1,180,0|10
318,70,185027,2,10,B|242:-4|155:69,1,180,10|10
48,152,185619,5,0
128,192,185817,1,8
208,152,186014,1,0
288,192,186211,2,0,B|384:184|464:240,1,180,2|14
280,96,187001,2,2,B|184:104|104:48,1,180,2|14
40,112,187593,2,0,B|-16:192|48:288,1,180,0|8
288,16,188382,1,12
304,192,188776,6,0,B|348:220|398:190,2,90,4|2|4
223,175,189566,6,0,B|176:199|177:257,2,90,4|2|4
280,112,190355,6,0,B|283:60|232:32,2,90,4|2|6
272,160,191145,5,2
272,160,191342,1,6
304,331,191934,6,0,B|348:359|398:329,2,90,4|10|4
111,164,192724,6,0,B|64:188|65:246,2,90,4|10|4
352,80,193513,6,0,B|355:28|304:0,2,90,4|10|14
256,192,194303,5,10
256,192,194500,1,14
256,192,195092,12,0,198645
