osu file format v6

[General]
AudioFilename: Naruto_Shippuuden_-_Blue_Bird.mp3
AudioLeadIn: 0
PreviewTime: 50597
Countdown: 1
SampleSet: Normal
StackLeniency: 0.7
Mode: 0
LetterboxInBreaks: 1

[Editor]
Bookmarks: 14106,26738,47264,83580,89895,110421,140422
DistanceSpacing: 1.20000004768372
BeatDivisor: 4
GridSize: 8

[Metadata]
Title:Blue Bird
Artist:Ikimono Gakari
Creator:buraimaster1234
Version:Hard
Source:Naruto Shippuuden
Tags:naruto shippuuden anime

[Difficulty]
HPDrainRate:6
CircleSize:4
OverallDifficulty:6
SliderMultiplier:1.4
SliderTickRate:2

[Events]
//Background and Video events
0,0,"naruto.jpg"
//Break Periods
2,83582,88253
//Storyboard Layer 0 (Background)
//Storyboard Layer 1 (Fail)
//Storyboard Layer 2 (Pass)
//Storyboard Layer 3 (Foreground)
//Storyboard Sound Samples
//Background Colour Transformations
3,100,11,11,17

[TimingPoints]
1475,394.736842105263,4,1,0,100,1,0
26146,-100,4,2,0,100,0,0
47264,392.156862745098,4,1,0,100,1,0
52790,394.736842105263,4,1,0,85,1,0
53776,-100,4,1,0,65,0,0
54170,-100,4,1,0,50,0,0
54566,-100,4,1,0,55,0,0
54763,-100,4,1,0,65,0,0
54960,-100,4,1,0,80,0,0
55157,-100,4,1,0,100,0,0
55651,-100,4,1,1,100,0,0
56046,-100,4,1,0,100,0,0
59697,-100,4,1,0,85,0,0
60091,-100,4,1,0,60,0,0
60485,-100,4,1,0,75,0,0
60882,-100,4,1,0,70,0,0
61079,-100,4,1,0,100,0,0
61276,-100,4,1,0,70,0,0
61868,-100,4,1,0,100,0,0
62066,-100,4,1,0,70,0,0
62657,-100,4,1,0,100,0,0
65421,-100,4,1,0,85,0,0
66408,-100,4,1,0,65,0,0
66802,-100,4,1,0,50,0,0
67196,-100,4,1,0,55,0,0
67393,-100,4,1,0,65,0,0
67590,-100,4,1,0,80,0,0
67787,-100,4,1,0,100,0,0
68283,-100,4,1,1,100,0,0
68677,-100,4,1,0,100,0,0
72329,-100,4,1,0,85,0,0
72723,-100,4,1,0,60,0,0
73117,-100,4,1,0,75,0,0
73513,-100,4,1,0,70,0,0
73710,-100,4,1,0,100,0,0
73907,-100,4,1,0,70,0,0
74499,-100,4,1,0,100,0,0
74696,-100,4,1,0,70,0,0
75288,-100,4,1,0,100,0,0
76671,-100,4,1,0,70,0,0
76868,-100,4,1,0,100,0,0
77065,-100,4,1,0,70,0,0
77657,-100,4,1,0,100,0,0
77854,-100,4,1,0,70,0,0
78446,-100,4,1,0,100,0,0
89303,-100,4,2,0,100,0,0
110422,392.156862745098,4,1,0,100,1,0
115127,-100,4,1,0,100,0,0
115948,394.736842105263,4,1,0,85,1,0
116934,-100,4,1,0,65,0,0
117328,-100,4,1,0,50,0,0
117722,-100,4,1,0,55,0,0
117919,-100,4,1,0,65,0,0
118116,-100,4,1,0,80,0,0
118313,-100,4,1,0,100,0,0
118809,-100,4,1,1,100,0,0
119203,-100,4,1,0,100,0,0
122855,-100,4,1,0,85,0,0
123249,-100,4,1,0,60,0,0
123643,-100,4,1,0,75,0,0
124040,-100,4,1,0,70,0,0
124237,-100,4,1,0,100,0,0
124434,-100,4,1,0,70,0,0
125026,-100,4,1,0,100,0,0
125223,-100,4,1,0,70,0,0
125815,-100,4,1,0,100,0,0
128184,-100,4,1,0,100,0,1
129566,-100,4,1,0,85,0,1
129960,-100,4,1,0,100,0,1
134105,-100,4,1,0,100,0,0
134499,-100,4,1,0,100,0,1
135882,-100,4,1,0,85,0,1
136276,-100,4,1,0,100,0,1
136671,-100,4,1,0,70,0,1
136868,-100,4,1,0,100,0,1
137065,-100,4,1,0,70,0,1
137657,-100,4,1,0,100,0,1
137854,-100,4,1,0,70,0,1
138446,-100,4,1,0,100,0,1
140224,-100,4,1,0,100,0,0
152855,-200,4,1,0,70,0,0
153053,-200,4,1,0,60,0,0
155421,-200,4,2,0,60,0,0
155766,-200,4,1,0,60,0,0
156013,-200,4,1,0,75,0,0
156210,-200,4,1,0,60,0,0
158579,-200,4,2,0,60,0,0
158924,-200,4,1,0,60,0,0
159171,-100,4,1,0,100,0,0
159368,-100,4,1,0,85,0,0
159763,-100,4,1,0,100,0,0
160158,-100,4,1,0,80,0,0
160552,-100,4,1,0,60,0,0
160749,-100,4,1,0,100,0,0
160946,-100,4,1,0,85,0,0
161340,-100,4,1,0,100,0,0
161734,-100,4,1,0,80,0,0
162128,-100,4,1,0,60,0,0
162329,-100,4,1,0,100,0,0
167263,-100,4,1,0,100,0,1
168645,-100,4,1,0,85,0,1
169040,-100,4,1,0,60,0,1
169434,-100,4,1,0,75,0,1
169829,-100,4,1,0,81,0,1
170026,-100,4,1,0,87,0,1
170223,-100,4,1,0,94,0,1
170420,-100,4,1,0,100,0,1
174961,-100,4,1,0,85,0,1
175355,-100,4,1,0,60,0,1
175749,-100,4,1,0,75,0,1
176145,-100,4,1,0,70,0,1
176342,-100,4,1,0,100,0,1
176539,-100,4,1,0,70,0,1
177130,-100,4,1,0,100,0,1
177327,-100,4,1,0,70,0,1
177918,-100,4,1,0,100,0,1
179105,-100,4,1,0,100,0,0
180289,-100,4,1,0,100,0,1
181671,-100,4,1,0,85,0,1
182065,-100,4,1,0,100,0,1
186211,-100,4,1,0,100,0,0
186605,-100,4,1,0,100,0,1
187987,-100,4,1,0,85,0,1
188381,-100,4,1,0,100,0,1
188776,-100,4,1,0,70,0,1
188973,-100,4,1,0,100,0,1
189170,-100,4,1,0,70,0,1
189762,-100,4,1,0,100,0,1
189959,-100,4,1,0,70,0,1
190551,-100,4,1,0,100,0,1
191934,-100,4,1,0,70,0,1
192131,-100,4,1,0,100,0,1
192328,-100,4,1,0,70,0,1
192921,-100,4,1,0,100,0,1
193118,-100,4,1,0,70,0,1
193710,-100,4,1,0,100,0,1

[Colours]
Combo1 : 236,211,40
Combo2 : 187,236,40
Combo3 : 89,236,40

[HitObjects]
464,56,13909,2,0,B|312:56,1,140
184,56,14698,2,8,B|85:56|64:136,1,140
48,328,15488,2,0,B|200:328,1,140
328,328,16277,2,8,B|427:328|448:248,1,140,8|8
328,192,17067,6,0,B|216:80,1,140,0|8
160,72,17659,1,0
160,144,17856,2,4,B|160:296,2,140
296,144,19040,2,12,B|448:144,2,140,12|12|12
48,56,20224,6,4,B|200:56,1,140
328,56,21013,2,8,B|427:56|448:136,1,140
464,328,21803,2,4,B|312:328,1,140
184,328,22592,2,8,B|85:328|64:248,1,140,8|8
184,192,23382,6,0,B|296:80,1,140,4|8
352,72,23974,1,0
352,144,24171,2,4,B|352:296,2,140
208,144,25355,2,12,B|56:144,2,140,12|12|0
280,144,26343,5,0
420,144,26738,2,0,B|452:224|420:304,1,140,0|8
383,338,27330,2,0,B|239:338,1,140,0|0
172,338,27922,1,8
172,266,28119,2,0,B|28:266,1,140
28,194,28711,1,8
28,122,28909,2,0,B|28:66|92:34|156:82,1,140
184,120,29501,5,8
328,120,29896,2,0,B|472:120,1,140,0|8
472,192,30488,2,0,B|328:192,1,140,2|4
259,192,31080,1,8
40,336,31474,2,0,B|184:336,1,140,0|8
252,335,32067,2,0,B|297:269|274:199,1,140,2|0
232,144,32659,5,0
92,144,33053,2,0,B|60:224|92:304,1,140,0|8
129,338,33645,2,0,B|273:338,1,140,0|0
340,338,34237,1,8
340,266,34434,2,0,B|484:266,1,140,2|2
484,194,35026,1,8
484,122,35224,2,0,B|484:66|420:34|356:82,1,140,2|2
328,120,35816,5,8
184,120,36211,2,0,B|40:120,1,140,0|8
40,192,36803,2,0,B|184:192,1,140,2|4
252,193,37395,1,8
472,336,37790,2,0,B|328:336,1,140,0|8
260,335,38382,2,0,B|215:269|238:199,1,140,2|0
296,160,38974,6,0,B|355:75|248:40,1,140,0|4
96,48,39764,2,0,B|59:124|96:192,1,140,2|0
176,296,40553,2,0,B|96:360|48:256,3,140,2|0|2|0
42,209,41935,5,2
58,140,42132,2,0,B|90:92|130:108|122:148|98:188|162:188,1,140,0|2
274,148,42922,2,0,B|350:111|418:148,1,140,2|0
466,284,43711,2,0,B|390:321|322:284,1,140,2|2
234,244,44402,2,0,B|164:210|154:292,1,105,2|6
48,152,45093,5,0
80,88,45290,1,2
208,40,45685,1,14
272,72,45882,1,0
304,136,46080,1,2
313,207,46277,1,10
169,264,46672,1,14
288,361,47067,1,12
256,192,47852,12,4,50205
472,336,50597,5,12
392,336,50793,1,12
248,288,51185,1,2
168,296,51381,1,0
96,264,51577,1,0
40,120,51969,6,2,B|64:40|152:48,1,140,2|10
392,120,52790,2,2,B|368:40|280:48,1,140,2|8
216,96,53382,2,4,B|216:240,2,140,6|12|12
384,96,54566,5,0
384,176,54763,1,8
384,344,55158,2,2,B|240:344,2,140,6|10|6
264,224,56342,1,8
184,224,56540,2,0,B|88:224|72:152,1,140,0|10
72,80,57132,2,10,B|216:80,1,140,10|10
296,80,57724,5,0
376,80,57921,1,8
432,232,58316,2,2,B|336:256|384:344,1,140,2|10
240,272,59105,2,2,B|336:248|288:160,1,140,2|8
224,120,59697,2,4,B|152:80|96:144,1,140,6|12
304,88,60487,1,12
472,192,60882,5,4
472,272,61079,1,2
472,352,61276,1,4
312,352,61671,6,0,B|264:352|264:304,2,70,4|2|4
312,192,62461,5,4
232,192,62658,1,2
152,192,62855,1,6
40,72,63250,5,2
120,72,63447,2,2,B|264:72,1,140,6|2
368,192,64236,5,8
448,200,64434,1,0
472,120,64632,2,2,B|448:40|360:48,1,140,2|10
120,120,65421,2,2,B|144:40|232:48,1,140,2|8
296,96,66013,2,4,B|296:240,2,140,6|12|12
128,96,67197,5,0
128,176,67394,1,8
128,344,67789,2,2,B|272:344,2,140,6|10|6
248,224,68973,1,8
328,224,69171,2,4,B|424:224|440:152,1,140,0|10
440,80,69763,2,10,B|296:80,1,140,10|10
216,80,70355,5,0
136,80,70552,1,8
80,232,70947,2,2,B|176:256|128:344,1,140,2|10
272,272,71736,2,2,B|176:248|224:160,1,140,2|8
288,120,72328,2,4,B|360:80|416:144,1,140,6|12
208,88,73118,1,12
40,192,73513,5,4
40,272,73710,1,2
40,352,73907,1,4
200,352,74302,6,0,B|248:352|248:304,2,70,4|2|4
200,192,75092,5,4
280,192,75289,1,2
360,192,75486,1,6
472,72,75882,5,2
392,72,76079,2,2,B|248:72,1,140,6|2
160,72,76671,5,4
64,72,76868,5,10
112,152,77066,5,4
304,168,77461,5,4
208,168,77658,5,10
256,248,77856,5,4
448,272,78250,5,4
352,272,78447,5,10
400,352,78645,5,14
232,352,79039,5,10
144,352,79237,2,2,B|0:352,1,140,14|10
256,192,79829,12,0,83382
112,336,89303,5,0
112,264,89500,1,0
256,280,89895,2,0,B|328:328|400:264,1,140,0|8
440,224,90487,2,0,B|488:152|424:80,1,140,0|0
378,48,91079,1,8
304,48,91276,2,0,B|160:48,1,140,0|0
89,48,91868,1,8
32,96,92066,2,0,B|-16:168|48:240,1,140,0|0
88,280,92658,5,8
264,272,93053,2,0,B|344:272|360:360,1,140,0|8
359,356,93645,2,0,B|456:352|432:256,1,140,2|4
400,200,94237,1,8
152,24,94632,2,0,B|55:28|79:124,1,140,0|8
116,176,95224,2,0,B|260:176,1,140,2|0
330,176,95816,5,0
256,304,96211,2,0,B|184:352|112:288,1,140,0|8
72,248,96803,2,0,B|24:176|88:104,1,140,0|0
127,60,97395,1,8
192,16,97592,2,0,B|264:-32|336:32,1,140,2|2
384,70,98184,1,8
424,136,98382,2,0,B|472:208|408:280,1,140,2|2
368,320,98974,5,8
248,272,99369,2,0,B|168:272|152:360,1,140,0|8
153,356,99961,2,0,B|56:352|80:256,1,140,2|4
112,200,100553,1,8
360,24,100948,2,0,B|457:28|433:124,1,140,0|8
396,176,101539,2,0,B|252:176,1,140,2|0
182,176,102132,6,0,B|94:216|158:296,1,140,0|4
302,296,102921,2,0,B|374:312|438:272,1,140,2|0
358,152,103711,2,0,B|286:112|302:216|222:152,3,140,2|0|2|0
174,120,105092,5,2
206,58,105289,2,0,B|246:26|310:58|238:106|334:106,1,140,0|2
446,178,106079,2,0,B|454:250|390:322,1,140,2|0
230,322,106868,2,0,B|222:250|286:178,1,140,2|2
270,74,107559,2,0,B|210:34|174:98,1,105,2|6
56,224,108250,5,0
128,224,108447,1,2
240,136,108842,1,12
304,168,109039,1,0
336,232,109237,1,2
400,264,109434,1,10
232,296,109829,1,14
64,328,110224,1,12
256,192,111010,12,0,111990
88,264,112382,5,4
192,168,112774,5,4
328,168,113167,5,4
432,264,113559,5,4
472,336,113755,1,12
392,336,113951,1,12
248,288,114343,1,2
168,296,114539,1,0
96,264,114735,1,0
40,120,115127,6,2,B|64:40|152:48,1,140,2|10
392,120,115948,2,2,B|368:40|280:48,1,140,2|8
216,96,116540,2,4,B|216:240,2,140,6|12|12
384,96,117724,5,0
384,176,117921,1,8
384,344,118316,2,2,B|240:344,2,140,6|10|6
264,224,119500,1,8
184,224,119698,2,4,B|88:224|72:152,1,140,0|10
72,80,120290,2,10,B|216:80,1,140,10|10
296,80,120882,5,0
376,80,121079,1,8
432,232,121474,2,2,B|336:256|384:344,1,140,2|10
240,272,122263,2,2,B|336:248|288:160,1,140,2|8
224,120,122855,2,4,B|152:80|96:144,1,140,6|12
304,88,123645,1,12
472,192,124040,5,4
472,272,124237,1,2
472,352,124434,1,4
312,352,124829,6,0,B|264:352|264:304,2,70,4|2|4
312,192,125619,5,4
232,192,125816,1,2
152,192,126013,1,6
40,312,126408,5,2
40,235,126605,2,2,B|40:187|72:163|116:173|113:231,1,140,6|2
112,304,127198,5,0
192,312,127395,1,8
264,352,127592,1,0
344,352,127790,2,4,B|488:352,2,140,2|14|2
152,312,128974,1,2
152,232,129171,2,0,B|296:232,2,140,0|8|12
152,64,130355,5,0
232,64,130552,1,8
384,144,130948,2,2,B|240:144,1,140,6|10
88,176,131737,2,2,B|-8:176|8:272,1,140,6|8
88,288,132329,2,0,B|88:360|208:336,1,140,0|14
280,360,132921,2,2,B|376:360|360:272,1,140,10|6
304,208,133513,5,0
224,208,133711,1,8
56,208,134105,2,0,B|16:136|56:64,1,140,2|10
216,80,134895,2,2,B|272:144|216:208,1,140,2|10
264,272,135486,2,0,B|336:312|392:248,1,140,0|8
184,280,136276,1,12
304,152,136671,6,0,B|321:116|363:118,2,70,4|2|4
224,168,137461,6,0,B|187:162|172:121,2,70,4|2|4
280,232,138250,6,0,B|288:280|240:304,2,70,4|2|6
256,192,139040,12,4,140224
