osu file format v7

[General]
AudioFilename: Blue Bird.mp3
AudioLeadIn: 1004
PreviewTime: 44174
Countdown: 0
SampleSet: Soft
StackLeniency: 0.7
Mode: 0
LetterboxInBreaks: 1

[Editor]
DistanceSpacing: 0.800000011920929
BeatDivisor: 4
GridSize: 8

[Metadata]
Title:Blue Bird (TV Size)
Artist:Ikimono Gakari
Creator:arken1015
Version:Normal
Source:Naruto Shippuden
Tags:taiko lepidopodus op3

[Difficulty]
HPDrainRate:6
CircleSize:5
OverallDifficulty:6
SliderMultiplier:0.8
SliderTickRate:1

[Events]
//Background and Video events
Video,-560,"op3-nosound.avi"
0,0,"BG.png"
//Break Periods
2,13402,18669
//Storyboard Layer 0 (Background)
//Storyboard Layer 1 (Fail)
//Storyboard Layer 2 (Pass)
//Storyboard Layer 3 (Foreground)
//Storyboard Sound Samples
//Background Colour Transformations
3,100,163,162,255

[TimingPoints]
763,394.918712564997,4,2,1,100,1,0
13202,-100,4,1,0,100,0,0
18925,-100,4,2,1,100,0,0
41805,395.178818415333,4,2,1,100,1,0
44866,-100,4,1,0,100,0,0
44964,-100,4,1,0,100,0,1
77157,-100,4,2,0,0,0,0

[Colours]
Combo1 : 255,91,13
Combo2 : 79,167,255
Combo3 : 255,187,255

[HitObjects]
32,192,170,2,0,B|120:192,1,80
144,192,762,2,2,B|216:256|296:184,1,160
288,192,2145,1,0
480,192,3329,6,0,B|392:192,1,80
368,192,3922,2,2,B|296:128|216:200,1,160
223,193,5107,1,0
191,193,5304,1,0
126,193,5699,1,2
256,104,6489,6,0,B|168:104,1,80
143,104,7081,2,2,B|79:176|151:256,1,160
144,248,8463,1,0
328,192,9648,6,2,B|383:224,2,40
296,136,10438,2,2,B|296:80,2,40
264,192,11228,1,0
216,232,11623,1,2
168,192,12018,1,0
256,192,12215,12,4,13202
48,192,19719,6,0,B|136:192,1,80
160,192,20311,1,2
256,192,20903,1,8
464,192,21298,6,0,B|376:192,1,80
352,192,21891,1,2
256,192,22483,1,8
256,128,22878,6,0,B|256:24,1,80
256,16,23470,1,2
328,72,24063,1,8
256,256,24458,6,0,B|256:360,1,80
256,368,25050,1,2
184,312,25642,1,8
184,192,26037,6,0,B|120:192,2,40,0|0|2
216,192,26630,1,0
256,104,27222,1,8
328,192,27617,6,0,B|392:192,2,40,0|0|2
296,192,28209,1,0
256,280,28802,1,8
256,216,29197,5,0
256,152,29592,1,8
256,87,29986,1,0
256,87,30184,1,0
280,104,30381,2,2,B|333:142|256:181,1,80
256,189,30974,1,2
256,221,31171,1,0
64,192,31764,6,0,B|8:192,2,40,0|0|2
96,192,32356,1,4
256,88,33541,1,8
256,152,33936,2,0,B|255:221,2,60,0|2|0
376,192,34923,6,0,B|432:192,2,40,0|0|2
344,192,35515,1,0
256,360,36700,1,8
256,296,37095,2,0,B|256:226,2,60,2|0|0
168,192,38082,5,0
136,192,38280,1,0
104,192,38477,1,2
72,192,38675,2,2,B|24:128|80:80,1,120,2|0
138,84,39662,1,0
138,84,40057,1,2
256,32,40847,5,0
256,32,41044,2,2,B|328:96|232:144,1,120,2|0
256,192,41805,12,0,44176
24,192,44966,6,0,B|96:120|176:200,1,160,0|2
256,192,46349,1,4
433,119,47535,1,0
464,136,47732,1,0
486,158,47930,1,8
488,192,48127,6,0,B|424:264|336:184,1,160,0|2
302,147,49313,1,0
272,160,49510,1,0
256,224,49906,1,4
128,256,50696,1,0
96,248,50894,1,0
72,224,51091,1,8
56,192,51289,5,0
56,192,52079,2,0,B|120:136|176:208,1,120,2|4
336,192,53857,6,0,B|384:192,2,40,2|2|0
272,192,54648,2,0,B|272:144,2,40,2|2|0
256,128,55438,1,0
256,64,55833,1,2
312,96,56229,2,0,B|360:96,1,40,0|4
488,192,57612,6,0,B|424:264|337:182,1,160,0|2
256,192,58995,1,4
83,275,60180,1,0
60,252,60378,1,0
43,224,60575,1,8
24,192,60773,6,0,B|96:120|177:202,1,160,0|2
256,192,62156,1,0
256,256,62551,1,4
384,256,63342,2,0,B|432:264|464:216,1,80,0|2
472,192,63935,5,0
472,192,64725,2,0,B|416:240|352:182,1,120,2|4
176,192,66503,6,0,B|176:136,2,40,2|2|0
240,192,67294,2,0,B|240:248,2,40,2|2|0
256,128,68084,1,0
256,64,68479,1,2
312,96,68874,1,0
312,96,69072,1,4
336,192,69665,6,0,B|336:248,1,40,2|2
336,232,70060,1,0
272,232,70455,2,0,B|272:176,1,40,2|2
272,192,70850,1,0
256,128,71245,1,0
256,64,71641,1,2
200,96,72036,1,0
200,96,72233,1,4
176,192,72826,5,2
176,192,73024,1,2
176,192,73221,1,0
240,192,73616,1,2
240,192,73814,1,2
240,192,74012,1,0
240,256,74407,1,0
240,320,74802,1,2
240,256,75197,1,0
256,192,75395,12,0,77173
