osu file format v7

[General]
AudioFilename: Blue Bird.mp3
AudioLeadIn: 1500
PreviewTime: 44174
Countdown: 0
SampleSet: Soft
StackLeniency: 0.7
Mode: 0
LetterboxInBreaks: 1

[Editor]
DistanceSpacing: 0.600000023841858
BeatDivisor: 4
GridSize: 8

[Metadata]
Title:Blue Bird (TV Size)
Artist:Ikimono Gakari
Creator:arken1015
Version:Insane
Source:Naruto Shippuden
Tags:taiko lepidopodus op3

[Difficulty]
HPDrainRate:7
CircleSize:5
OverallDifficulty:7
SliderMultiplier:1.6
SliderTickRate:1

[Events]
//Background and Video events
Video,-560,"op3-nosound.avi"
0,0,"BG.png"
//Break Periods
2,13402,18226
//Storyboard Layer 0 (Background)
//Storyboard Layer 1 (Fail)
//Storyboard Layer 2 (Pass)
//Storyboard Layer 3 (Foreground)
//Storyboard Sound Samples
//Background Colour Transformations
3,100,163,162,255

[TimingPoints]
763,394.918712564997,4,2,1,100,1,0
13202,-100,4,1,0,100,0,0
18925,-100,4,2,1,100,0,0
41805,395.178818415333,4,2,1,100,1,0
44866,-100,4,1,0,100,0,0
44964,-100,4,1,0,100,0,1
77157,-100,4,2,0,0,0,0

[Colours]
Combo1 : 255,91,13
Combo2 : 79,167,255
Combo3 : 255,187,255

[HitObjects]
56,192,170,1,0
56,144,368,1,0
96,168,565,1,2
136,192,762,2,0,B|192:256|280:192,1,160
376,192,1552,2,2,B|336:88|232:112,1,160
255,108,2145,1,0
472,168,3329,5,0
472,216,3527,1,0
432,192,3724,1,2
384,192,3922,2,0,B|304:136|224:200,1,160
136,192,4712,1,2
88,192,4909,1,0
112,232,5107,1,0
136,272,5304,2,2,B|216:336|368:272,1,240,2|2
480,192,6489,5,0
480,144,6686,1,2
440,168,6884,1,2
440,120,7081,2,0,B|360:56|288:128,1,160
392,144,7871,2,2,B|336:224|160:192,1,240,2|0
448,192,9648,5,0
400,192,9846,1,2
352,192,10043,1,2
64,192,10438,5,0
112,192,10635,1,2
160,192,10833,1,2
256,192,11228,5,0
256,96,11623,1,2
336,144,12018,2,2,B|320:8|256:-8|192:0|176:144,1,320
176,192,13005,1,0
176,192,13202,1,4
24,192,19126,5,0
72,192,19324,1,0
48,152,19521,1,2
48,232,19719,5,0
96,232,19916,1,0
72,272,20114,2,0,B|160:272,1,80,2|0
248,272,20706,1,2
256,224,20903,1,0
264,176,21101,1,0
312,192,21298,5,0
360,192,21496,1,0
336,152,21693,2,2,B|336:64,1,80
256,24,22286,6,2,B|200:56|272:88,1,80
258,81,22680,1,0
256,128,22878,1,0
256,176,23075,1,0
216,152,23273,1,2
216,200,23470,1,2
256,224,23668,1,0
296,200,23865,5,0
296,152,24063,1,2
336,176,24260,1,0
376,200,24458,2,2,B|432:176|368:136,1,80
336,128,24853,1,0
296,104,25050,1,4
488,192,25445,5,0
440,192,25642,1,0
464,152,25840,1,2
464,232,26037,5,0
416,232,26235,1,0
440,272,26432,2,0,B|352:272,1,80,2|0
264,272,27025,1,2
256,224,27222,1,0
248,176,27420,1,0
200,192,27617,5,0
152,192,27814,1,0
176,152,28012,2,2,B|176:64,1,80
256,24,28604,2,2,B|312:56|240:88,1,80
253,81,28999,1,0
256,128,29197,5,0
256,176,29394,1,0
304,176,29592,1,2
304,272,29986,1,2
280,312,30184,1,0
256,272,30381,2,2,B|192:208|264:120,1,160
256,128,30974,1,2
256,80,31171,2,0,B|416:48|512:128|424:200|232:192,1,400,0|2
256,192,32356,5,4
24,192,33541,5,2
72,192,33738,1,0
48,152,33936,2,0,B|48:24,2,120,0|2|0
48,240,34923,5,0
96,240,35120,1,0
72,280,35318,1,2
120,280,35515,2,2,B|256:336|440:280,1,320
433,185,36700,1,2
433,137,36898,1,2
391,161,37095,2,0,B|264:160,2,120,2|0|2
304,192,38082,5,0
256,192,38280,1,0
208,192,38477,1,2
232,152,38675,6,0,B|328:152,1,80
360,152,39070,1,2
384,192,39267,1,0
384,288,39662,1,0
360,328,39859,1,0
336,288,40057,1,2
256,240,40452,1,2
208,240,40649,1,0
232,200,40847,2,0,B|232:112,2,80
232,200,41439,1,2
256,160,41637,1,0
256,192,41735,12,4,43188
256,320,43583,5,0
280,280,43780,1,2
232,280,43978,1,2
256,240,44176,1,0
256,192,44373,5,0
256,144,44571,1,0
256,96,44768,1,2
256,48,44966,2,0,B|352:48|352:152,1,160,4|0
440,192,45756,1,8
416,232,45954,1,0
392,272,46151,1,0
368,312,46349,2,0,B|232:320|72:184,1,320,0|4
79,94,47535,5,0
79,142,47732,1,0
79,190,47930,1,2
79,238,48127,2,0,B|175:238|175:134,1,160,4|0
256,80,48918,2,0,B|256:176,1,80
256,160,49313,1,0
280,120,49510,2,0,B|368:120|368:264|240:288,1,240,0|8
256,192,50696,5,0
256,144,50894,1,0
256,96,51091,1,2
256,48,51289,2,0,B|160:48|160:152,1,160
72,192,52079,1,8
96,232,52277,1,0
120,272,52474,1,0
144,312,52672,2,0,B|280:320|440:184,1,320,0|4
336,192,53857,6,0,B|240:192,1,80
256,192,54253,1,4
296,104,54648,2,0,B|200:104,1,80
216,104,55043,1,4
256,16,55438,1,0
304,16,55636,1,0
280,56,55833,1,2
280,152,56229,2,0,B|280:248,1,80,0|0
376,336,57019,5,0
336,368,57216,1,0
288,368,57414,1,2
256,336,57612,2,0,B|160:336|160:232,1,160,4|0
72,192,58402,1,8
96,152,58600,1,0
120,112,58797,1,0
144,72,58995,2,0,B|280:64|440:200,1,320,0|0
336,192,60180,5,0
288,192,60378,1,0
256,160,60575,1,2
256,112,60773,2,0,B|176:48|104:112,1,160
64,192,61563,2,0,B|152:192,1,80
104,224,61959,2,0,B|0:224,1,80,2|0
0,264,62354,1,8
40,288,62551,2,0,B|128:288,1,80,0|6
256,240,63342,5,0
256,192,63539,1,0
256,144,63737,1,2
256,96,63935,2,0,B|336:96|376:200,1,160
384,240,64527,1,8
400,288,64725,2,0,B|408:352|352:360,1,80,2|0
328,368,65120,2,0,B|272:376|256:344,1,80,0|4
16,192,66503,6,0,B|16:104,1,80,0|0
16,112,66898,1,4
112,112,67294,2,0,B|112:200,1,80
112,192,67689,1,4
208,192,68084,1,0
256,192,68281,1,0
232,152,68479,1,2
328,152,68874,2,0,B|392:144|384:208,1,80,0|0
496,192,69665,6,0,B|496:280,1,80
496,272,70060,1,4
400,272,70455,2,0,B|400:184,1,80
400,192,70850,1,4
304,192,71245,1,0
256,192,71443,1,0
280,232,71641,1,2
184,232,72036,2,0,B|120:240|128:176,1,80,0|0
28,193,72826,6,0,B|28:293,2,80
64,160,73419,1,8
101,193,73616,2,0,B|101:293,2,80,0|0|0
144,224,74209,1,8
184,192,74407,1,0
232,192,74604,1,0
208,152,74802,1,2
256,72,75197,1,0
256,192,75395,12,0,77173
